  0
SECTION
  2
HEADER
  9
$ACADVER
  1
AC1015
  9
$ACADMAINTVER
 70
     6
  9
$DWGCODEPAGE
  3
ANSI_1252
  9
$INSBASE
 10
0.0
 20
0.0
 30
0.0
  9
$EXTMIN
 10
1.000000000000000E+20
 20
1.000000000000000E+20
 30
1.000000000000000E+20
  9
$EXTMAX
 10
-1.000000000000000E+20
 20
-1.000000000000000E+20
 30
-1.000000000000000E+20
  9
$LIMMIN
 10
0.0
 20
0.0
  9
$LIMMAX
 10
420.0
 20
297.0
  9
$ORTHOMODE
 70
     1
  9
$REGENMODE
 70
     1
  9
$FILLMODE
 70
     1
  9
$QTEXTMODE
 70
     0
  9
$MIRRTEXT
 70
     0
  9
$LTSCALE
 40
1.0
  9
$ATTMODE
 70
     1
  9
$TEXTSIZE
 40
2.5
  9
$TRACEWID
 40
1.0
  9
$TEXTSTYLE
  7
STANDARD
  9
$CLAYER
  8
COTAS
  9
$CELTYPE
  6
BYLAYER
  9
$CECOLOR
 62
   256
  9
$CELTSCALE
 40
1.0
  9
$DISPSILH
 70
     0
  9
$DIMSCALE
 40
1.0
  9
$DIMASZ
 40
2.0
  9
$DIMEXO
 40
0.5
  9
$DIMDLI
 40
0.5
  9
$DIMRND
 40
0.0
  9
$DIMDLE
 40
0.0
  9
$DIMEXE
 40
1.0
  9
$DIMTP
 40
0.0
  9
$DIMTM
 40
0.0
  9
$DIMTXT
 40
2.5
  9
$DIMCEN
 40
2.5
  9
$DIMTSZ
 40
0.0
  9
$DIMTOL
 70
     0
  9
$DIMLIM
 70
     0
  9
$DIMTIH
 70
     0
  9
$DIMTOH
 70
     0
  9
$DIMSE1
 70
     0
  9
$DIMSE2
 70
     0
  9
$DIMTAD
 70
     1
  9
$DIMZIN
 70
     8
  9
$DIMBLK
  1

  9
$DIMASO
 70
     1
  9
$DIMSHO
 70
     1
  9
$DIMPOST
  1

  9
$DIMAPOST
  1

  9
$DIMALT
 70
     0
  9
$DIMALTD
 70
     3
  9
$DIMALTF
 40
0.03937007874016
  9
$DIMLFAC
 40
1.0
  9
$DIMTOFL
 70
     1
  9
$DIMTVP
 40
0.0
  9
$DIMTIX
 70
     0
  9
$DIMSOXD
 70
     0
  9
$DIMSAH
 70
     0
  9
$DIMBLK1
  1

  9
$DIMBLK2
  1

  9
$DIMSTYLE
  2
1-1
  9
$DIMCLRD
 70
   256
  9
$DIMCLRE
 70
   256
  9
$DIMCLRT
 70
     7
  9
$DIMTFAC
 40
1.0
  9
$DIMGAP
 40
0.5
  9
$DIMJUST
 70
     0
  9
$DIMSD1
 70
     0
  9
$DIMSD2
 70
     0
  9
$DIMTOLJ
 70
     0
  9
$DIMTZIN
 70
     8
  9
$DIMALTZ
 70
     0
  9
$DIMALTTZ
 70
     0
  9
$DIMUPT
 70
     0
  9
$DIMDEC
 70
     2
  9
$DIMTDEC
 70
     2
  9
$DIMALTU
 70
     2
  9
$DIMALTTD
 70
     3
  9
$DIMTXSTY
  7
STANDARD
  9
$DIMAUNIT
 70
     0
  9
$DIMADEC
 70
     0
  9
$DIMALTRND
 40
0.0
  9
$DIMAZIN
 70
     0
  9
$DIMDSEP
 70
    46
  9
$DIMATFIT
 70
     3
  9
$DIMFRAC
 70
     0
  9
$DIMLDRBLK
  1

  9
$DIMLUNIT
 70
     2
  9
$DIMLWD
 70
    -2
  9
$DIMLWE
 70
    -2
  9
$DIMTMOVE
 70
     2
  9
$LUNITS
 70
     2
  9
$LUPREC
 70
     3
  9
$SKETCHINC
 40
1.0
  9
$FILLETRAD
 40
10.0
  9
$AUNITS
 70
     0
  9
$AUPREC
 70
     0
  9
$MENU
  1
.
  9
$ELEVATION
 40
0.0
  9
$PELEVATION
 40
0.0
  9
$THICKNESS
 40
0.0
  9
$LIMCHECK
 70
     0
  9
$CHAMFERA
 40
10.0
  9
$CHAMFERB
 40
10.0
  9
$CHAMFERC
 40
20.0
  9
$CHAMFERD
 40
0.0
  9
$SKPOLY
 70
     0
  9
$TDCREATE
 40
2455022.554026158
  9
$TDUCREATE
 40
2455022.679026158
  9
$TDUPDATE
 40
2458724.323563831
  9
$TDUUPDATE
 40
2458724.448563831
  9
$TDINDWG
 40
0.0018272106
  9
$TDUSRTIMER
 40
0.0002089815
  9
$USRTIMER
 70
     1
  9
$ANGBASE
 50
0.0
  9
$ANGDIR
 70
     0
  9
$PDMODE
 70
     0
  9
$PDSIZE
 40
0.0
  9
$PLINEWID
 40
0.0
  9
$SPLFRAME
 70
     0
  9
$SPLINETYPE
 70
     6
  9
$SPLINESEGS
 70
     8
  9
$HANDSEED
  5
28E6
  9
$SURFTAB1
 70
     6
  9
$SURFTAB2
 70
     6
  9
$SURFTYPE
 70
     6
  9
$SURFU
 70
     6
  9
$SURFV
 70
     6
  9
$UCSBASE
  2

  9
$UCSNAME
  2

  9
$UCSORG
 10
0.0
 20
0.0
 30
0.0
  9
$UCSXDIR
 10
1.0
 20
0.0
 30
0.0
  9
$UCSYDIR
 10
0.0
 20
1.0
 30
0.0
  9
$UCSORTHOREF
  2

  9
$UCSORTHOVIEW
 70
     0
  9
$UCSORGTOP
 10
0.0
 20
0.0
 30
0.0
  9
$UCSORGBOTTOM
 10
0.0
 20
0.0
 30
0.0
  9
$UCSORGLEFT
 10
0.0
 20
0.0
 30
0.0
  9
$UCSORGRIGHT
 10
0.0
 20
0.0
 30
0.0
  9
$UCSORGFRONT
 10
0.0
 20
0.0
 30
0.0
  9
$UCSORGBACK
 10
0.0
 20
0.0
 30
0.0
  9
$PUCSBASE
  2

  9
$PUCSNAME
  2

  9
$PUCSORG
 10
0.0
 20
0.0
 30
0.0
  9
$PUCSXDIR
 10
1.0
 20
0.0
 30
0.0
  9
$PUCSYDIR
 10
0.0
 20
1.0
 30
0.0
  9
$PUCSORTHOREF
  2

  9
$PUCSORTHOVIEW
 70
     0
  9
$PUCSORGTOP
 10
0.0
 20
0.0
 30
0.0
  9
$PUCSORGBOTTOM
 10
0.0
 20
0.0
 30
0.0
  9
$PUCSORGLEFT
 10
0.0
 20
0.0
 30
0.0
  9
$PUCSORGRIGHT
 10
0.0
 20
0.0
 30
0.0
  9
$PUCSORGFRONT
 10
0.0
 20
0.0
 30
0.0
  9
$PUCSORGBACK
 10
0.0
 20
0.0
 30
0.0
  9
$USERI1
 70
     0
  9
$USERI2
 70
     0
  9
$USERI3
 70
     0
  9
$USERI4
 70
     0
  9
$USERI5
 70
     0
  9
$USERR1
 40
0.0
  9
$USERR2
 40
0.0
  9
$USERR3
 40
0.0
  9
$USERR4
 40
0.0
  9
$USERR5
 40
0.0
  9
$WORLDVIEW
 70
     1
  9
$SHADEDGE
 70
     3
  9
$SHADEDIF
 70
    70
  9
$TILEMODE
 70
     0
  9
$MAXACTVP
 70
    64
  9
$PINSBASE
 10
0.0
 20
0.0
 30
0.0
  9
$PLIMCHECK
 70
     0
  9
$PEXTMIN
 10
0.0
 20
0.0
 30
0.0
  9
$PEXTMAX
 10
210.0
 20
297.0000000000001
 30
0.0
  9
$PLIMMIN
 10
-0.0000000000000568
 20
-0.0000000000007105
  9
$PLIMMAX
 10
209.9999999999999
 20
296.9999999999993
  9
$UNITMODE
 70
     0
  9
$VISRETAIN
 70
     1
  9
$PLINEGEN
 70
     0
  9
$PSLTSCALE
 70
     1
  9
$TREEDEPTH
 70
  3020
  9
$CMLSTYLE
  2
STANDARD
  9
$CMLJUST
 70
     0
  9
$CMLSCALE
 40
20.0
  9
$PROXYGRAPHICS
 70
     1
  9
$MEASUREMENT
 70
     1
  9
$CELWEIGHT
370
    -1
  9
$ENDCAPS
280
     0
  9
$JOINSTYLE
280
     0
  9
$LWDISPLAY
290
     0
  9
$INSUNITS
 70
     0
  9
$HYPERLINKBASE
  1

  9
$STYLESHEET
  1

  9
$XEDIT
290
     1
  9
$CEPSNTYPE
380
     0
  9
$PSTYLEMODE
290
     1
  9
$FINGERPRINTGUID
  2
{EDDD1D80-9778-4252-A28D-C5EA86128B66}
  9
$VERSIONGUID
  2
{FAEB1C32-E019-11D5-929B-00C0DF256EC4}
  9
$EXTNAMES
290
     1
  9
$PSVPSCALE
 40
0.0
  9
$OLESTARTUP
290
     0
  0
ENDSEC
  0
SECTION
  2
CLASSES
  0
CLASS
  1
ACDBDICTIONARYWDFLT
  2
AcDbDictionaryWithDefault
  3
ObjectDBX Classes
 90
        0
280
     0
281
     0
  0
CLASS
  1
VISUALSTYLE
  2
AcDbVisualStyle
  3
ObjectDBX Classes
 90
     4095
280
     0
281
     0
  0
CLASS
  1
TABLESTYLE
  2
AcDbTableStyle
  3
ObjectDBX Classes
 90
     4095
280
     0
281
     0
  0
CLASS
  1
DICTIONARYVAR
  2
AcDbDictionaryVar
  3
ObjectDBX Classes
 90
        0
280
     0
281
     0
  0
CLASS
  1
SCALE
  2
AcDbScale
  3
ObjectDBX Classes
 90
     1153
280
     0
281
     0
  0
CLASS
  1
CELLSTYLEMAP
  2
AcDbCellStyleMap
  3
ObjectDBX Classes
 90
     1152
280
     0
281
     0
  0
CLASS
  1
RASTERVARIABLES
  2
AcDbRasterVariables
  3
ISM
 90
        0
280
     0
281
     0
  0
CLASS
  1
MATERIAL
  2
AcDbMaterial
  3
ObjectDBX Classes
 90
     1153
280
     0
281
     0
  0
CLASS
  1
SUN
  2
AcDbSun
  3
SCENEOE
 90
     1153
280
     0
281
     0
  0
CLASS
  1
MLEADERSTYLE
  2
AcDbMLeaderStyle
  3
ACDB_MLEADERSTYLE_CLASS
 90
     4095
280
     0
281
     0
  0
CLASS
  1
DIMASSOC
  2
AcDbDimAssoc
  3
"AcDbDimAssoc|Product Desc:     AcDim ARX App For Dimension|Company:          Autodesk, Inc.|WEB Address:      www.autodesk.com"
 90
        0
280
     0
281
     0
  0
CLASS
  1
SORTENTSTABLE
  2
AcDbSortentsTable
  3
ObjectDBX Classes
 90
        0
280
     0
281
     0
  0
CLASS
  1
XRECORD
  2
AcDbXrecord
  3
ObjectDBX Classes
 90
        0
280
     0
281
     0
  0
CLASS
  1
LWPOLYLINE
  2
AcDbPolyline
  3
ObjectDBX Classes
 90
        0
280
     0
281
     1
  0
CLASS
  1
HATCH
  2
AcDbHatch
  3
ObjectDBX Classes
 90
        0
280
     0
281
     1
  0
CLASS
  1
ACDBPLACEHOLDER
  2
AcDbPlaceHolder
  3
ObjectDBX Classes
 90
        0
280
     0
281
     0
  0
CLASS
  1
LAYOUT
  2
AcDbLayout
  3
ObjectDBX Classes
 90
        0
280
     0
281
     0
  0
ENDSEC
  0
SECTION
  2
TABLES
  0
TABLE
  2
VPORT
  5
8
330
0
100
AcDbSymbolTable
 70
     1
  0
VPORT
  5
29
330
8
100
AcDbSymbolTableRecord
100
AcDbViewportTableRecord
  2
*ACTIVE
 70
     0
 10
0.0
 20
0.0
 11
1.0
 21
1.0
 12
288.6885433150345
 22
95.86475502773885
 13
0.0
 23
0.0
 14
10.0
 24
10.0
 15
10.0
 25
10.0
 16
0.0
 26
0.0
 36
1.0
 17
-134.1869158878501
 27
0.0
 37
0.0
 40
505.2187499999978
 41
2.642163661581137
 42
50.0
 43
0.0
 44
0.0
 50
0.0
 51
0.0
 71
    16
 72
  1000
 73
     1
 74
     2
 75
     0
 76
     0
 77
     0
 78
     0
281
     0
 65
     1
110
0.0
120
0.0
130
0.0
111
1.0
121
0.0
131
0.0
112
0.0
122
1.0
132
0.0
 79
     0
146
0.0
  0
ENDTAB
  0
TABLE
  2
LTYPE
  5
5
330
0
100
AcDbSymbolTable
 70
     3
  0
LTYPE
  5
14
330
5
100
AcDbSymbolTableRecord
100
AcDbLinetypeTableRecord
  2
BYBLOCK
 70
     0
  3

 72
    65
 73
     0
 40
0.0
  0
LTYPE
  5
15
330
5
100
AcDbSymbolTableRecord
100
AcDbLinetypeTableRecord
  2
BYLAYER
 70
     0
  3

 72
    65
 73
     0
 40
0.0
  0
LTYPE
  5
16
330
5
100
AcDbSymbolTableRecord
100
AcDbLinetypeTableRecord
  2
CONTINUOUS
 70
     0
  3
Solid line
 72
    65
 73
     0
 40
0.0
  0
LTYPE
  5
262D
330
5
100
AcDbSymbolTableRecord
100
AcDbLinetypeTableRecord
  2
CENTER
 70
     0
  3
Center ____ _ ____ _ ____ _ ____ _ ____ _ ____
 72
    65
 73
     4
 40
10.16
 49
6.35
 74
     0
 49
-1.27
 74
     0
 49
1.27
 74
     0
 49
-1.27
 74
     0
  0
ENDTAB
  0
TABLE
  2
LAYER
  5
2
102
{ACAD_XDICTIONARY
360
12A
102
}
330
0
100
AcDbSymbolTable
 70
    17
  0
LAYER
  5
10
330
2
100
AcDbSymbolTableRecord
100
AcDbLayerTableRecord
  2
0
 70
     0
 62
     7
  6
CONTINUOUS
370
    -3
390
1DCE
  0
LAYER
  5
4DB
330
2
100
AcDbSymbolTableRecord
100
AcDbLayerTableRecord
  2
COTAS
 70
     0
 62
     1
  6
CONTINUOUS
370
    -3
390
1DCE
1001
ACAECLAYERSTANDARD
1000

1000

  0
LAYER
  5
2626
330
2
100
AcDbSymbolTableRecord
100
AcDbLayerTableRecord
  2
Defpoints
 70
     0
 62
     7
  6
CONTINUOUS
290
     0
370
    -3
390
1DCE
  0
LAYER
  5
2627
330
2
100
AcDbSymbolTableRecord
100
AcDbLayerTableRecord
  2
TEXTO
 70
     0
 62
     7
  6
CONTINUOUS
370
     0
390
1DCE
  0
LAYER
  5
2629
330
2
100
AcDbSymbolTableRecord
100
AcDbLayerTableRecord
  2
LAYOUT
 70
     0
 62
     8
  6
CONTINUOUS
370
    -3
390
1DCE
  0
LAYER
  5
262C
330
2
100
AcDbSymbolTableRecord
100
AcDbLayerTableRecord
  2
CENTRO
 70
     0
 62
     3
  6
CENTER
370
    -3
390
1DCE
1001
ACAECLAYERSTANDARD
1000

1000

  0
LAYER
  5
262E
330
2
100
AcDbSymbolTableRecord
100
AcDbLayerTableRecord
  2
PRODUTO
 70
     0
 62
     7
  6
CONTINUOUS
370
    -3
390
1DCE
1001
ACAECLAYERSTANDARD
1000

1000

  0
LAYER
  5
262F
330
2
100
AcDbSymbolTableRecord
100
AcDbLayerTableRecord
  2
PERFIS
 70
     0
 62
     2
  6
CONTINUOUS
370
    -3
390
1DCE
1001
ACAECLAYERSTANDARD
1000

1000

  0
LAYER
  5
2630
330
2
100
AcDbSymbolTableRecord
100
AcDbLayerTableRecord
  2
OUTROS_COMPONENTES
 70
     0
 62
     4
  6
CONTINUOUS
370
    -3
390
1DCE
1001
ACAECLAYERSTANDARD
1000

1000

  0
ENDTAB
  0
TABLE
  2
STYLE
  5
3
330
0
100
AcDbSymbolTable
 70
     3
  0
STYLE
  5
11
330
3
100
AcDbSymbolTableRecord
100
AcDbTextStyleTableRecord
  2
STANDARD
 70
     0
 40
0.0
 41
1.0
 50
0.0
 71
     0
 42
2.5
  3
arial.ttf
  4

1001
ACAD
1000
Arial
1071
        0
  0
STYLE
  5
2634
330
3
100
AcDbSymbolTableRecord
100
AcDbTextStyleTableRecord
  2
Style-Arial
 70
     0
 40
0.0
 41
1.0
 50
0.0
 71
     0
 42
2.5
  3
arial.ttf
  4

1001
ACAD
1000
Arial
1002
{
1071
       39
1002
}
  0
ENDTAB
  0
TABLE
  2
VIEW
  5
6
330
0
100
AcDbSymbolTable
 70
     0
  0
ENDTAB
  0
TABLE
  2
UCS
  5
7
330
0
100
AcDbSymbolTable
 70
     0
  0
ENDTAB
  0
TABLE
  2
APPID
  5
9
330
0
100
AcDbSymbolTable
 70
     4
  0
APPID
  5
12
330
9
100
AcDbSymbolTableRecord
100
AcDbRegAppTableRecord
  2
ACAD
 70
     0
  0
APPID
  5
B9
330
9
100
AcDbSymbolTableRecord
100
AcDbRegAppTableRecord
  2
ACADANNOTATIVE
 70
     0
  0
APPID
  5
4DD
330
9
100
AcDbSymbolTableRecord
100
AcDbRegAppTableRecord
  2
ACAECLAYERSTANDARD
 70
     0
  0
APPID
  5
10EA
330
9
100
AcDbSymbolTableRecord
100
AcDbRegAppTableRecord
  2
PE_URL
 70
     0
  0
ENDTAB
  0
TABLE
  2
DIMSTYLE
  5
A
330
0
100
AcDbSymbolTable
 70
     1
100
AcDbDimStyleTable
  0
DIMSTYLE
105
4E0
102
{ACAD_REACTORS
330
26ED
330
26FA
330
2707
330
2715
330
2722
330
272F
330
2768
330
2775
330
2782
330
2790
330
279D
330
27AA
330
288E
330
288F
330
2890
330
2892
330
2893
330
2894
330
28C1
330
28C2
330
28C3
330
28C5
330
28C6
330
28C7
102
}
330
A
100
AcDbSymbolTableRecord
100
AcDbDimStyleTableRecord
  2
1-1
 70
     0
 41
2.0
 42
0.5
 43
0.5
 44
1.0
 73
     0
 74
     0
 77
     1
 78
     8
140
2.5
141
2.5
143
0.03937007874016
147
0.5
171
     3
172
     1
176
   256
177
   256
271
     2
178
     7
271
     2
272
     2
274
     3
283
     0
284
     8
340
11
  0
ENDTAB
  0
TABLE
  2
BLOCK_RECORD
  5
1
330
0
100
AcDbSymbolTable
 70
    37
  0
BLOCK_RECORD
  5
1F
330
1
100
AcDbSymbolTableRecord
100
AcDbBlockTableRecord
  2
*MODEL_SPACE
340
1DF2
  0
BLOCK_RECORD
  5
1B
330
1
100
AcDbSymbolTableRecord
100
AcDbBlockTableRecord
  2
*PAPER_SPACE
340
1DF3
  0
BLOCK_RECORD
  5
2672
102
{ACAD_XDICTIONARY
360
2673
102
}
330
1
100
AcDbSymbolTableRecord
100
AcDbBlockTableRecord
  2
CHR-002
340
0
102
{BLKREFS
331
2671
331
275A
331
2880
331
28B3
102
}
  0
BLOCK_RECORD
  5
2679
102
{ACAD_XDICTIONARY
360
267A
102
}
330
1
100
AcDbSymbolTableRecord
100
AcDbBlockTableRecord
  2
CHR-004
340
0
102
{BLKREFS
331
2678
331
2696
331
275B
331
275C
331
2881
331
2882
331
28B4
331
28B5
102
}
  0
BLOCK_RECORD
  5
2698
102
{ACAD_XDICTIONARY
360
2699
102
}
330
1
100
AcDbSymbolTableRecord
100
AcDbBlockTableRecord
  2
CHR-030
340
0
102
{BLKREFS
331
2697
331
275D
331
2883
331
28B6
102
}
  0
BLOCK_RECORD
  5
269F
330
1
100
AcDbSymbolTableRecord
100
AcDbBlockTableRecord
  2
NYL-394
340
0
102
{BLKREFS
331
269E
331
275E
331
2884
331
28B7
102
}
  0
BLOCK_RECORD
  5
26D5
102
{ACAD_XDICTIONARY
360
26D6
102
}
330
1
100
AcDbSymbolTableRecord
100
AcDbBlockTableRecord
  2
FIT-223
340
0
102
{BLKREFS
331
26D4
331
26E5
331
275F
331
2760
331
2885
331
2886
331
28B8
331
28B9
102
}
  0
BLOCK_RECORD
  5
26EE
330
1
100
AcDbSymbolTableRecord
100
AcDbBlockTableRecord
  2
*D24
340
0
  0
BLOCK_RECORD
  5
26FB
330
1
100
AcDbSymbolTableRecord
100
AcDbBlockTableRecord
  2
*D25
340
0
  0
BLOCK_RECORD
  5
2708
330
1
100
AcDbSymbolTableRecord
100
AcDbBlockTableRecord
  2
*D26
340
0
  0
BLOCK_RECORD
  5
2716
330
1
100
AcDbSymbolTableRecord
100
AcDbBlockTableRecord
  2
*D27
340
0
  0
BLOCK_RECORD
  5
2723
330
1
100
AcDbSymbolTableRecord
100
AcDbBlockTableRecord
  2
*D28
340
0
  0
BLOCK_RECORD
  5
2730
330
1
100
AcDbSymbolTableRecord
100
AcDbBlockTableRecord
  2
*D29
340
0
  0
BLOCK_RECORD
  5
2769
330
1
100
AcDbSymbolTableRecord
100
AcDbBlockTableRecord
  2
*D30
340
0
  0
BLOCK_RECORD
  5
2776
330
1
100
AcDbSymbolTableRecord
100
AcDbBlockTableRecord
  2
*D31
340
0
  0
BLOCK_RECORD
  5
2783
330
1
100
AcDbSymbolTableRecord
100
AcDbBlockTableRecord
  2
*D32
340
0
  0
BLOCK_RECORD
  5
2791
330
1
100
AcDbSymbolTableRecord
100
AcDbBlockTableRecord
  2
*D33
340
0
  0
BLOCK_RECORD
  5
279E
330
1
100
AcDbSymbolTableRecord
100
AcDbBlockTableRecord
  2
*D34
340
0
  0
BLOCK_RECORD
  5
27AB
330
1
100
AcDbSymbolTableRecord
100
AcDbBlockTableRecord
  2
*D35
340
0
  0
BLOCK_RECORD
  5
27BD
330
1
100
AcDbSymbolTableRecord
100
AcDbBlockTableRecord
  2
CATÁLOGO
340
0
102
{BLKREFS
331
27BC
331
28CD
102
}
  0
ENDTAB
  0
ENDSEC
  0
SECTION
  2
BLOCKS
  0
BLOCK
  5
20
330
1F
100
AcDbEntity
  8
0
100
AcDbBlockBegin
  2
*MODEL_SPACE
 70
     0
 10
0.0
 20
0.0
 30
0.0
  3
*MODEL_SPACE
  1

  0
ENDBLK
  5
21
330
1F
100
AcDbEntity
  8
0
100
AcDbBlockEnd
  0
BLOCK
  5
1C
330
1B
100
AcDbEntity
 67
     1
  8
0
100
AcDbBlockBegin
  2
*PAPER_SPACE
 70
     0
 10
0.0
 20
0.0
 30
0.0
  3
*PAPER_SPACE
  1

  0
ENDBLK
  5
1D
330
1B
100
AcDbEntity
 67
     1
  8
0
100
AcDbBlockEnd
  0
BLOCK
  5
2675
330
2672
100
AcDbEntity
  8
0
100
AcDbBlockBegin
  2
CHR-002
 70
     0
 10
0.0
 20
0.0
 30
0.0
  3
CHR-002
  1

  0
LWPOLYLINE
  5
2676
330
2672
100
AcDbEntity
  8
0
100
AcDbPolyline
 90
      203
 70
   129
 43
0.0
 10
3.300000000001091
 20
1.100000000003092
 10
1.700000000000728
 20
1.100000000003092
 42
-0.4142135623726509
 10
1.400000000001455
 20
1.400000000003274
 10
1.400000000001455
 20
6.500000000003638
 42
-0.3989595459735165
 10
3.863926513769911
 20
9.09643679036526
 10
24.34248469035083
 20
10.17495198606048
 42
-0.4296339059677594
 10
24.65818547722301
 20
9.875363125633157
 10
24.65818547722301
 20
9.30739762507983
 42
0.0615429967898552
 10
24.94828326712741
 20
8.344658271902517
 42
0.2971045147047565
 10
25.68018161651707
 20
7.867651779824882
 10
27.149262307752
 20
7.867651779824882
 42
0.6987247729929782
 10
27.34301230775236
 20
8.396695307345908
 42
-0.1329870533338182
 10
26.71936332043151
 20
9.300000000006548
 42
0.3178372451956888
 10
26.43652060795466
 20
9.500000000005457
 10
26.29926230775345
 20
9.500000000005457
 10
26.29926230775345
 20
10.50000000000546
 10
26.43652060795284
 20
10.50000000000546
 42
0.3178372451957901
 10
26.71936332042787
 20
10.70000000000618
 42
-0.22654091966117
 10
27.99926230775236
 20
11.97989898732794
 42
0.3178372451973061
 10
28.19926230775491
 20
12.26274169980388
 10
28.19926230775491
 20
12.40000000000509
 10
29.19926230775309
 20
12.40000000000509
 10
29.19926230775309
 20
12.26274169980388
 42
0.3178372451970755
 10
29.39926230775382
 20
11.97989898732703
 42
-0.2265409196609174
 10
30.6791612950783
 20
10.70000000000618
 42
0.3178372451963799
 10
30.96200400755333
 20
10.50000000000546
 10
31.09926230775091
 20
10.50000000000546
 10
31.09926230775091
 20
9.500000000005457
 10
30.96200400755151
 20
9.500000000005457
 42
0.3178372451941885
 10
30.6791612950783
 20
9.30000000000473
 42
-0.1329870533338045
 10
30.05551230775382
 20
8.396695307344999
 42
0.6987247729867794
 10
30.24926230775236
 20
7.867651779824882
 10
30.79926230775163
 20
7.867651779824882
 42
-0.4142135623726511
 10
31.09926230775091
 20
7.56765177982561
 10
31.09926230775091
 20
0.3000000000010914
 42
0.41421356237163
 10
31.39926230775018
 20
0.000000000003638
 10
31.89926230774836
 20
0.0
 42
0.4142135623754259
 10
32.19926230775127
 20
0.3000000000047294
 10
32.19926230775127
 20
7.8645843496015
 42
0.1378194181259171
 10
32.79926230774981
 20
10.00000000000546
 10
32.79926230584169
 20
10.40000000000509
 42
0.2109946186032253
 10
32.14638694786663
 20
11.8782608696938
 42
-0.6850821942743134
 10
32.34845564403986
 20
12.40000000000327
 10
69.65006897146668
 20
12.40000000000327
 42
-0.6850821948883329
 10
69.85213766776906
 20
11.8782608695501
 42
0.2109946185920232
 10
69.19926230966303
 20
10.40000000000509
 10
69.19926230966303
 20
10.00000000000364
 42
0.1378194181015192
 10
69.79926230775345
 20
7.8645843494578
 10
69.79926230775345
 20
0.3000000000029104
 42
0.4142135623739829
 10
70.09926230775454
 20
0.000000000003638
 10
70.59926230775272
 20
0.000000000003638
 42
0.4142135623735391
 10
70.89926230775382
 20
0.3000000000029104
 10
70.89926230775382
 20
7.567651779823791
 42
-0.4142135623722071
 10
71.19926230775309
 20
7.867651779823063
 10
71.74926230775054
 20
7.867651779823063
 42
0.6987247729923969
 10
71.9430123077509
 20
8.396695307346818
 42
-0.1329870533333848
 10
71.31936332042824
 20
9.30000000000473
 42
0.3178372451981643
 10
71.03652060795139
 20
9.500000000005457
 10
70.899262307752
 20
9.500000000005457
 10
70.899262307752
 20
10.50000000000364
 10
71.03652060795321
 20
10.50000000000364
 42
0.3178372451960544
 10
71.3193633204246
 20
10.70000000000437
 42
-0.2265409196613499
 10
72.5992623077509
 20
11.97989898732703
 42
0.3178372451961062
 10
72.79926230774981
 20
12.26274169980388
 10
72.79926230774981
 20
12.40000000000509
 10
73.79926230775163
 20
12.40000000000509
 10
73.79926230775163
 20
12.26274169980388
 42
0.3178372451951544
 10
73.99926230775054
 20
11.97989898732794
 42
-0.2265409196611258
 10
75.27916129507503
 20
10.70000000000618
 42
0.3178372451961834
 10
75.56200400755006
 20
10.50000000000546
 10
75.69926230775127
 20
10.50000000000546
 10
75.69926230775127
 20
9.500000000005457
 10
75.56200400755006
 20
9.500000000005457
 42
0.3178372451964756
 10
75.27916129507321
 20
9.300000000006548
 42
-0.1329870533335925
 10
74.65551230775054
 20
8.396695307348637
 42
0.6987247729971033
 10
74.8492623077509
 20
7.867651779824882
 10
76.62830120809485
 20
7.867651779824882
 42
0.273433118414648
 10
76.89112006864707
 20
8.022992709810751
 42
0.126457863509466
 10
77.39926230775018
 20
10.00000000000364
 10
77.39926230583842
 20
10.40000000000509
 42
0.2479327466457836
 10
76.52634764449067
 20
12.05217391318729
 42
-0.7379295362550929
 10
76.69541044517791
 20
12.600000000004
 10
100.4769072174695
 20
12.600000000004
 42
-0.4142135623739829
 10
100.7769072174706
 20
12.30000000000382
 10
100.7769072174706
 20
1.400000000003274
 42
-0.4142135623739829
 10
100.4769072174695
 20
1.100000000004002
 10
98.87690721746912
 20
1.100000000004002
 42
0.4142135623713192
 10
98.57690721746985
 20
0.8000000000029104
 10
98.57690721746985
 20
0.3000000000038199
 42
0.4142135623735392
 10
98.87690721746912
 20
0.000000000003638
 10
101.8769072174691
 20
0.000000000003638
 42
0.4142135623726509
 10
102.1769072174684
 20
0.3000000000047294
 10
102.1769072174684
 20
13.70000000000255
 42
0.4142135623739829
 10
101.8769072174691
 20
14.00000000000364
 10
100.2769072174688
 20
14.00000000000364
 42
-0.4142135623732282
 10
99.27690721746876
 20
15.00000000000364
 10
99.27690721746876
 20
61.55000000000291
 42
1.999999999998525
 10
97.6769072174684
 20
62.75000000000364
 10
97.6769072174684
 20
15.00000000000364
 42
-0.4142135623729618
 10
96.6769072174684
 20
14.00000000000364
 10
68.45191024795349
 20
14.00000000000364
 42
-0.4142135623731044
 10
68.15191024795331
 20
14.30000000000291
 10
68.15191024795331
 20
26.30668938384042
 10
70.7526379107394
 20
26.30668938384042
 42
-0.2689400532553112
 10
71.01299830899916
 20
26.15572784537835
 10
71.77135445868043
 20
24.8309294871824
 42
0.2689400532555878
 10
73.37691024795186
 20
23.90000000000327
 42
0.2689400532557195
 10
74.98246603722419
 20
24.8309294871824
 10
75.97108480154293
 20
26.55798150146711
 42
0.3787383126096164
 10
79.10191024835967
 20
27.4150485979626
 10
79.10191024795222
 20
23.40000000000236
 42
0.4142135623715413
 10
79.40191024795149
 20
23.10000000000309
 10
80.00191024795186
 20
23.10000000000309
 42
0.4142135623726512
 10
80.30191024795204
 20
23.40000000000327
 10
80.30191024795204
 20
28.75668938383933
 42
0.1329558575311952
 10
79.8581298061199
 20
30.39608921040963
 42
0.1975810863727975
 10
79.67673986812679
 20
30.53453774353602
 10
77.60455596148222
 20
31.08977774788855
 42
0.4931454260305024
 10
77.22691024795222
 20
30.80000000000382
 10
77.22691024795222
 20
30.55998497802193
 42
0.2754503100821347
 10
77.64642244307379
 20
29.85625986809828
 42
-1.638388502521104
 10
75.81174810465654
 20
28.60017146686641
 42
0.3779027511596809
 10
75.01804433294546
 20
29.30000000000291
 10
74.80191024795113
 20
29.30000000000291
 42
0.4142135623719852
 10
74.50191024795276
 20
29.00000000000364
 10
74.50191024795276
 20
28.28211110476695
 42
0.1507946423585236
 10
74.55408416099363
 20
28.11304830393874
 42
-0.2871672512487482
 10
74.61362213968914
 20
26.6020673076946
 10
73.9410244441824
 20
25.42708333333576
 42
-0.5798175892734259
 10
72.8127960517213
 20
25.42708333333576
 10
72.14019835621548
 20
26.6020673076946
 42
-0.2871672512483634
 10
72.19973633490918
 20
28.11304830393783
 42
0.1507946423600444
 10
72.25191024795186
 20
28.28211110476786
 10
72.25191024795186
 20
29.00000000000273
 42
0.414213562371985
 10
71.95191024795258
 20
29.30000000000291
 10
71.73577616295825
 20
29.30000000000291
 42
0.3779027511583817
 10
70.9420723912508
 20
28.60017146686641
 42
-1.638388502519107
 10
69.10739805283174
 20
29.85625986809737
 42
0.2754503100821314
 10
69.52691024795331
 20
30.55998497802284
 10
69.52691024795331
 20
30.80000000000291
 42
0.493145426031436
 10
69.14926453442058
 20
31.08977774789128
 10
67.07708062777692
 20
30.53453774353511
 42
0.1975810863704772
 10
66.89569068978471
 20
30.39608921040963
 42
0.1329558575311615
 10
66.45191024795076
 20
28.75668938383933
 10
66.45191024795076
 20
14.30000000000291
 42
-0.4142135623731156
 10
66.15191024795149
 20
14.00000000000273
 10
36.00191016729605
 20
14.00000000000273
 42
-0.4142135623731135
 10
35.70191016729586
 20
14.30000000000291
 10
35.70191016729586
 20
28.75668938383933
 42
0.1329558575312456
 10
35.25812972546464
 20
30.39608921041145
 42
0.197581086371784
 10
35.07673978747152
 20
30.53453774353602
 10
33.00455588082696
 20
31.08977774788946
 42
0.4931454260283452
 10
32.62691016729696
 20
30.80000000000473
 10
32.62691016729696
 20
30.55998497802284
 42
0.2754503100820191
 10
33.04642236241762
 20
29.85625986809646
 42
-1.638388502519275
 10
31.21174802399855
 20
28.6001714668655
 42
0.3779027511596759
 10
30.41804425228929
 20
29.30000000000473
 10
30.20191016729677
 20
29.30000000000473
 42
0.4142135623735389
 10
29.90191016729568
 20
29.00000000000364
 10
29.90191016729568
 20
28.28211110476695
 42
0.1507946423590755
 10
29.95408408034018
 20
28.11304830393965
 42
-0.287167251248602
 10
30.01362205903388
 20
26.60206730769551
 10
29.34102436352714
 20
25.42708333333576
 42
-0.579817589273223
 10
28.21279597106604
 20
25.42708333333576
 10
27.54019827556021
 20
26.6020673076946
 42
-0.2871672512486011
 10
27.59973625425391
 20
28.11304830393783
 42
0.1507946423600739
 10
27.65191016729568
 20
28.28211110476877
 10
27.65191016729568
 20
29.00000000000364
 42
0.4142135623739829
 10
27.3519101672955
 20
29.30000000000291
 10
27.13577608230298
 20
29.30000000000291
 42
0.3779027511596809
 10
26.3420723105919
 20
28.60017146686732
 42
-1.638388502518609
 10
24.50739797217375
 20
29.85625986809828
 42
0.2754503100825889
 10
24.92691016729714
 20
30.55998497802284
 10
24.92691016729714
 20
30.80000000000291
 42
0.4931454260323869
 10
24.54926445376623
 20
31.08977774789037
 10
22.47708054712166
 20
30.53453774353511
 42
0.1975810863712763
 10
22.29569060912945
 20
30.39608921040963
 42
0.1329558575311618
 10
21.8519101672955
 20
28.75668938384115
 10
21.8519101672955
 20
23.40000000000327
 42
0.4142135623733171
 10
22.15191016729659
 20
23.100000000004
 10
22.75191016729696
 20
23.100000000004
 42
0.4142135623726512
 10
23.05191016729714
 20
23.40000000000327
 10
23.05191016729714
 20
27.41504859822908
 42
0.3787383126095352
 10
26.18273561392016
 20
26.55798150103146
 10
27.17135437802517
 20
24.83092948718331
 42
0.268940053255599
 10
28.77691016729659
 20
23.90000000000327
 42
0.2689400532556848
 10
30.3824659565671
 20
24.83092948718331
 10
31.14082210624929
 20
26.15572784537835
 42
-0.2689400532551349
 10
31.40118250450905
 20
26.3066893838386
 10
34.00191016729696
 20
26.3066893838386
 10
34.00191016729696
 20
14.30000000000382
 42
-0.414213562373049
 10
33.70191016729677
 20
14.00000000000364
 10
27.83323690395264
 20
14.00000000000364
 42
0.0575438492386789
 10
27.76486647733691
 20
13.99210526316165
 42
0.1820091071445809
 10
25.36407969348875
 20
12.38465027405528
 42
-0.228274327180791
 10
23.84183325755293
 20
11.55063524066827
 10
3.790656175029653
 20
10.49451813902124
 42
0.3989595459738063
 10
0.0
 20
6.500000000003638
 10
0.0
 20
0.3000000000029104
 42
0.4142135623735392
 10
0.3000000000010914
 20
0.000000000003638
 10
3.300000000001091
 20
0.000000000003638
 42
0.4142135623726509
 10
3.600000000000364
 20
0.3000000000038199
 10
3.600000000000364
 20
0.8000000000029104
 42
0.4142135623733169
  0
ENDBLK
  5
2677
330
2672
100
AcDbEntity
  8
0
100
AcDbBlockEnd
  0
BLOCK
  5
267C
330
2679
100
AcDbEntity
  8
0
100
AcDbBlockBegin
  2
CHR-004
 70
     0
 10
0.0
 20
0.0
 30
0.0
  3
CHR-004
  1

  0
LINE
  5
267D
330
2679
100
AcDbEntity
  8
0
100
AcDbLine
 10
7.400000000000546
 20
5.990234610619837
 30
0.0
 11
7.400000000000546
 21
3.730392621373312
 31
0.0
  0
LINE
  5
267E
330
2679
100
AcDbEntity
  8
0
100
AcDbLine
 10
4.680000000000291
 20
3.880000000000109
 30
0.0
 11
4.680000000000291
 21
2.883407554009409
 31
0.0
  0
LINE
  5
267F
330
2679
100
AcDbEntity
  8
0
100
AcDbLine
 10
2.720000000000255
 20
3.880000000000109
 30
0.0
 11
2.720000000000255
 21
2.883407554009636
 31
0.0
  0
LINE
  5
2680
330
2679
100
AcDbEntity
  8
0
100
AcDbLine
 10
5.808055667818735
 20
4.180000000000064
 30
0.0
 11
4.980000000000473
 21
4.180000000000064
 31
0.0
  0
LINE
  5
2681
330
2679
100
AcDbEntity
  8
0
100
AcDbLine
 10
2.420000000000528
 20
4.180000000000064
 30
0.0
 11
1.591887252350716
 21
4.180000000000064
 31
0.0
  0
LINE
  5
2682
330
2679
100
AcDbEntity
  8
0
100
AcDbLine
 10
0.0
 20
3.730915782588909
 30
0.0
 11
0.0
 21
5.987904411116915
 31
0.0
  0
ARC
  5
2683
330
2679
100
AcDbEntity
  8
0
100
AcDbCircle
 10
3.700000000000273
 20
2.059999999999945
 30
0.0
 40
1.28
100
AcDbArc
 50
139.9626268700117
 51
212.4617449672737
  0
ARC
  5
2684
330
2679
100
AcDbEntity
  8
0
100
AcDbCircle
 10
3.700000000000273
 20
2.059999999999945
 30
0.0
 40
1.28
100
AcDbArc
 50
327.5382550328555
 51
40.03737312998835
  0
ARC
  5
2685
330
2679
100
AcDbEntity
  8
0
100
AcDbCircle
 10
3.700000000000273
 20
0.5
 30
0.0
 40
0.5
100
AcDbArc
 50
203.5781784779621
 51
336.4218215217813
  0
LINE
  5
2686
330
2679
100
AcDbEntity
  8
0
100
AcDbLine
 10
5.976154679533465
 20
4.128480828759166
 30
0.0
 11
6.931900988285634
 21
3.481911792614483
 31
0.0
  0
LINE
  5
2687
330
2679
100
AcDbEntity
  8
0
100
AcDbLine
 10
0.468012560968873
 20
3.482376491215064
 30
0.0
 11
1.423874691382025
 21
4.128539291374182
 31
0.0
  0
LINE
  5
2688
330
2679
100
AcDbEntity
  8
0
100
AcDbLine
 10
2.620000000000346
 20
1.372977438507178
 30
0.0
 11
3.241742430504928
 21
0.2999999999999545
 31
0.0
  0
LINE
  5
2689
330
2679
100
AcDbEntity
  8
0
100
AcDbLine
 10
4.7800000000002
 20
1.37297743850695
 30
0.0
 11
4.158257569495618
 21
0.2999999999999545
 31
0.0
  0
ARC
  5
268A
330
2679
100
AcDbEntity
  8
0
100
AcDbCircle
 10
0.3000000000001819
 20
3.730915782588909
 30
0.0
 40
0.3
100
AcDbArc
 50
180.0
 51
304.0586933740614
  0
ARC
  5
268B
330
2679
100
AcDbEntity
  8
0
100
AcDbCircle
 10
1.591887252350716
 20
3.880000000000109
 30
0.0
 40
0.3
100
AcDbArc
 50
90.0
 51
124.0586933740614
  0
ARC
  5
268C
330
2679
100
AcDbEntity
  8
0
100
AcDbCircle
 10
2.420000000000528
 20
3.880000000000109
 30
0.0
 40
0.3
100
AcDbArc
 50
0.0
 51
90.0
  0
ARC
  5
268D
330
2679
100
AcDbEntity
  8
0
100
AcDbCircle
 10
4.980000000000473
 20
3.880000000000109
 30
0.0
 40
0.3
100
AcDbArc
 50
90.0
 51
180.0
  0
ARC
  5
268E
330
2679
100
AcDbEntity
  8
0
100
AcDbCircle
 10
5.808055667818735
 20
3.880000000000109
 30
0.0
 40
0.3
100
AcDbArc
 50
55.92137478572705
 51
90.0
  0
ARC
  5
268F
330
2679
100
AcDbEntity
  8
0
100
AcDbCircle
 10
7.100000000000364
 20
3.730392621373312
 30
0.0
 40
0.3
100
AcDbArc
 50
235.9213747857271
 51
0.0
  0
LINE
  5
2690
330
2679
100
AcDbEntity
  8
0
100
AcDbLine
 10
3.775258010733523
 20
7.160524058645024
 30
0.0
 11
7.175160649456302
 21
6.280666834681597
 31
0.0
  0
LINE
  5
2691
330
2679
100
AcDbEntity
  8
0
100
AcDbLine
 10
3.624754241310711
 20
7.160476776123915
 30
0.0
 11
0.2246568800328532
 21
6.278289352657566
 31
0.0
  0
ARC
  5
2692
330
2679
100
AcDbEntity
  8
0
100
AcDbCircle
 10
0.3000000000001819
 20
5.987904411116915
 30
0.0
 40
0.3
100
AcDbArc
 50
104.5452027411775
 51
180.0
  0
ARC
  5
2693
330
2679
100
AcDbEntity
  8
0
100
AcDbCircle
 10
3.70009736127804
 20
6.870091834583263
 30
0.0
 40
0.3
100
AcDbArc
 50
75.49079753735963
 51
104.5452027411775
  0
ARC
  5
2694
330
2679
100
AcDbEntity
  8
0
100
AcDbCircle
 10
7.100000000000364
 20
5.990234610619837
 30
0.0
 40
0.3
100
AcDbArc
 50
0.0
 51
75.49079753735963
  0
ENDBLK
  5
2695
330
2679
100
AcDbEntity
  8
0
100
AcDbBlockEnd
  0
BLOCK
  5
269B
330
2698
100
AcDbEntity
  8
0
100
AcDbBlockBegin
  2
CHR-030
 70
     0
 10
0.0
 20
0.0
 30
0.0
  3
CHR-030
  1

  0
LWPOLYLINE
  5
269C
330
2698
100
AcDbEntity
  8
0
100
AcDbPolyline
 90
      171
 70
   129
 43
0.0
 10
27.80000000000018
 20
40.89996999999676
 42
-0.414213562372196
 10
27.5
 20
40.59996999999748
 10
24.17242167527729
 20
40.59996999999748
 42
-0.3732377824538763
 10
23.87543682717842
 20
40.85754359312705
 10
23.4350593958352
 20
42.39705505742211
 42
0.3183125957797666
 10
23.15204443426046
 20
42.5975435931332
 10
22.54595290752877
 20
42.5975435931332
 42
0.4564120107652631
 10
22.2489680594299
 20
42.2551171862624
 10
22.63504295839903
 20
41.00531473869944
 42
-0.5236633779533727
 10
22.35414709508404
 20
40.59996999999839
 10
6.645952907529136
 20
40.59996999999839
 42
-0.5536049005969336
 10
6.3760318827417
 20
41.03089990635226
 10
6.751131943181463
 20
41.99754359312522
 42
0.456412010766555
 10
6.454147095083499
 20
42.33996999999772
 10
5.848055568351811
 20
42.33996999999772
 42
0.2966168621548661
 10
5.573811256420413
 20
42.16158437979175
 10
5.124663175433852
 20
40.85754359312534
 42
-0.3732377824517318
 10
4.827678327335889
 20
40.59996999999839
 10
1.5
 20
40.59996999999839
 42
-0.414213562373095
 10
1.199999999999818
 20
40.89996999999858
 10
1.199999999999818
 20
61.49996999999433
 42
-0.414213562373095
 10
1.5
 20
61.79996999999452
 10
3.299999999999272
 20
61.79996999999452
 42
-0.414213562374427
 10
3.5
 20
61.59996999999652
 10
3.5
 20
56.9999699999953
 42
0.414213562373761
 10
3.700000000001637
 20
56.79996999999594
 10
5.700000000000728
 20
56.79996999999594
 42
-0.414213562374427
 10
6.000000000001819
 20
56.49996999999621
 10
6.000000000001819
 20
56.09996999999748
 42
0.4142135623725622
 10
6.300000000000182
 20
55.79996999999821
 10
6.700000000000728
 20
55.79996999999821
 42
0.4142135623738942
 10
7.000000000001819
 20
56.09996999999839
 10
7.000000000001819
 20
58.09996999999566
 42
0.4142135623742937
 10
6.800000000000182
 20
58.29996999999636
 10
6.144115338423944
 20
58.29996999999636
 42
0.373729714006299
 10
5.972057669214337
 20
58.10193155385173
 42
-0.581144018204745
 10
5.800000000000182
 20
57.79996999999639
 10
4.699999999999818
 20
57.79996999999435
 42
-0.4142135623736278
 10
4.500000000000909
 20
57.99996999999621
 10
4.500000000000909
 20
61.59996999999561
 42
-0.4142135623738942
 10
4.699999999999818
 20
61.79996999999634
 10
5.800000000001091
 20
61.79996999999634
 42
-0.4142135623717631
 10
5.999999999999091
 20
61.59996999999652
 10
5.999999999999091
 20
61.49996999999524
 42
0.4142135623722959
 10
6.199999999999818
 20
61.29996999999588
 10
6.800000000001091
 20
61.29996999999588
 42
0.4142135623717631
 10
7.0
 20
61.49996999999615
 10
7.0
 20
62.79996999999452
 42
0.4142135623742937
 10
6.800000000000182
 20
62.99996999999524
 10
0.5000000000009095
 20
62.99996999999524
 42
0.4142135623728286
 10
0.0
 20
62.49996999999615
 10
0.0
 20
0.5499999999997272
 42
0.4142135623733281
 10
0.5500000000010914
 20
0.0
 10
3.350000000003092
 20
0.0
 42
0.414213562373095
 10
3.900000000002365
 20
0.5499999999992724
 10
3.900000000002365
 20
1.999969999849782
 42
0.414213562373095
 10
3.350000000003092
 20
2.549969999850873
 10
2.800000000002001
 20
2.549969999850873
 10
2.800000000002001
 20
1.299999999999272
 10
1.850000000001273
 20
1.299999999999272
 42
-0.414213562373095
 10
1.300000000002001
 20
1.849999999998545
 10
1.300000000002001
 20
8.25
 42
-0.414213562373095
 10
1.850000000001273
 20
8.799999999999272
 10
2.800000000002001
 20
8.799999999999272
 10
2.800000000002001
 20
7.549969999850873
 10
3.350000000004002
 20
7.549969999850873
 42
0.4142135623725622
 10
3.900000000002365
 20
8.099969999850146
 10
3.900000000002365
 20
9.549999999999272
 42
0.414213562373095
 10
3.350000000001273
 20
10.09999999999945
 10
1.500000000000909
 20
10.09999999999945
 42
-0.414213562373095
 10
1.200000000001637
 20
10.39999999999964
 10
1.200000000001637
 20
11.49999999999909
 42
-0.414213562373095
 10
1.500000000000909
 20
11.79999999999927
 10
2.700000000002547
 20
11.79999999999927
 42
0.414213562373095
 10
3.000000000002728
 20
12.09999999999945
 10
3.000000000002728
 20
12.79999999999927
 42
0.414213562373095
 10
2.700000000002547
 20
13.09999999999945
 10
1.5
 20
13.09999999999945
 42
-0.414213562373095
 10
1.199999999999818
 20
13.39999999999873
 10
1.199999999999818
 20
38.19997000000012
 42
-0.414213562373095
 10
2.199999999999818
 20
39.19997000000012
 10
10.65644042258373
 20
39.19997000000012
 42
-0.6414077406993223
 10
10.88386123702912
 20
38.70431782608784
 42
0.1795036793518992
 10
10.40000000000055
 20
37.39996999999948
 10
10.40005013719565
 20
36.99894481930085
 42
0.1263703600030528
 10
10.90800550594486
 20
35.02330202407836
 42
0.2739810342563669
 10
11.17142136572966
 20
34.8679368334524
 10
12.99806221281415
 20
34.87148865327606
 42
0.6405265851837894
 10
13.14379996428397
 20
35.39666534195953
 42
-0.1583777741891617
 10
12.46043484507481
 20
36.49999999999864
 10
12.09999999999945
 20
36.49999999999864
 10
12.09999999999945
 20
37.49999999999864
 10
12.46044955378511
 20
37.49999999999864
 42
-0.2794376578489867
 10
14.0
 20
39.03956554486467
 10
14.0
 20
39.39999999999827
 10
14.5
 20
39.39999999999827
 10
15.00000000000182
 20
39.39999999999827
 10
15.00000000000182
 20
39.03956554486524
 42
-0.2794376578488829
 10
16.5395504462158
 20
37.49999999999864
 10
16.90000000000146
 20
37.49999999999864
 10
16.90000000000146
 20
36.49999999999864
 10
16.53956515492519
 20
36.49999999999864
 42
-0.1599376571271429
 10
15.84641826747611
 20
35.38844177969077
 42
0.628822818471007
 10
15.9918350743792
 20
34.86759999999822
 10
17.82898170779845
 20
34.86759999999822
 42
0.2734247319427381
 10
18.09179605307509
 20
35.02293272686222
 42
0.1264625622679212
 10
18.59999999999854
 20
36.99999999999864
 10
18.59999999999854
 20
37.39996999999812
 42
0.1795036793516493
 10
18.11613876296997
 20
38.70431782608523
 42
-0.6414077406997443
 10
18.34355957741536
 20
39.1999699999983
 10
26.800000000002
 20
39.19996999999421
 42
-0.4142135623728286
 10
27.80000000000109
 20
38.19996999999421
 10
27.80000000000109
 20
13.39999999999873
 42
-0.414213562373095
 10
27.50000000000182
 20
13.099999999999
 10
26.29999999999927
 20
13.099999999999
 42
0.414213562373095
 10
26.0
 20
12.79999999999927
 10
26.0
 20
12.09999999999945
 42
0.414213562373095
 10
26.29999999999927
 20
11.79999999999927
 10
27.50000000000182
 20
11.79999999999927
 42
-0.414213562373095
 10
27.80000000000109
 20
11.49999999999909
 10
27.80000000000109
 20
10.39999999999964
 42
-0.414213562373095
 10
27.50000000000182
 20
10.09999999999945
 10
25.65000000000055
 20
10.09999999999945
 42
0.414213562373095
 10
25.10000000000036
 20
9.549999999999272
 10
25.10000000000036
 20
8.099969999850146
 42
0.4142135623725622
 10
25.64999999999964
 20
7.549969999850873
 10
26.19999999999982
 20
7.549969999850873
 10
26.19999999999982
 20
8.799999999999272
 10
27.15000000000055
 20
8.799999999999272
 42
-0.414213562373095
 10
27.70000000000073
 20
8.25
 10
27.70000000000073
 20
1.849999999998545
 42
-0.414213562373095
 10
27.15000000000055
 20
1.299999999999272
 10
26.19999999999982
 20
1.299999999999272
 10
26.19999999999982
 20
2.549969999850873
 10
25.64999999999964
 20
2.549969999850873
 42
0.414213562373095
 10
25.10000000000036
 20
1.999969999849782
 10
25.10000000000036
 20
0.5499999999997272
 42
0.4142135623733281
 10
25.64999999999964
 20
0.0
 10
28.45000000000073
 20
0.0
 42
0.414213562373095
 10
29.00000000000091
 20
0.5499999999992724
 10
29.00000000000091
 20
62.49996999999524
 42
0.4142135623733614
 10
28.5
 20
62.99996999999615
 10
22.20000000000164
 20
62.99996999999615
 42
0.4142135623752261
 10
22.00000000000182
 20
62.79996999999634
 10
22.00000000000182
 20
61.49996999999524
 42
0.4142135623724291
 10
22.20000000000073
 20
61.29996999999588
 10
22.85588466157606
 20
61.29996999999588
 42
0.3737297140071111
 10
23.02794233078839
 20
61.49800844613816
 42
-0.5811440182116193
 10
23.20000000000073
 20
61.79996999999634
 10
24.300000000002
 20
61.79996999999634
 42
-0.4142135623736278
 10
24.50000000000182
 20
61.59996999999652
 10
24.50000000000182
 20
57.9999699999953
 42
-0.4142135623724291
 10
24.30000000000109
 20
57.79996999999594
 10
23.20000000000073
 20
57.79996999999594
 42
-0.4142135623722959
 10
23.00000000000182
 20
57.99996999999621
 10
23.00000000000182
 20
58.09996999999566
 42
0.414213562374427
 10
22.80000000000109
 20
58.29996999999636
 10
22.20000000000073
 20
58.29996999999636
 42
0.414213562373095
 10
22.00000000000182
 20
58.09996999999657
 10
22.00000000000182
 20
56.09996999999748
 42
0.4142135623713302
 10
22.30000000000109
 20
55.79996999999912
 10
22.70000000000073
 20
55.79996999999912
 42
0.414213562373095
 10
23.00000000000182
 20
56.0999699999993
 10
23.00000000000182
 20
56.4999699999953
 42
-0.4142135623739941
 10
23.30000000000109
 20
56.79996999999639
 10
25.30000000000018
 20
56.79996999999639
 42
0.4142135623717631
 10
25.5
 20
56.99996999999712
 10
25.5
 20
61.59996999999561
 42
-0.414213562374427
 10
25.70000000000073
 20
61.79996999999634
 10
27.5
 20
61.79996999999634
 42
-0.414213562373095
 10
27.80000000000109
 20
61.49996999999615
  0
ENDBLK
  5
269D
330
2698
100
AcDbEntity
  8
0
100
AcDbBlockEnd
  0
BLOCK
  5
26A0
330
269F
100
AcDbEntity
  8
0
100
AcDbBlockBegin
  2
NYL-394
 70
     0
 10
0.0
 20
0.0
 30
0.0
  3
NYL-394
  1

  0
LINE
  5
26A1
330
269F
100
AcDbEntity
  8
0
100
AcDbLine
 10
-0.6793999999999869
 20
-2.587798751792889
 30
0.0
 11
2.370600000000195
 21
-1.770598751792932
 31
0.0
  0
ARC
  5
26A2
330
269F
100
AcDbEntity
  8
0
100
AcDbCircle
 10
-2.50004007633288
 20
-2.253500182948301
 30
0.0
 40
0.5
210
0.0
220
0.0
230
-1.0
100
AcDbArc
 50
74.99906421148044
 51
105.0009325149158
  0
LINE
  5
26A3
330
269F
100
AcDbEntity
  8
0
100
AcDbLine
 10
3.5
 20
1.5
 30
0.0
 11
3.5
 21
7.872601248207047
 31
0.0
  0
LINE
  5
26A4
330
269F
100
AcDbEntity
  8
0
100
AcDbLine
 10
-0.8000000000001819
 20
8.122601248207047
 30
0.0
 11
1.25
 21
8.122601248207047
 31
0.0
  0
ARC
  5
26A5
330
269F
100
AcDbEntity
  8
0
100
AcDbCircle
 10
-1.25004007633288
 20
7.872601246934209
 30
0.0
 40
0.25
210
0.0
220
0.0
230
-1.0
100
AcDbArc
 50
90.0
 51
180.0
  0
LINE
  5
26A6
330
269F
100
AcDbEntity
  8
0
100
AcDbLine
 10
1.5
 20
7.872601248207047
 30
0.0
 11
1.5
 21
1.489035108493226
 31
0.0
  0
ARC
  5
26A7
330
269F
100
AcDbEntity
  8
0
100
AcDbCircle
 10
-0.0000400763328798
 20
1.499999997201485
 30
0.0
 40
1.5
210
0.0
220
0.0
230
-1.0
100
AcDbArc
 50
180.0
 51
270.0
  0
LINE
  5
26A8
330
269F
100
AcDbEntity
  8
0
100
AcDbLine
 10
0.0
 20
0.0
 30
0.0
 11
-1.074999999999818
 21
0.0
 31
0.0
  0
LINE
  5
26A9
330
269F
100
AcDbEntity
  8
0
100
AcDbLine
 10
-2.074999999999818
 20
-1.150000000000091
 30
0.0
 11
-2.074999999999818
 21
-1.599998751793009
 31
0.0
  0
ARC
  5
26AA
330
269F
100
AcDbEntity
  8
0
100
AcDbCircle
 10
-2.674959923667302
 20
-4.741195886304467
 30
0.0
 40
1.625
100
AcDbArc
 50
300.5604674377753
 51
0.0
  0
LINE
  5
26AB
330
269F
100
AcDbEntity
  8
0
100
AcDbLine
 10
-1.050000000000182
 20
-4.75260851161238
 30
0.0
 11
-1.050000000000182
 21
-3.070798751793063
 31
0.0
  0
ARC
  5
26AC
330
269F
100
AcDbEntity
  8
0
100
AcDbCircle
 10
0.5499599236663926
 20
-3.070798516999275
 30
0.0
 40
0.5
210
0.0
220
0.0
230
-1.0
100
AcDbArc
 50
0.0
 51
74.99906585874855
  0
LINE
  5
26AD
330
269F
100
AcDbEntity
  8
0
100
AcDbLine
 10
-1.074999999999818
 20
0.0
 30
0.0
 11
-3.075050419630315
 21
0.0
 31
0.0
  0
LINE
  5
26AE
330
269F
100
AcDbEntity
  8
0
100
AcDbLine
 10
-2.225000000000364
 20
-1.0
 30
0.0
 11
-3.075050419630315
 21
-1.0
 31
0.0
  0
ARC
  5
26AF
330
269F
100
AcDbEntity
  8
0
100
AcDbCircle
 10
-3.075050420760817
 20
-0.5000000030659066
 30
0.0
 40
0.5
100
AcDbArc
 50
90.0
 51
180.0
  0
ARC
  5
26B0
330
269F
100
AcDbEntity
  8
0
100
AcDbCircle
 10
3.075050420760817
 20
-0.5000000030659066
 30
0.0
 40
0.5
210
0.0
220
0.0
230
-1.0
100
AcDbArc
 50
270.0
 51
0.0
  0
ARC
  5
26B1
330
269F
100
AcDbEntity
  8
0
100
AcDbCircle
 10
2.225000000481486
 20
-1.150000003065998
 30
0.0
 40
0.15
210
0.0
220
0.0
230
-1.0
100
AcDbArc
 50
90.0
 51
180.0
  0
LINE
  5
26B2
330
269F
100
AcDbEntity
  8
0
100
AcDbLine
 10
-2.074999999999818
 20
-1.599998751793009
 30
0.0
 11
-2.074999999999818
 21
-6.011308127079246
 31
0.0
  0
ARC
  5
26B3
330
269F
100
AcDbEntity
  8
0
100
AcDbCircle
 10
1.925000000481305
 20
-6.011308130798625
 30
0.0
 40
0.15
210
0.0
220
0.0
230
-1.0
100
AcDbArc
 50
239.4395325623111
 51
0.0
  0
ARC
  5
26B4
330
269F
100
AcDbEntity
  8
0
100
AcDbCircle
 10
5.000012955605598
 20
1.499999997201485
 30
0.0
 40
1.5
100
AcDbArc
 50
180.0
 51
270.0
  0
LINE
  5
26B5
330
269F
100
AcDbEntity
  8
0
100
AcDbLine
 10
5.000053032013966
 20
0.0
 30
0.0
 11
6.075053032013784
 21
0.0
 31
0.0
  0
LINE
  5
26B6
330
269F
100
AcDbEntity
  8
0
100
AcDbLine
 10
7.075053032013784
 20
-1.150000000000091
 30
0.0
 11
7.075053032013784
 21
-1.599998751793009
 31
0.0
  0
ARC
  5
26B7
330
269F
100
AcDbEntity
  8
0
100
AcDbCircle
 10
-7.67501295560669
 20
-4.741195886304467
 30
0.0
 40
1.625
210
0.0
220
0.0
230
-1.0
100
AcDbArc
 50
300.5604674377753
 51
0.0
  0
LINE
  5
26B8
330
269F
100
AcDbEntity
  8
0
100
AcDbLine
 10
6.050053032013238
 20
-4.75260851161238
 30
0.0
 11
6.050053032013238
 21
-3.070798751793063
 31
0.0
  0
ARC
  5
26B9
330
269F
100
AcDbEntity
  8
0
100
AcDbCircle
 10
5.55001295560578
 20
-3.070798516999275
 30
0.0
 40
0.5
100
AcDbArc
 50
0.0
 51
74.99906585874855
  0
LINE
  5
26BA
330
269F
100
AcDbEntity
  8
0
100
AcDbLine
 10
6.075053032013784
 20
0.0
 30
0.0
 11
8.075103451643372
 21
0.0
 31
0.0
  0
LINE
  5
26BB
330
269F
100
AcDbEntity
  8
0
100
AcDbLine
 10
7.22505303201342
 20
-1.0
 30
0.0
 11
8.075103451643372
 21
-1.0
 31
0.0
  0
ARC
  5
26BC
330
269F
100
AcDbEntity
  8
0
100
AcDbCircle
 10
7.225053032420874
 20
-1.150000003065998
 30
0.0
 40
0.15
100
AcDbArc
 50
90.0
 51
180.0
  0
LINE
  5
26BD
330
269F
100
AcDbEntity
  8
0
100
AcDbLine
 10
7.075053032013784
 20
-1.599998751793009
 30
0.0
 11
7.075053032013784
 21
-6.011308127079246
 31
0.0
  0
ARC
  5
26BE
330
269F
100
AcDbEntity
  8
0
100
AcDbCircle
 10
6.925053032420692
 20
-6.011308130798625
 30
0.0
 40
0.15
100
AcDbArc
 50
239.4395325623111
 51
0.0
  0
LINE
  5
26BF
330
269F
100
AcDbEntity
  8
0
100
AcDbLine
 10
5.679453032013953
 20
-2.587798751792889
 30
0.0
 11
2.629453032013771
 21
-1.770598751792932
 31
0.0
  0
LINE
  5
26C0
330
269F
100
AcDbEntity
  8
0
100
AcDbLine
 10
0.2999636768699929
 20
10.83869999999979
 30
0.0
 11
0.2999637928405718
 21
10.1887041444138
 31
0.0
  0
LINE
  5
26C1
330
269F
100
AcDbEntity
  8
0
100
AcDbLine
 10
-1.550000000000182
 20
10.83870013122942
 30
0.0
 11
-1.550000000000182
 21
8.872601248207047
 31
0.0
  0
LINE
  5
26C2
330
269F
100
AcDbEntity
  8
0
100
AcDbLine
 10
-0.4500363231300071
 20
11.58869999999979
 30
0.0
 11
-0.8000000000001819
 21
11.58869999999979
 31
0.0
  0
ARC
  5
26C3
330
269F
100
AcDbEntity
  8
0
100
AcDbCircle
 10
-0.8000000004813046
 20
8.872601246666818
 30
0.0
 40
0.75
100
AcDbArc
 50
180.0
 51
270.0
  0
ARC
  5
26C4
330
269F
100
AcDbEntity
  8
0
100
AcDbCircle
 10
0.8000000004813046
 20
10.83869999693388
 30
0.0
 40
0.75
210
0.0
220
0.0
230
-1.0
100
AcDbArc
 50
0.0
 51
90.0
  0
ARC
  5
26C5
330
269F
100
AcDbEntity
  8
0
100
AcDbCircle
 10
0.4500363236111298
 20
10.83869999693388
 30
0.0
 40
0.75
210
0.0
220
0.0
230
-1.0
100
AcDbArc
 50
90.0
 51
180.0
  0
LINE
  5
26C6
330
269F
100
AcDbEntity
  8
0
100
AcDbLine
 10
5.799927353739804
 20
8.122601248207047
 30
0.0
 11
3.749927353739622
 21
8.122601248207047
 31
0.0
  0
ARC
  5
26C7
330
269F
100
AcDbEntity
  8
0
100
AcDbCircle
 10
3.749887276444497
 20
7.872601246934209
 30
0.0
 40
0.25
100
AcDbArc
 50
90.0
 51
180.0
  0
LINE
  5
26C8
330
269F
100
AcDbEntity
  8
0
100
AcDbLine
 10
4.699963676869629
 20
10.83869999999979
 30
0.0
 11
4.699963792840208
 21
10.1887041444138
 31
0.0
  0
LINE
  5
26C9
330
269F
100
AcDbEntity
  8
0
100
AcDbLine
 10
6.549927353739804
 20
10.83869999999979
 30
0.0
 11
6.549927353739804
 21
8.872601248207047
 31
0.0
  0
LINE
  5
26CA
330
269F
100
AcDbEntity
  8
0
100
AcDbLine
 10
5.449963676869629
 20
11.58869999999979
 30
0.0
 11
5.799927353739804
 21
11.58869999999979
 31
0.0
  0
ARC
  5
26CB
330
269F
100
AcDbEntity
  8
0
100
AcDbCircle
 10
-5.799927353258681
 20
8.872601246666818
 30
0.0
 40
0.75
210
0.0
220
0.0
230
-1.0
100
AcDbArc
 50
180.0
 51
270.0
  0
ARC
  5
26CC
330
269F
100
AcDbEntity
  8
0
100
AcDbCircle
 10
5.799927353258681
 20
10.83869999693388
 30
0.0
 40
0.75
100
AcDbArc
 50
0.0
 51
90.0
  0
ARC
  5
26CD
330
269F
100
AcDbEntity
  8
0
100
AcDbCircle
 10
5.449963676388506
 20
10.83869999693388
 30
0.0
 40
0.75
100
AcDbArc
 50
90.0
 51
180.0
  0
ARC
  5
26CE
330
269F
100
AcDbEntity
  8
0
100
AcDbCircle
 10
-8.075103452698386
 20
-0.5000000030659066
 30
0.0
 40
0.5
210
0.0
220
0.0
230
-1.0
100
AcDbArc
 50
90.0
 51
180.0
  0
ARC
  5
26CF
330
269F
100
AcDbEntity
  8
0
100
AcDbCircle
 10
8.075103452698386
 20
-0.5000000030659066
 30
0.0
 40
0.5
100
AcDbArc
 50
270.0
 51
0.0
  0
LINE
  5
26D0
330
269F
100
AcDbEntity
  8
0
100
AcDbLine
 10
4.449963792840208
 20
9.938704144413805
 30
0.0
 11
0.5499637928405718
 21
9.938704144413805
 31
0.0
  0
ARC
  5
26D1
330
269F
100
AcDbEntity
  8
0
100
AcDbCircle
 10
0.5499637923585396
 20
10.1887041413479
 30
0.0
 40
0.25
100
AcDbArc
 50
180.0
 51
270.0
  0
ARC
  5
26D2
330
269F
100
AcDbEntity
  8
0
100
AcDbCircle
 10
4.449963792359085
 20
10.1887041413479
 30
0.0
 40
0.25
100
AcDbArc
 50
270.0
 51
0.0
  0
ENDBLK
  5
26D3
330
269F
100
AcDbEntity
  8
0
100
AcDbBlockEnd
  0
BLOCK
  5
26D8
330
26D5
100
AcDbEntity
  8
0
100
AcDbBlockBegin
  2
FIT-223
 70
     0
 10
0.0
 20
0.0
 30
0.0
  3
FIT-223
  1

  0
LINE
  5
26D9
330
26D5
100
AcDbEntity
  8
LAYOUT
100
AcDbLine
 10
1.15078585161973
 20
2.73623920407681
 30
0.0
 11
4.499999999998209
 21
2.73623920407681
 31
0.0
  0
LWPOLYLINE
  5
26DA
330
26D5
100
AcDbEntity
  8
0
100
AcDbPolyline
 90
        4
 70
   129
 43
0.0
 10
1.160191656239476
 20
7.0
 10
1.160191656239476
 20
0.0
 10
0.0
 20
0.0
 10
0.0
 20
7.0
  0
LINE
  5
26DB
330
26D5
100
AcDbEntity
  8
LAYOUT
100
AcDbLine
 10
1.15078585161973
 20
2.23623920407681
 30
0.0
 11
4.499999999998209
 21
2.23623920407681
 31
0.0
  0
LINE
  5
26DC
330
26D5
100
AcDbEntity
  8
LAYOUT
100
AcDbLine
 10
1.15078585161973
 20
3.73623920407681
 30
0.0
 11
4.499999999998209
 21
3.73623920407681
 31
0.0
  0
LINE
  5
26DD
330
26D5
100
AcDbEntity
  8
LAYOUT
100
AcDbLine
 10
1.15078585161973
 20
3.23623920407681
 30
0.0
 11
4.499999999998209
 21
3.23623920407681
 31
0.0
  0
LINE
  5
26DE
330
26D5
100
AcDbEntity
  8
LAYOUT
100
AcDbLine
 10
1.15078585161973
 20
4.23623920407681
 30
0.0
 11
4.499999999998209
 21
4.23623920407681
 31
0.0
  0
LINE
  5
26DF
330
26D5
100
AcDbEntity
  8
LAYOUT
100
AcDbLine
 10
1.15078585161973
 20
4.73623920407681
 30
0.0
 11
4.499999999998209
 21
4.73623920407681
 31
0.0
  0
LINE
  5
26E0
330
26D5
100
AcDbEntity
  8
LAYOUT
100
AcDbLine
 10
1.15078585161973
 20
1.73623920407681
 30
0.0
 11
4.499999999998209
 21
1.73623920407681
 31
0.0
  0
LINE
  5
26E1
330
26D5
100
AcDbEntity
  8
LAYOUT
100
AcDbLine
 10
1.15078585161973
 20
1.23623920407681
 30
0.0
 11
4.499999999998209
 21
1.23623920407681
 31
0.0
  0
LINE
  5
26E2
330
26D5
100
AcDbEntity
  8
LAYOUT
100
AcDbLine
 10
1.15078585161973
 20
5.73623920407681
 30
0.0
 11
4.499999999998209
 21
5.73623920407681
 31
0.0
  0
LINE
  5
26E3
330
26D5
100
AcDbEntity
  8
LAYOUT
100
AcDbLine
 10
1.15078585161973
 20
5.23623920407681
 30
0.0
 11
4.499999999998209
 21
5.23623920407681
 31
0.0
  0
ENDBLK
  5
26E4
330
26D5
100
AcDbEntity
  8
0
100
AcDbBlockEnd
  0
BLOCK
  5
26EF
330
26EE
100
AcDbEntity
  8
0
100
AcDbBlockBegin
  2
*D24
 70
     1
 10
0.0
 20
0.0
 30
0.0
  3
*D24
  1

  0
LINE
  5
26F0
330
26EE
100
AcDbEntity
  8
COTAS
370
    -2
100
AcDbLine
 10
112.1000016884645
 20
126.8684155330643
 30
0.0
 11
128.1502793198897
 21
126.8684155330643
 31
0.0
  0
LINE
  5
26F1
330
26EE
100
AcDbEntity
  8
COTAS
370
    -2
100
AcDbLine
 10
114.3501784793325
 20
91.36820254459302
 30
0.0
 11
128.1502793198897
 21
91.36820254459302
 31
0.0
  0
LINE
  5
26F2
330
26EE
100
AcDbEntity
  8
COTAS
370
    -2
100
AcDbLine
 10
127.1502793198897
 20
124.8684155330643
 30
0.0
 11
127.1502793198897
 21
93.36820254459302
 31
0.0
  0
SOLID
  5
26F3
330
26EE
100
AcDbEntity
  8
COTAS
100
AcDbTrace
 10
127.483612653223
 20
124.8684155330643
 30
0.0
 11
126.8169459865564
 21
124.8684155330643
 31
0.0
 12
127.1502793198897
 22
126.8684155330643
 32
0.0
 13
127.1502793198897
 23
126.8684155330643
 33
0.0
  0
SOLID
  5
26F4
330
26EE
100
AcDbEntity
  8
COTAS
100
AcDbTrace
 10
126.8169459865564
 20
93.36820254459302
 30
0.0
 11
127.483612653223
 21
93.36820254459302
 31
0.0
 12
127.1502793198897
 22
91.36820254459302
 32
0.0
 13
127.1502793198897
 23
91.36820254459302
 33
0.0
  0
MTEXT
  5
26F5
330
26EE
100
AcDbEntity
  8
COTAS
 62
     7
100
AcDbMText
 10
125.3740293198897
 20
109.1183090388287
 30
0.0
 40
2.5
 41
0.0
 71
     5
 72
     1
  1
35.5
 11
-4.003033649352184E-16
 21
1.0
 31
0.0
 73
     1
 44
1.0
  0
POINT
  5
26F6
330
26EE
100
AcDbEntity
  8
Defpoints
 62
     0
100
AcDbPoint
 10
111.6000016884645
 20
126.8684155330643
 30
0.0
  0
POINT
  5
26F7
330
26EE
100
AcDbEntity
  8
Defpoints
 62
     0
100
AcDbPoint
 10
113.8501784793325
 20
91.36820254459302
 30
0.0
  0
POINT
  5
26F8
330
26EE
100
AcDbEntity
  8
Defpoints
 62
     0
100
AcDbPoint
 10
127.1502793198897
 20
91.36820254459302
 30
0.0
  0
ENDBLK
  5
26F9
330
26EE
100
AcDbEntity
  8
0
100
AcDbBlockEnd
  0
BLOCK
  5
26FC
330
26FB
100
AcDbEntity
  8
0
100
AcDbBlockBegin
  2
*D25
 70
     1
 10
0.0
 20
0.0
 30
0.0
  3
*D25
  1

  0
LINE
  5
26FD
330
26FB
100
AcDbEntity
  8
COTAS
370
    -2
100
AcDbLine
 10
117.6501559625804
 20
40.2006255187203
 30
0.0
 11
128.1501559625805
 21
40.20062551872029
 31
0.0
  0
LINE
  5
26FE
330
26FB
100
AcDbEntity
  8
COTAS
370
    -2
100
AcDbLine
 10
117.6501559625804
 20
75.20062007421762
 30
0.0
 11
128.1501559625805
 21
75.20062007421762
 31
0.0
  0
LINE
  5
26FF
330
26FB
100
AcDbEntity
  8
COTAS
370
    -2
100
AcDbLine
 10
127.1501559625805
 20
42.20062551872029
 30
0.0
 11
127.1501559625805
 21
73.20062007421762
 31
0.0
  0
SOLID
  5
2700
330
26FB
100
AcDbEntity
  8
COTAS
100
AcDbTrace
 10
126.8168226292471
 20
42.20062551872029
 30
0.0
 11
127.4834892959138
 21
42.20062551872029
 31
0.0
 12
127.1501559625805
 22
40.20062551872029
 32
0.0
 13
127.1501559625805
 23
40.20062551872029
 33
0.0
  0
SOLID
  5
2701
330
26FB
100
AcDbEntity
  8
COTAS
100
AcDbTrace
 10
127.4834892959138
 20
73.20062007421762
 30
0.0
 11
126.8168226292471
 21
73.20062007421762
 31
0.0
 12
127.1501559625805
 22
75.20062007421762
 32
0.0
 13
127.1501559625805
 23
75.20062007421762
 33
0.0
  0
MTEXT
  5
2702
330
26FB
100
AcDbEntity
  8
COTAS
 62
     7
100
AcDbMText
 10
125.3739059625805
 20
57.70066553306384
 30
0.0
 40
2.5
 41
0.0
 71
     5
 72
     1
  1
35
 11
4.060244835943825E-16
 21
1.0
 31
0.0
 73
     1
 44
1.0
  0
POINT
  5
2703
330
26FB
100
AcDbEntity
  8
Defpoints
 62
     0
100
AcDbPoint
 10
117.1501559625804
 20
40.2006255187203
 30
0.0
  0
POINT
  5
2704
330
26FB
100
AcDbEntity
  8
Defpoints
 62
     0
100
AcDbPoint
 10
117.1501559625804
 20
75.20062007421762
 30
0.0
  0
POINT
  5
2705
330
26FB
100
AcDbEntity
  8
Defpoints
 62
     0
100
AcDbPoint
 10
127.1501559625805
 20
75.20062007421762
 30
0.0
  0
ENDBLK
  5
2706
330
26FB
100
AcDbEntity
  8
0
100
AcDbBlockEnd
  0
BLOCK
  5
2709
330
2708
100
AcDbEntity
  8
0
100
AcDbBlockBegin
  2
*D26
 70
     1
 10
0.0
 20
0.0
 30
0.0
  3
*D26
  1

  0
LINE
  5
270A
330
2708
100
AcDbEntity
  8
COTAS
370
    -2
100
AcDbLine
 10
92.84989831311668
 20
39.7007155330644
 30
0.0
 11
92.84989831311668
 21
29.2006255187203
 31
0.0
  0
LINE
  5
270B
330
2708
100
AcDbEntity
  8
COTAS
370
    -2
100
AcDbLine
 10
117.1501983131166
 20
39.7006155330651
 30
0.0
 11
117.1501983131166
 21
29.2006255187203
 31
0.0
  0
LINE
  5
270C
330
2708
100
AcDbEntity
  8
COTAS
370
    -2
100
AcDbLine
 10
94.84989831311668
 20
30.2006255187203
 30
0.0
 11
115.1501983131166
 21
30.2006255187203
 31
0.0
  0
SOLID
  5
270D
330
2708
100
AcDbEntity
  8
COTAS
100
AcDbTrace
 10
94.84989831311668
 20
30.53395885205363
 30
0.0
 11
94.84989831311668
 21
29.86729218538697
 31
0.0
 12
92.84989831311668
 22
30.2006255187203
 32
0.0
 13
92.84989831311668
 23
30.2006255187203
 33
0.0
  0
SOLID
  5
270E
330
2708
100
AcDbEntity
  8
COTAS
100
AcDbTrace
 10
115.1501983131166
 20
29.86729218538697
 30
0.0
 11
115.1501983131166
 21
30.53395885205363
 31
0.0
 12
117.1501983131166
 22
30.2006255187203
 32
0.0
 13
117.1501983131166
 23
30.2006255187203
 33
0.0
  0
MTEXT
  5
270F
330
2708
100
AcDbEntity
  8
COTAS
 62
     7
100
AcDbMText
 10
104.9999636120438
 20
31.9768755187203
 30
0.0
 40
2.5
 41
0.0
 71
     5
 72
     1
  1
24.3
 73
     1
 44
1.0
  0
POINT
  5
2710
330
2708
100
AcDbEntity
  8
Defpoints
 62
     0
100
AcDbPoint
 10
92.84989831311668
 20
40.2007155330644
 30
0.0
  0
POINT
  5
2711
330
2708
100
AcDbEntity
  8
Defpoints
 62
     0
100
AcDbPoint
 10
117.1501983131166
 20
40.2006155330651
 30
0.0
  0
POINT
  5
2712
330
2708
100
AcDbEntity
  8
Defpoints
 62
     0
100
AcDbPoint
 10
117.1501983131166
 20
30.2006255187203
 30
0.0
  0
ENDBLK
  5
2713
330
2708
100
AcDbEntity
  8
0
100
AcDbBlockEnd
  0
BLOCK
  5
2717
330
2716
100
AcDbEntity
  8
0
100
AcDbBlockBegin
  2
*D27
 70
     1
 10
0.0
 20
0.0
 30
0.0
  3
*D27
  1

  0
LINE
  5
2718
330
2716
100
AcDbEntity
  8
COTAS
370
    -2
100
AcDbLine
 10
96.90007241352941
 20
125.8682188000585
 30
0.0
 11
96.90007241352941
 21
137.8682187967615
 31
0.0
  0
LINE
  5
2719
330
2716
100
AcDbEntity
  8
COTAS
370
    -2
100
AcDbLine
 10
113.0999271225892
 20
125.8682188015969
 30
0.0
 11
113.0999271225892
 21
137.8682187967615
 31
0.0
  0
LINE
  5
271A
330
2716
100
AcDbEntity
  8
COTAS
370
    -2
100
AcDbLine
 10
98.90007241352941
 20
136.8682187967615
 30
0.0
 11
111.0999271225892
 21
136.8682187967615
 31
0.0
  0
SOLID
  5
271B
330
2716
100
AcDbEntity
  8
COTAS
100
AcDbTrace
 10
98.90007241352941
 20
137.2015521300949
 30
0.0
 11
98.90007241352941
 21
136.5348854634282
 31
0.0
 12
96.90007241352941
 22
136.8682187967615
 32
0.0
 13
96.90007241352941
 23
136.8682187967615
 33
0.0
  0
SOLID
  5
271C
330
2716
100
AcDbEntity
  8
COTAS
100
AcDbTrace
 10
111.0999271225892
 20
136.5348854634282
 30
0.0
 11
111.0999271225892
 21
137.2015521300949
 31
0.0
 12
113.0999271225892
 22
136.8682187967615
 32
0.0
 13
113.0999271225892
 23
136.8682187967615
 33
0.0
  0
MTEXT
  5
271D
330
2716
100
AcDbEntity
  8
COTAS
 62
     7
100
AcDbMText
 10
104.9999997680593
 20
138.6444687967615
 30
0.0
 40
2.5
 41
0.0
 71
     5
 72
     1
  1
16.2
 73
     1
 44
1.0
  0
POINT
  5
271E
330
2716
100
AcDbEntity
  8
Defpoints
 62
     0
100
AcDbPoint
 10
96.90007241352941
 20
125.3682188000585
 30
0.0
  0
POINT
  5
271F
330
2716
100
AcDbEntity
  8
Defpoints
 62
     0
100
AcDbPoint
 10
113.0999271225892
 20
125.3682188015969
 30
0.0
  0
POINT
  5
2720
330
2716
100
AcDbEntity
  8
Defpoints
 62
     0
100
AcDbPoint
 10
113.0999271225892
 20
136.8682187967615
 30
0.0
  0
ENDBLK
  5
2721
330
2716
100
AcDbEntity
  8
0
100
AcDbBlockEnd
  0
BLOCK
  5
2724
330
2723
100
AcDbEntity
  8
0
100
AcDbBlockBegin
  2
*D28
 70
     1
 10
0.0
 20
0.0
 30
0.0
  3
*D28
  1

  0
LINE
  5
2725
330
2723
100
AcDbEntity
  8
COTAS
370
    -2
100
AcDbLine
 10
97.90007241510921
 20
93.68560178142393
 30
0.0
 11
97.90007241510921
 21
80.36820254459289
 31
0.0
  0
LINE
  5
2726
330
2723
100
AcDbEntity
  8
COTAS
370
    -2
100
AcDbLine
 10
112.1001784821892
 20
93.68560178142393
 30
0.0
 11
112.1001784821892
 21
80.36820254459289
 31
0.0
  0
LINE
  5
2727
330
2723
100
AcDbEntity
  8
COTAS
370
    -2
100
AcDbLine
 10
99.90007241510921
 20
81.36820254459289
 30
0.0
 11
110.1001784821892
 21
81.36820254459289
 31
0.0
  0
SOLID
  5
2728
330
2723
100
AcDbEntity
  8
COTAS
100
AcDbTrace
 10
99.90007241510921
 20
81.70153587792622
 30
0.0
 11
99.90007241510921
 21
81.03486921125956
 31
0.0
 12
97.90007241510921
 22
81.36820254459289
 32
0.0
 13
97.90007241510921
 23
81.36820254459289
 33
0.0
  0
SOLID
  5
2729
330
2723
100
AcDbEntity
  8
COTAS
100
AcDbTrace
 10
110.1001784821892
 20
81.03486921125956
 30
0.0
 11
110.1001784821892
 21
81.70153587792622
 31
0.0
 12
112.1001784821892
 22
81.36820254459289
 32
0.0
 13
112.1001784821892
 23
81.36820254459289
 33
0.0
  0
MTEXT
  5
272A
330
2723
100
AcDbEntity
  8
COTAS
 62
     7
100
AcDbMText
 10
105.0001254486492
 20
83.12320254459289
 30
0.0
 40
2.5
 41
0.0
 71
     5
 72
     1
  1
14.2
 73
     1
 44
1.0
  0
POINT
  5
272B
330
2723
100
AcDbEntity
  8
Defpoints
 62
     0
100
AcDbPoint
 10
97.90007241510921
 20
94.18560178142393
 30
0.0
  0
POINT
  5
272C
330
2723
100
AcDbEntity
  8
Defpoints
 62
     0
100
AcDbPoint
 10
112.1001784821892
 20
94.18560178142393
 30
0.0
  0
POINT
  5
272D
330
2723
100
AcDbEntity
  8
Defpoints
 62
     0
100
AcDbPoint
 10
112.1001784821892
 20
81.36820254459289
 30
0.0
  0
ENDBLK
  5
272E
330
2723
100
AcDbEntity
  8
0
100
AcDbBlockEnd
  0
BLOCK
  5
2731
330
2730
100
AcDbEntity
  8
0
100
AcDbBlockBegin
  2
*D29
 70
     1
 10
0.0
 20
0.0
 30
0.0
  3
*D29
  1

  0
LINE
  5
2732
330
2730
100
AcDbEntity
  8
COTAS
370
    -2
100
AcDbLine
 10
97.89999831311525
 20
126.8684155330643
 30
0.0
 11
81.84997157297221
 21
126.8684155330643
 31
0.0
  0
LINE
  5
2733
330
2730
100
AcDbEntity
  8
COTAS
370
    -2
100
AcDbLine
 10
104.5001525385887
 20
100.1838184402946
 30
0.0
 11
81.84997157297221
 21
100.1838184402946
 31
0.0
  0
LINE
  5
2734
330
2730
100
AcDbEntity
  8
COTAS
370
    -2
100
AcDbLine
 10
82.84997157297221
 20
124.8684155330643
 30
0.0
 11
82.84997157297221
 21
102.1838184402946
 31
0.0
  0
SOLID
  5
2735
330
2730
100
AcDbEntity
  8
COTAS
100
AcDbTrace
 10
83.18330490630554
 20
124.8684155330643
 30
0.0
 11
82.51663823963888
 21
124.8684155330643
 31
0.0
 12
82.84997157297221
 22
126.8684155330643
 32
0.0
 13
82.84997157297221
 23
126.8684155330643
 33
0.0
  0
SOLID
  5
2736
330
2730
100
AcDbEntity
  8
COTAS
100
AcDbTrace
 10
82.51663823963888
 20
102.1838184402946
 30
0.0
 11
83.18330490630554
 21
102.1838184402946
 31
0.0
 12
82.84997157297221
 22
100.1838184402946
 32
0.0
 13
82.84997157297221
 23
100.1838184402946
 33
0.0
  0
MTEXT
  5
2737
330
2730
100
AcDbEntity
  8
COTAS
 62
     7
100
AcDbMText
 10
81.0737215729722
 20
113.509215533064
 30
0.0
 40
2.5
 41
0.0
 71
     5
 72
     1
  1
26.7
 11
0.0
 21
1.0
 31
0.0
 73
     1
 44
1.0
  0
POINT
  5
2738
330
2730
100
AcDbEntity
  8
Defpoints
 62
     0
100
AcDbPoint
 10
98.39999831311525
 20
126.8684155330643
 30
0.0
  0
POINT
  5
2739
330
2730
100
AcDbEntity
  8
Defpoints
 62
     0
100
AcDbPoint
 10
105.0001525385887
 20
100.1838184402946
 30
0.0
  0
POINT
  5
273A
330
2730
100
AcDbEntity
  8
Defpoints
 62
     0
100
AcDbPoint
 10
82.84997157297221
 20
100.1838184402946
 30
0.0
  0
ENDBLK
  5
273B
330
2730
100
AcDbEntity
  8
0
100
AcDbBlockEnd
  0
BLOCK
  5
276A
330
2769
100
AcDbEntity
  8
0
100
AcDbBlockBegin
  2
*D30
 70
     1
 10
0.0
 20
0.0
 30
0.0
  3
*D30
  1

  0
LINE
  5
276B
330
2769
100
AcDbEntity
  8
COTAS
370
    -2
100
AcDbLine
 10
112.1000016884645
 20
126.8684155330643
 30
0.0
 11
128.1502793198897
 21
126.8684155330643
 31
0.0
  0
LINE
  5
276C
330
2769
100
AcDbEntity
  8
COTAS
370
    -2
100
AcDbLine
 10
114.3501784793325
 20
91.36820254459302
 30
0.0
 11
128.1502793198897
 21
91.36820254459302
 31
0.0
  0
LINE
  5
276D
330
2769
100
AcDbEntity
  8
COTAS
370
    -2
100
AcDbLine
 10
127.1502793198897
 20
124.8684155330643
 30
0.0
 11
127.1502793198897
 21
93.36820254459302
 31
0.0
  0
SOLID
  5
276E
330
2769
100
AcDbEntity
  8
COTAS
100
AcDbTrace
 10
127.483612653223
 20
124.8684155330643
 30
0.0
 11
126.8169459865564
 21
124.8684155330643
 31
0.0
 12
127.1502793198897
 22
126.8684155330643
 32
0.0
 13
127.1502793198897
 23
126.8684155330643
 33
0.0
  0
SOLID
  5
276F
330
2769
100
AcDbEntity
  8
COTAS
100
AcDbTrace
 10
126.8169459865564
 20
93.36820254459302
 30
0.0
 11
127.483612653223
 21
93.36820254459302
 31
0.0
 12
127.1502793198897
 22
91.36820254459302
 32
0.0
 13
127.1502793198897
 23
91.36820254459302
 33
0.0
  0
MTEXT
  5
2770
330
2769
100
AcDbEntity
  8
COTAS
 62
     7
100
AcDbMText
 10
125.3740293198897
 20
109.1183090388287
 30
0.0
 40
2.5
 41
0.0
 71
     5
 72
     1
  1
35.5
 11
-4.003033649352184E-16
 21
1.0
 31
0.0
 73
     1
 44
1.0
  0
POINT
  5
2771
330
2769
100
AcDbEntity
  8
Defpoints
 62
     0
100
AcDbPoint
 10
111.6000016884645
 20
126.8684155330643
 30
0.0
  0
POINT
  5
2772
330
2769
100
AcDbEntity
  8
Defpoints
 62
     0
100
AcDbPoint
 10
113.8501784793325
 20
91.36820254459302
 30
0.0
  0
POINT
  5
2773
330
2769
100
AcDbEntity
  8
Defpoints
 62
     0
100
AcDbPoint
 10
127.1502793198897
 20
91.36820254459302
 30
0.0
  0
ENDBLK
  5
2774
330
2769
100
AcDbEntity
  8
0
100
AcDbBlockEnd
  0
BLOCK
  5
2777
330
2776
100
AcDbEntity
  8
0
100
AcDbBlockBegin
  2
*D31
 70
     1
 10
0.0
 20
0.0
 30
0.0
  3
*D31
  1

  0
LINE
  5
2778
330
2776
100
AcDbEntity
  8
COTAS
370
    -2
100
AcDbLine
 10
117.6501559625804
 20
40.2006255187203
 30
0.0
 11
128.1501559625805
 21
40.20062551872029
 31
0.0
  0
LINE
  5
2779
330
2776
100
AcDbEntity
  8
COTAS
370
    -2
100
AcDbLine
 10
117.6501559625804
 20
75.20062007421762
 30
0.0
 11
128.1501559625805
 21
75.20062007421762
 31
0.0
  0
LINE
  5
277A
330
2776
100
AcDbEntity
  8
COTAS
370
    -2
100
AcDbLine
 10
127.1501559625805
 20
42.20062551872029
 30
0.0
 11
127.1501559625805
 21
73.20062007421762
 31
0.0
  0
SOLID
  5
277B
330
2776
100
AcDbEntity
  8
COTAS
100
AcDbTrace
 10
126.8168226292471
 20
42.20062551872029
 30
0.0
 11
127.4834892959138
 21
42.20062551872029
 31
0.0
 12
127.1501559625805
 22
40.20062551872029
 32
0.0
 13
127.1501559625805
 23
40.20062551872029
 33
0.0
  0
SOLID
  5
277C
330
2776
100
AcDbEntity
  8
COTAS
100
AcDbTrace
 10
127.4834892959138
 20
73.20062007421762
 30
0.0
 11
126.8168226292471
 21
73.20062007421762
 31
0.0
 12
127.1501559625805
 22
75.20062007421762
 32
0.0
 13
127.1501559625805
 23
75.20062007421762
 33
0.0
  0
MTEXT
  5
277D
330
2776
100
AcDbEntity
  8
COTAS
 62
     7
100
AcDbMText
 10
125.3739059625805
 20
57.70066553306384
 30
0.0
 40
2.5
 41
0.0
 71
     5
 72
     1
  1
35
 11
4.060244835943825E-16
 21
1.0
 31
0.0
 73
     1
 44
1.0
  0
POINT
  5
277E
330
2776
100
AcDbEntity
  8
Defpoints
 62
     0
100
AcDbPoint
 10
117.1501559625804
 20
40.2006255187203
 30
0.0
  0
POINT
  5
277F
330
2776
100
AcDbEntity
  8
Defpoints
 62
     0
100
AcDbPoint
 10
117.1501559625804
 20
75.20062007421762
 30
0.0
  0
POINT
  5
2780
330
2776
100
AcDbEntity
  8
Defpoints
 62
     0
100
AcDbPoint
 10
127.1501559625805
 20
75.20062007421762
 30
0.0
  0
ENDBLK
  5
2781
330
2776
100
AcDbEntity
  8
0
100
AcDbBlockEnd
  0
BLOCK
  5
2784
330
2783
100
AcDbEntity
  8
0
100
AcDbBlockBegin
  2
*D32
 70
     1
 10
0.0
 20
0.0
 30
0.0
  3
*D32
  1

  0
LINE
  5
2785
330
2783
100
AcDbEntity
  8
COTAS
370
    -2
100
AcDbLine
 10
92.84989831311668
 20
39.7007155330644
 30
0.0
 11
92.84989831311668
 21
29.2006255187203
 31
0.0
  0
LINE
  5
2786
330
2783
100
AcDbEntity
  8
COTAS
370
    -2
100
AcDbLine
 10
117.1501983131166
 20
39.7006155330651
 30
0.0
 11
117.1501983131166
 21
29.2006255187203
 31
0.0
  0
LINE
  5
2787
330
2783
100
AcDbEntity
  8
COTAS
370
    -2
100
AcDbLine
 10
94.84989831311668
 20
30.2006255187203
 30
0.0
 11
115.1501983131166
 21
30.2006255187203
 31
0.0
  0
SOLID
  5
2788
330
2783
100
AcDbEntity
  8
COTAS
100
AcDbTrace
 10
94.84989831311668
 20
30.53395885205363
 30
0.0
 11
94.84989831311668
 21
29.86729218538697
 31
0.0
 12
92.84989831311668
 22
30.2006255187203
 32
0.0
 13
92.84989831311668
 23
30.2006255187203
 33
0.0
  0
SOLID
  5
2789
330
2783
100
AcDbEntity
  8
COTAS
100
AcDbTrace
 10
115.1501983131166
 20
29.86729218538697
 30
0.0
 11
115.1501983131166
 21
30.53395885205363
 31
0.0
 12
117.1501983131166
 22
30.2006255187203
 32
0.0
 13
117.1501983131166
 23
30.2006255187203
 33
0.0
  0
MTEXT
  5
278A
330
2783
100
AcDbEntity
  8
COTAS
 62
     7
100
AcDbMText
 10
104.9999636120438
 20
31.9768755187203
 30
0.0
 40
2.5
 41
0.0
 71
     5
 72
     1
  1
24.3
 73
     1
 44
1.0
  0
POINT
  5
278B
330
2783
100
AcDbEntity
  8
Defpoints
 62
     0
100
AcDbPoint
 10
92.84989831311668
 20
40.2007155330644
 30
0.0
  0
POINT
  5
278C
330
2783
100
AcDbEntity
  8
Defpoints
 62
     0
100
AcDbPoint
 10
117.1501983131166
 20
40.2006155330651
 30
0.0
  0
POINT
  5
278D
330
2783
100
AcDbEntity
  8
Defpoints
 62
     0
100
AcDbPoint
 10
117.1501983131166
 20
30.2006255187203
 30
0.0
  0
ENDBLK
  5
278E
330
2783
100
AcDbEntity
  8
0
100
AcDbBlockEnd
  0
BLOCK
  5
2792
330
2791
100
AcDbEntity
  8
0
100
AcDbBlockBegin
  2
*D33
 70
     1
 10
0.0
 20
0.0
 30
0.0
  3
*D33
  1

  0
LINE
  5
2793
330
2791
100
AcDbEntity
  8
COTAS
370
    -2
100
AcDbLine
 10
96.90007241352941
 20
125.8682188000585
 30
0.0
 11
96.90007241352941
 21
137.8682187967615
 31
0.0
  0
LINE
  5
2794
330
2791
100
AcDbEntity
  8
COTAS
370
    -2
100
AcDbLine
 10
113.0999271225892
 20
125.8682188015969
 30
0.0
 11
113.0999271225892
 21
137.8682187967615
 31
0.0
  0
LINE
  5
2795
330
2791
100
AcDbEntity
  8
COTAS
370
    -2
100
AcDbLine
 10
98.90007241352941
 20
136.8682187967615
 30
0.0
 11
111.0999271225892
 21
136.8682187967615
 31
0.0
  0
SOLID
  5
2796
330
2791
100
AcDbEntity
  8
COTAS
100
AcDbTrace
 10
98.90007241352941
 20
137.2015521300949
 30
0.0
 11
98.90007241352941
 21
136.5348854634282
 31
0.0
 12
96.90007241352941
 22
136.8682187967615
 32
0.0
 13
96.90007241352941
 23
136.8682187967615
 33
0.0
  0
SOLID
  5
2797
330
2791
100
AcDbEntity
  8
COTAS
100
AcDbTrace
 10
111.0999271225892
 20
136.5348854634282
 30
0.0
 11
111.0999271225892
 21
137.2015521300949
 31
0.0
 12
113.0999271225892
 22
136.8682187967615
 32
0.0
 13
113.0999271225892
 23
136.8682187967615
 33
0.0
  0
MTEXT
  5
2798
330
2791
100
AcDbEntity
  8
COTAS
 62
     7
100
AcDbMText
 10
104.9999997680593
 20
138.6444687967615
 30
0.0
 40
2.5
 41
0.0
 71
     5
 72
     1
  1
16.2
 73
     1
 44
1.0
  0
POINT
  5
2799
330
2791
100
AcDbEntity
  8
Defpoints
 62
     0
100
AcDbPoint
 10
96.90007241352941
 20
125.3682188000585
 30
0.0
  0
POINT
  5
279A
330
2791
100
AcDbEntity
  8
Defpoints
 62
     0
100
AcDbPoint
 10
113.0999271225892
 20
125.3682188015969
 30
0.0
  0
POINT
  5
279B
330
2791
100
AcDbEntity
  8
Defpoints
 62
     0
100
AcDbPoint
 10
113.0999271225892
 20
136.8682187967615
 30
0.0
  0
ENDBLK
  5
279C
330
2791
100
AcDbEntity
  8
0
100
AcDbBlockEnd
  0
BLOCK
  5
279F
330
279E
100
AcDbEntity
  8
0
100
AcDbBlockBegin
  2
*D34
 70
     1
 10
0.0
 20
0.0
 30
0.0
  3
*D34
  1

  0
LINE
  5
27A0
330
279E
100
AcDbEntity
  8
COTAS
370
    -2
100
AcDbLine
 10
97.90007241510921
 20
93.68560178142393
 30
0.0
 11
97.90007241510921
 21
80.36820254459289
 31
0.0
  0
LINE
  5
27A1
330
279E
100
AcDbEntity
  8
COTAS
370
    -2
100
AcDbLine
 10
112.1001784821892
 20
93.68560178142393
 30
0.0
 11
112.1001784821892
 21
80.36820254459289
 31
0.0
  0
LINE
  5
27A2
330
279E
100
AcDbEntity
  8
COTAS
370
    -2
100
AcDbLine
 10
99.90007241510921
 20
81.36820254459289
 30
0.0
 11
110.1001784821892
 21
81.36820254459289
 31
0.0
  0
SOLID
  5
27A3
330
279E
100
AcDbEntity
  8
COTAS
100
AcDbTrace
 10
99.90007241510921
 20
81.70153587792622
 30
0.0
 11
99.90007241510921
 21
81.03486921125956
 31
0.0
 12
97.90007241510921
 22
81.36820254459289
 32
0.0
 13
97.90007241510921
 23
81.36820254459289
 33
0.0
  0
SOLID
  5
27A4
330
279E
100
AcDbEntity
  8
COTAS
100
AcDbTrace
 10
110.1001784821892
 20
81.03486921125956
 30
0.0
 11
110.1001784821892
 21
81.70153587792622
 31
0.0
 12
112.1001784821892
 22
81.36820254459289
 32
0.0
 13
112.1001784821892
 23
81.36820254459289
 33
0.0
  0
MTEXT
  5
27A5
330
279E
100
AcDbEntity
  8
COTAS
 62
     7
100
AcDbMText
 10
105.0001254486492
 20
83.12320254459289
 30
0.0
 40
2.5
 41
0.0
 71
     5
 72
     1
  1
14.2
 73
     1
 44
1.0
  0
POINT
  5
27A6
330
279E
100
AcDbEntity
  8
Defpoints
 62
     0
100
AcDbPoint
 10
97.90007241510921
 20
94.18560178142393
 30
0.0
  0
POINT
  5
27A7
330
279E
100
AcDbEntity
  8
Defpoints
 62
     0
100
AcDbPoint
 10
112.1001784821892
 20
94.18560178142393
 30
0.0
  0
POINT
  5
27A8
330
279E
100
AcDbEntity
  8
Defpoints
 62
     0
100
AcDbPoint
 10
112.1001784821892
 20
81.36820254459289
 30
0.0
  0
ENDBLK
  5
27A9
330
279E
100
AcDbEntity
  8
0
100
AcDbBlockEnd
  0
BLOCK
  5
27AC
330
27AB
100
AcDbEntity
  8
0
100
AcDbBlockBegin
  2
*D35
 70
     1
 10
0.0
 20
0.0
 30
0.0
  3
*D35
  1

  0
LINE
  5
27AD
330
27AB
100
AcDbEntity
  8
COTAS
370
    -2
100
AcDbLine
 10
97.89999831311525
 20
126.8684155330643
 30
0.0
 11
81.84997157297221
 21
126.8684155330643
 31
0.0
  0
LINE
  5
27AE
330
27AB
100
AcDbEntity
  8
COTAS
370
    -2
100
AcDbLine
 10
104.5001525385887
 20
100.1838184402946
 30
0.0
 11
81.84997157297221
 21
100.1838184402946
 31
0.0
  0
LINE
  5
27AF
330
27AB
100
AcDbEntity
  8
COTAS
370
    -2
100
AcDbLine
 10
82.84997157297221
 20
124.8684155330643
 30
0.0
 11
82.84997157297221
 21
102.1838184402946
 31
0.0
  0
SOLID
  5
27B0
330
27AB
100
AcDbEntity
  8
COTAS
100
AcDbTrace
 10
83.18330490630554
 20
124.8684155330643
 30
0.0
 11
82.51663823963888
 21
124.8684155330643
 31
0.0
 12
82.84997157297221
 22
126.8684155330643
 32
0.0
 13
82.84997157297221
 23
126.8684155330643
 33
0.0
  0
SOLID
  5
27B1
330
27AB
100
AcDbEntity
  8
COTAS
100
AcDbTrace
 10
82.51663823963888
 20
102.1838184402946
 30
0.0
 11
83.18330490630554
 21
102.1838184402946
 31
0.0
 12
82.84997157297221
 22
100.1838184402946
 32
0.0
 13
82.84997157297221
 23
100.1838184402946
 33
0.0
  0
MTEXT
  5
27B2
330
27AB
100
AcDbEntity
  8
COTAS
 62
     7
100
AcDbMText
 10
81.0737215729722
 20
113.509215533064
 30
0.0
 40
2.5
 41
0.0
 71
     5
 72
     1
  1
26.7
 11
0.0
 21
1.0
 31
0.0
 73
     1
 44
1.0
  0
POINT
  5
27B3
330
27AB
100
AcDbEntity
  8
Defpoints
 62
     0
100
AcDbPoint
 10
98.39999831311525
 20
126.8684155330643
 30
0.0
  0
POINT
  5
27B4
330
27AB
100
AcDbEntity
  8
Defpoints
 62
     0
100
AcDbPoint
 10
105.0001525385887
 20
100.1838184402946
 30
0.0
  0
POINT
  5
27B5
330
27AB
100
AcDbEntity
  8
Defpoints
 62
     0
100
AcDbPoint
 10
82.84997157297221
 20
100.1838184402946
 30
0.0
  0
ENDBLK
  5
27B6
330
27AB
100
AcDbEntity
  8
0
100
AcDbBlockEnd
  0
BLOCK
  5
27BE
330
27BD
100
AcDbEntity
  8
0
100
AcDbBlockBegin
  2
CATÁLOGO
 70
     2
 10
0.0
 20
0.0
 30
0.0
  3
CATÁLOGO
  1

  0
ATTDEF
  5
27BF
330
27BD
100
AcDbEntity
  8
TEXTO
100
AcDbText
 10
95.56123079339245
 20
276.4999999999986
 30
0.0
 40
4.0
  1
DESCRIÇÃO
 72
     1
 11
112.1592307933925
 21
278.4999999999986
 31
0.0
100
AcDbAttributeDefinition
  3
DESCRIÇÃO
  2
DESCRIÇÃO
 70
     0
 74
     2
  0
LWPOLYLINE
  5
27C0
330
27BD
100
AcDbEntity
  8
LAYOUT
100
AcDbPolyline
 90
        6
 70
     0
 43
0.0
 10
200.0
 20
269.9999999999986
 10
80.0
 20
269.9999999999986
 42
0.4142135623730951
 10
75.0
 20
264.9999999999986
 10
75.0
 20
223.9999999999986
 42
-0.414213562373095
 10
72.0
 20
220.9999999999986
 10
10.0
 20
220.9999999999982
  0
LWPOLYLINE
  5
27C1
330
27BD
100
AcDbEntity
  8
LAYOUT
100
AcDbPolyline
 90
        8
 70
     1
 43
0.0
 10
13.0
 20
286.9999999999986
 42
0.414213562373095
 10
10.0
 20
283.9999999999986
 10
10.0
 20
12.99999999999818
 42
0.414213562373095
 10
13.0
 20
9.999999999998181
 10
197.0
 20
9.999999999998181
 42
0.414213562373095
 10
200.0
 20
12.99999999999909
 10
200.0
 20
283.9999999999986
 42
0.414213562373095
 10
197.0
 20
286.9999999999986
  0
ATTDEF
  5
27C2
330
27BD
100
AcDbEntity
  8
TEXTO
100
AcDbText
 10
19.045
 20
25.24999999999818
 30
0.0
 40
2.5
  1
APLICAÇÃO1
 72
     1
 11
30.0
 21
26.49999999999818
 31
0.0
100
AcDbAttributeDefinition
  3
APLICAÇÃO1
  2
APLICAÇÃO1
 70
     0
 74
     2
  0
ATTDEF
  5
27C3
330
27BD
100
AcDbEntity
  8
TEXTO
100
AcDbText
 10
19.045
 20
19.24999999999818
 30
0.0
 40
2.5
  1
APLICAÇÃO2
 72
     1
 11
30.0
 21
20.49999999999818
 31
0.0
100
AcDbAttributeDefinition
  3
APLICAÇÃO2
  2
APLICAÇÃO2
 70
     0
 74
     2
  0
ATTDEF
  5
27C4
330
27BD
100
AcDbEntity
  8
TEXTO
100
AcDbText
 10
24.86125
 20
13.24999999999818
 30
0.0
 40
2.5
  1
LINHA
 72
     1
 11
30.0
 21
14.49999999999818
 31
0.0
100
AcDbAttributeDefinition
  3
LINHA
  2
LINHA
 70
     0
 74
     2
  0
LWPOLYLINE
  5
27C5
330
27BD
100
AcDbEntity
  8
LAYOUT
100
AcDbPolyline
 90
        8
 70
     1
 43
0.0
 10
47.0
 20
29.49999999999818
 10
13.0
 20
29.49999999999818
 42
0.414213562373095
 10
11.5
 20
27.99999999999818
 10
11.5
 20
12.99999999999818
 42
0.414213562373095
 10
13.0
 20
11.49999999999818
 10
47.0
 20
11.49999999999818
 42
0.414213562373095
 10
48.5
 20
12.99999999999818
 10
48.5
 20
27.99999999999818
 42
0.4142135623730949
  0
LWPOLYLINE
  5
27C6
330
27BD
100
AcDbEntity
  8
LAYOUT
100
AcDbPolyline
 90
        8
 70
     1
 43
0.0
 10
73.5
 20
11.49999999999818
 10
51.5
 20
11.49999999999818
 42
-0.414213562373095
 10
50.0
 20
12.99999999999818
 10
50.0
 20
27.99999999999818
 42
-0.414213562373095
 10
51.5
 20
29.49999999999818
 10
73.5
 20
29.49999999999818
 42
-0.414213562373095
 10
75.0
 20
27.99999999999818
 10
75.0
 20
12.99999999999818
 42
-0.414213562373095
  0
ATTDEF
  5
27C7
330
27BD
100
AcDbEntity
  8
LAYOUT
100
AcDbText
 10
195.0
 20
4.999999999998181
 30
0.0
 40
2.5
  1
1/1
100
AcDbAttributeDefinition
  3
FOLHA
  2
1/1
 70
     0
  0
HATCH
  5
27C8
330
27BD
100
AcDbEntity
  8
LAYOUT
100
AcDbHatch
 10
0.0
 20
0.0
 30
0.0
210
0.0
220
0.0
230
1.0
  2
SOLID
 70
     1
 71
     0
 91
        1
 92
        0
 93
       10
 72
     2
 10
173.0872281001821
 20
23.29140728832135
 40
1.305025806819293
 50
270.0000000000007
 51
450.0000000000395
 73
     0
 72
     1
 10
173.0872281001812
 20
21.98638148150167
 11
172.183056181796
 21
21.98638148150167
 72
     1
 10
172.1830561817951
 20
21.98638148150167
 11
171.9965438714271
 21
21.20516732215219
 72
     1
 10
171.9965438714271
 20
21.20516732215219
 11
173.6577788917757
 21
21.20516732215219
 72
     2
 10
173.1841644943343
 20
23.29371370789795
 40
2.141573394230017
 50
282.7767362723677
 51
449.4062933728175
 73
     1
 72
     1
 10
173.2063553707649
 20
25.43517212866573
 11
171.1391010576499
 21
25.43517212866573
 72
     1
 10
171.1391010576499
 20
25.43517212866573
 11
170.193026537524
 21
21.20516732215128
 72
     1
 10
170.193026537524
 20
21.20516732215219
 11
171.1391010576235
 21
21.20516732215219
 72
     1
 10
171.1391010576235
 20
21.20516732215219
 11
171.8975848621476
 21
24.59643309514013
 72
     1
 10
171.8975848621476
 20
24.59643309514013
 11
173.0872281001821
 21
24.59643309514013
 97
        0
 75
     0
 76
     1
 98
        1
 10
0.0188030870003786
 20
0.0014061040992601
  0
HATCH
  5
27C9
330
27BD
100
AcDbEntity
  8
LAYOUT
100
AcDbHatch
 10
0.0
 20
0.0
 30
0.0
210
0.0
220
0.0
230
1.0
  2
SOLID
 70
     1
 71
     0
 91
        1
 92
        0
 93
        4
 72
     1
 10
175.3573004869668
 20
21.20516732215219
 11
176.3359645904784
 21
21.20516732215219
 72
     1
 10
176.3359645904784
 20
21.20516732215219
 11
177.0155924401397
 21
24.29658452185868
 72
     1
 10
177.0155924401397
 20
24.29658452185868
 11
176.0912985646009
 21
24.29658452185868
 72
     1
 10
176.0912985646009
 20
24.29658452185868
 11
175.3573004869668
 21
21.20516732215219
 97
        0
 75
     0
 76
     1
 98
        1
 10
0.0188030870003786
 20
0.0014061040992601
  0
HATCH
  5
27CA
330
27BD
100
AcDbEntity
  8
LAYOUT
100
AcDbHatch
 10
0.0
 20
0.0
 30
0.0
210
0.0
220
0.0
230
1.0
  2
SOLID
 70
     1
 71
     0
 91
        2
 92
        0
 93
        8
 72
     1
 10
179.2476147042134
 20
12.67297683073048
 11
180.0928472258311
 21
12.67297683073048
 72
     1
 10
180.092847225832
 20
12.67297683073048
 11
180.3659109517093
 21
13.52854482664679
 72
     1
 10
180.3659109517084
 20
13.52854482664679
 11
181.8751739725512
 21
13.52854482664679
 72
     1
 10
181.8751739725512
 20
13.52854482664679
 11
182.1969760548418
 21
12.67297683073048
 72
     1
 10
182.1969760548427
 20
12.67297683073048
 11
183.0358857649599
 21
12.67297683073048
 72
     1
 10
183.0358857649599
 20
12.67297683073048
 11
181.5796417819311
 21
16.54466012518515
 72
     1
 10
181.5796417819311
 20
16.54466012518515
 11
180.6759182942269
 21
16.54466012518515
 72
     1
 10
180.6759182942269
 20
16.54466012518515
 11
179.2476147042134
 21
12.67297683073048
 97
        0
 92
        0
 93
        3
 72
     1
 10
181.1597915395532
 20
15.60375056966495
 11
181.6436647848795
 21
14.17596615848925
 72
     1
 10
181.6436647848805
 20
14.17596615848925
 11
180.6759182942269
 21
14.17596615848925
 72
     1
 10
180.6759182942269
 20
14.17596615848925
 11
181.1597915395532
 21
15.60375056966495
 97
        0
 75
     0
 76
     1
 98
        1
 10
0.0188030870003786
 20
0.0014061040992601
  0
HATCH
  5
27CB
330
27BD
100
AcDbEntity
  8
LAYOUT
100
AcDbHatch
 10
0.0
 20
0.0
 30
0.0
210
0.0
220
0.0
230
1.0
  2
SOLID
 70
     1
 71
     0
 91
        1
 92
        0
 93
        9
 72
     1
 10
194.3952996129246
 20
16.5433837342116
 11
193.4747816437757
 21
14.98801732821084
 72
     1
 10
193.4747816437748
 20
14.98801732821084
 11
192.5279925996638
 21
16.5433837342116
 72
     1
 10
192.5279925996647
 20
16.5433837342116
 11
191.5867906455396
 21
16.5433837342116
 72
     1
 10
191.5867906455387
 20
16.5433837342116
 11
193.0075561496569
 21
14.20017596760408
 72
     1
 10
193.0075561496569
 20
14.20017596760408
 11
193.0075561496569
 21
12.67297683073048
 72
     1
 10
193.0075561496569
 20
12.67297683073048
 11
193.9350406283493
 21
12.67297683073048
 72
     1
 10
193.9350406283502
 20
12.67297683073048
 11
193.9350406283502
 21
14.20017596760408
 72
     1
 10
193.9350406283502
 20
14.20017596760408
 11
195.3218295202087
 21
16.5433837342116
 72
     1
 10
195.3218295202087
 20
16.5433837342116
 11
194.3952996129246
 21
16.5433837342116
 97
        0
 75
     0
 76
     1
 98
        1
 10
0.0188030870003786
 20
0.0014061040992601
  0
HATCH
  5
27CC
330
27BD
100
AcDbEntity
  8
LAYOUT
100
AcDbHatch
 10
0.0
 20
0.0
 30
0.0
210
0.0
220
0.0
230
1.0
  2
SOLID
 70
     1
 71
     0
 91
        3
 92
        0
 93
       10
 72
     1
 10
183.0358857649599
 20
12.67297683073048
 11
185.2092263660734
 21
12.67297683073048
 72
     2
 10
185.2092263660734
 20
13.68709682786357
 40
1.014119997132617
 50
270.0000000000007
 51
351.0052235615959
 73
     1
 72
     1
 10
186.2108753222928
 20
13.52854482664679
 11
186.2108753222928
 21
13.9538280850993
 72
     2
 10
185.3842824840749
 20
13.95382808510021
 40
0.8265928382174673
 50
0.0
 51
79.93505949432449
 73
     1
 72
     1
 10
185.5287413798915
 20
14.76769991015044
 11
185.5287413798915
 21
14.81137955109898
 72
     2
 10
185.3409459200548
 20
15.48452765599723
 40
0.6988529930269587
 50
285.5880866537503
 51
352.3471735812969
 73
     1
 72
     1
 10
186.0335743547375
 20
15.39146124244235
 11
186.0335743547375
 21
15.67818471211649
 72
     2
 10
185.1683753326415
 20
15.67818471211649
 40
0.8651990220958083
 50
0.0
 51
90.0
 73
     1
 72
     1
 10
185.1683753326415
 20
16.5433837342116
 11
183.0358857649599
 21
16.5433837342116
 72
     1
 10
183.0358857649599
 20
16.5433837342116
 11
183.0358857649599
 21
12.67297683073048
 97
        0
 92
        0
 93
        4
 72
     2
 10
184.8379206107229
 20
13.85233373331448
 40
0.5517768147976221
 50
270.0000000000007
 51
450.0000000000008
 73
     0
 72
     1
 10
184.8379206107229
 20
13.30055691851612
 11
183.8378236755916
 21
13.30055691851612
 72
     1
 10
183.8378236755916
 20
13.30055691851612
 11
183.8378236755916
 21
14.40411054811102
 72
     1
 10
183.8378236755916
 20
14.40411054811193
 11
184.8379206107229
 21
14.40411054811193
 97
        0
 92
        0
 93
        4
 72
     2
 10
184.7835150004894
 20
15.44639094638114
 40
0.458373618170271
 50
263.6832764160837
 51
450.0000000000008
 73
     0
 72
     1
 10
184.7835150004894
 20
14.98801732821084
 11
183.8378236755916
 21
14.98801732821084
 72
     1
 10
183.8378236755916
 20
14.98801732821084
 11
183.8378236755916
 21
15.90198172500186
 72
     1
 10
183.8378236755916
 20
15.90198172500186
 11
184.7330827065643
 21
15.90198172500186
 97
        0
 75
     0
 76
     1
 98
        1
 10
0.0188030870003786
 20
0.0014061040992601
  0
HATCH
  5
27CD
330
27BD
100
AcDbEntity
  8
LAYOUT
100
AcDbHatch
 10
0.0
 20
0.0
 30
0.0
210
0.0
220
0.0
230
1.0
  2
SOLID
 70
     1
 71
     0
 91
        1
 92
        0
 93
       16
 72
     1
 10
183.4454647409111
 20
23.70570830076304
 11
183.6429937440653
 21
24.41283803456099
 72
     2
 10
184.0357304984627
 20
24.30313129209117
 40
0.4077716611022109
 50
195.6071280636315
 51
270.0000000000007
 73
     0
 72
     1
 10
184.0357304984627
 20
24.71090295319391
 11
186.3530312466946
 21
24.71090295319391
 72
     1
 10
186.3530312466955
 20
24.71090295319391
 11
186.5105230526178
 21
25.43681138847751
 72
     1
 10
186.5105230526178
 20
25.43681138847751
 11
183.3200631620539
 21
25.43681138847751
 72
     2
 10
183.3200631620539
 20
24.93754406759672
 40
0.4992673208808899
 50
90.0
 51
166.8022057871365
 73
     1
 72
     1
 10
182.8339826427973
 20
25.05153348157364
 11
182.114413997997
 21
21.98310556092747
 72
     2
 10
182.7312653286863
 20
21.83844944139491
 40
0.6335857930000013
 50
166.8022057871468
 51
268.2259906923874
 73
     1
 72
     1
 10
182.7116511873928
 20
21.20516732215219
 11
185.4504970865373
 21
21.20516732215219
 72
     1
 10
185.4504970865382
 20
21.20516732215219
 11
185.656924916344
 21
21.90712586990958
 72
     1
 10
185.656924916344
 20
21.90712586990867
 11
183.45428793472
 21
21.90712586990867
 72
     2
 10
183.45428793472
 20
22.21877257647066
 40
0.3116467065608197
 50
90.0
 51
192.2410777502558
 73
     0
 72
     1
 10
183.1497267854575
 20
22.28484962293987
 11
183.3149945166324
 21
23.0465987148209
 72
     1
 10
183.3149945166324
 20
23.0465987148209
 11
185.9405652057758
 21
23.0465987148209
 72
     1
 10
185.9405652057758
 20
23.0465987148209
 11
186.1246803027061
 21
23.70570830076304
 72
     1
 10
186.1246803027061
 20
23.70570830076304
 11
183.4454647409111
 21
23.70570830076304
 97
        0
 75
     0
 76
     1
 98
        1
 10
0.0188030870003786
 20
0.0014061040992601
  0
HATCH
  5
27CE
330
27BD
100
AcDbEntity
  8
LAYOUT
100
AcDbHatch
 10
0.0
 20
0.0
 30
0.0
210
0.0
220
0.0
230
1.0
  2
SOLID
 70
     1
 71
     0
 91
        1
 92
        0
 93
       12
 72
     2
 10
180.8947112428605
 20
21.89960808014621
 40
0.6982300656115565
 50
207.1936721057637
 51
264.0280674355271
 73
     1
 72
     1
 10
180.8220665034769
 20
21.20516732215219
 11
181.3207962431834
 21
21.20516732215219
 72
     1
 10
181.3207962431834
 20
21.20516732215219
 11
182.2560970550139
 21
25.51959103981335
 72
     1
 10
182.2560970550139
 20
25.51959103981335
 11
181.3207962431834
 21
25.51959103981335
 72
     1
 10
181.3207962431834
 20
25.51959103981335
 11
180.6759182942269
 21
22.74074511431081
 72
     1
 10
180.6759182942269
 20
22.7407451143099
 11
179.3128716302326
 21
25.25242075356527
 72
     2
 10
178.7472367228538
 20
24.77752854030132
 40
0.7385563368248844
 50
40.01593694048333
 51
94.19377315961732
 73
     1
 72
     1
 10
178.693226238498
 20
25.51410734141064
 11
178.0361614000221
 21
25.51410734141064
 72
     1
 10
178.0361614000212
 20
25.51410734141064
 11
177.0155924401388
 21
21.20516732215128
 72
     1
 10
177.0155924401397
 20
21.20516732215219
 11
177.952683878425
 21
21.20516732215219
 72
     1
 10
177.9526838784241
 20
21.20516732215219
 11
178.7197662971521
 21
24.4438628557773
 72
     1
 10
178.7197662971521
 20
24.44386285577639
 11
180.2736587451654
 21
21.58051715324473
 97
        0
 75
     0
 76
     1
 98
        1
 10
0.0188030870003786
 20
0.0014061040992601
  0
HATCH
  5
27CF
330
27BD
100
AcDbEntity
  8
LAYOUT
100
AcDbHatch
 10
0.0
 20
0.0
 30
0.0
210
0.0
220
0.0
230
1.0
  2
SOLID
 70
     1
 71
     0
 91
        1
 92
        0
 93
       14
 72
     1
 10
187.2281477722845
 20
24.06266190508723
 11
189.5030058586062
 21
22.04554796519915
 72
     2
 10
189.4563710219354
 20
21.99295419089231
 40
0.0702916288558194
 50
311.5633658068828
 51
408.4366341931477
 73
     0
 72
     1
 10
189.5030058586071
 20
21.94036041658546
 11
186.365331001406
 21
21.94036041658546
 72
     1
 10
186.3653310014051
 20
21.94036041658546
 11
186.1453942597655
 21
21.19108739653802
 72
     1
 10
186.1453942597655
 20
21.19108739653802
 11
189.7509202908586
 21
21.19108739653802
 72
     2
 10
189.7509202908586
 20
21.95122252088004
 40
0.7601351243420318
 50
270.0000000000007
 51
360.0000000000008
 73
     1
 72
     1
 10
190.5110554152006
 20
21.95122252088004
 11
190.5110554152006
 21
22.20500167700084
 72
     2
 10
190.1440694359972
 20
22.20500167700084
 40
0.3669859792037138
 50
0.0000000000171947
 51
46.81757321183044
 73
     1
 72
     1
 10
190.3952065626063
 20
22.47259998149912
 11
188.1629181314547
 21
24.56757028937682
 72
     2
 10
188.219642122679
 20
24.62801234380822
 40
0.0828906093854735
 50
133.1824267881008
 51
270.0000000000007
 73
     0
 72
     1
 10
188.219642122679
 20
24.71090295319391
 11
190.8890355074282
 21
24.71090295319391
 72
     1
 10
190.8890355074282
 20
24.71090295319391
 11
191.1226074285933
 21
25.43681138847751
 72
     1
 10
191.1226074285933
 20
25.43681138847751
 11
187.7496355574121
 21
25.43681138847751
 72
     2
 10
187.7496355574121
 20
24.65078470839308
 40
0.7860266800845418
 50
90.0
 51
228.4366341933596
 73
     1
 97
        0
 75
     0
 76
     1
 98
        1
 10
0.0188030870003786
 20
0.0014061040992601
  0
HATCH
  5
27D0
330
27BD
100
AcDbEntity
  8
LAYOUT
100
AcDbHatch
 10
0.0
 20
0.0
 30
0.0
210
0.0
220
0.0
230
1.0
  2
SOLID
 70
     1
 71
     0
 91
        1
 92
        0
 93
       16
 72
     2
 10
192.8583218104359
 20
24.34999500845697
 40
0.3609079447365545
 50
203.7463083835042
 51
270.0000000000007
 73
     0
 72
     1
 10
192.8583218104359
 20
24.71090295319391
 11
195.1711342060307
 21
24.71090295319391
 72
     1
 10
195.1711342060307
 20
24.71090295319391
 11
195.3218295202078
 21
25.43681138847751
 72
     1
 10
195.3218295202087
 20
25.43681138847751
 11
192.2483292102361
 21
25.43681138847751
 72
     2
 10
192.2483292102361
 20
24.8264925574731
 40
0.6103188310040094
 50
90.0
 51
167.3223162817401
 73
     1
 72
     1
 10
191.652889892267
 20
24.96043692687635
 11
190.9765554488722
 21
21.95384455208023
 72
     2
 10
191.5867906455387
 20
21.81657184243795
 40
0.6254844459003837
 50
167.3223162817523
 51
270.0000000000007
 73
     1
 72
     1
 10
191.5867906455387
 20
21.19108739653802
 11
194.3075083502135
 21
21.19108739653802
 72
     1
 10
194.3075083502135
 20
21.19108739653802
 11
194.513810400319
 21
21.95122252088004
 72
     1
 10
194.513810400319
 20
21.95122252088004
 11
192.2951022458255
 21
21.95122252088004
 72
     2
 10
192.2951022458255
 20
22.28326116412518
 40
0.3320386432447198
 50
90.0
 51
195.2944284970691
 73
     0
 72
     1
 10
191.9748233909049
 20
22.37084606977987
 11
192.159934445438
 21
23.04775673304812
 72
     1
 10
192.159934445438
 20
23.04775673304721
 11
194.7864215138388
 21
23.04775673304721
 72
     1
 10
194.7864215138388
 20
23.04775673304721
 11
194.9666646051728
 21
23.7068663189757
 72
     1
 10
194.9666646051728
 20
23.7068663189757
 11
192.3123529044424
 21
23.7068663189757
 72
     1
 10
192.3123529044424
 20
23.7068663189757
 11
192.5279692610848
 21
24.49532820394506
 97
        0
 75
     0
 76
     1
 98
        1
 10
0.0188030870003786
 20
0.0014061040992601
  0
HATCH
  5
27D1
330
27BD
100
AcDbEntity
  8
LAYOUT
100
AcDbHatch
 10
0.0
 20
0.0
 30
0.0
210
0.0
220
0.0
230
1.0
  2
SOLID
 70
     1
 71
     0
 91
        1
 92
        0
 93
        3
 72
     1
 10
177.3434742266163
 20
25.51959103981335
 11
176.3959808210338
 21
25.51959103981335
 72
     2
 10
175.9080447269826
 20
24.3448969309311
 40
1.272001525675369
 50
292.5566739760716
 51
345.4251522208027
 73
     0
 72
     1
 10
177.1391129038439
 20
24.66498914458134
 11
177.3434742266163
 21
25.51959103981244
 97
        0
 75
     0
 76
     1
 98
        1
 10
0.0188030870003786
 20
0.0014061040992601
  0
HATCH
  5
27D2
330
27BD
100
AcDbEntity
  8
LAYOUT
100
AcDbHatch
 10
0.0
 20
0.0
 30
0.0
210
0.0
220
0.0
230
1.0
  2
SOLID
 70
     1
 71
     0
 91
        1
 92
        0
 93
        7
 72
     3
 10
190.2770808450587
 20
14.59638268825802
 11
0.0
 21
-2.074329288377157
 40
0.9311589483712057
 50
44.70424042237897
 51
52.28045398614182
 73
     0
 72
     1
 10
188.7097181472591
 20
13.38413281117391
 11
187.2281477722854
 21
13.38413281117391
 72
     1
 10
187.2281477722854
 20
13.38413281117391
 11
187.2281477722854
 21
16.5433837342116
 72
     1
 10
187.2281477722854
 20
16.5433837342116
 11
186.365331001406
 21
16.5433837342116
 72
     1
 10
186.3653310014051
 20
16.5433837342116
 11
186.3653310014051
 21
12.67297683073048
 72
     1
 10
186.3653310014051
 20
12.67297683073048
 11
188.8702917723858
 21
12.67297683073048
 72
     1
 10
188.8702917723858
 20
12.67297683073048
 11
188.8702917723858
 21
13.17499449589468
 97
        0
 75
     0
 76
     1
 98
        1
 10
0.0188030870003786
 20
0.0014061040992601
  0
HATCH
  5
27D3
330
27BD
100
AcDbEntity
  8
LAYOUT
100
AcDbHatch
 10
0.0
 20
0.0
 30
0.0
210
0.0
220
0.0
230
1.0
  2
SOLID
 70
     1
 71
     0
 91
        1
 92
        0
 93
        3
 72
     1
 10
188.8702917723858
 20
13.38413281117391
 11
188.7097181472582
 21
13.38413281117391
 72
     3
 10
190.2770808450587
 20
14.59638268825802
 11
0.0
 21
-2.074329288377157
 40
0.9311589483716443
 50
307.7195460138421
 51
315.2957595776301
 73
     1
 72
     1
 10
188.8702917723858
 20
13.17499449589468
 11
188.8702917723858
 21
13.38413281117482
 97
        0
 75
     0
 76
     1
 98
        1
 10
0.0188030870003786
 20
0.0014061040992601
  0
HATCH
  5
27D4
330
27BD
100
AcDbEntity
  8
LAYOUT
100
AcDbHatch
 10
0.0
 20
0.0
 30
0.0
210
0.0
220
0.0
230
1.0
  2
SOLID
 70
     1
 71
     0
 91
        1
 92
        0
 93
        3
 72
     1
 10
175.1501736936743
 20
13.72136292328469
 11
174.9558726532277
 21
13.20878234534393
 72
     2
 10
175.0698571200683
 20
13.46573045569039
 40
0.2810956956111486
 50
246.0775003099444
 51
248.2421866122009
 73
     1
 72
     2
 10
173.830643475645
 20
13.90127027666222
 40
1.331738207040926
 50
328.4607004015018
 51
352.2360525444682
 73
     1
 97
        0
 75
     0
 76
     1
 98
        1
 10
0.0188030870003786
 20
0.0014061040992601
  0
HATCH
  5
27D5
330
27BD
100
AcDbEntity
  8
LAYOUT
100
AcDbHatch
 10
0.0
 20
0.0
 30
0.0
210
0.0
220
0.0
230
1.0
  2
SOLID
 70
     1
 71
     0
 91
        1
 92
        0
 93
       26
 72
     1
 10
172.7181895757958
 20
13.95382808510021
 11
172.1057833753339
 21
13.95382808510021
 72
     2
 10
171.0450621866121
 20
13.8128469733465
 40
1.070049117599742
 50
352.4291545380157
 51
352.4322360011652
 73
     0
 72
     2
 10
170.8469533018933
 20
13.83078204776575
 40
1.264831423946627
 50
354.4198870536403
 51
384.7844794435853
 73
     0
 72
     2
 10
173.3037312006136
 20
14.10657423219891
 40
1.536783013470412
 50
211.633478359136
 51
269.7985515603569
 73
     1
 72
     1
 10
173.2983279771133
 20
12.56980071743965
 11
173.8038952989582
 21
12.56980071743965
 72
     2
 10
173.830643475645
 20
13.90127027666222
 40
1.331738207040926
 50
268.8491276386978
 51
326.2440801459376
 73
     1
 72
     1
 10
174.93786687594
 20
13.16128176733764
 11
174.9558726532277
 21
13.20878234534393
 72
     2
 10
175.0698571200683
 20
13.46573045569039
 40
0.2810956956111486
 50
113.9224996900565
 51
286.9717335693342
 73
     0
 72
     2
 10
173.830643475645
 20
13.90127027666222
 40
1.331738207040926
 50
352.8097526413649
 51
362.2593417500278
 73
     1
 72
     2
 10
174.1006176491401
 20
13.8128469733465
 40
1.070049117599464
 50
7.567763998838037
 51
74.79511182073757
 73
     1
 72
     1
 10
174.3812610447376
 20
14.84543808244234
 11
173.0867250339797
 21
15.1972743306751
 72
     2
 10
173.1796029762863
 20
15.53900671761585
 40
0.3541289827896589
 50
105.204888179325
 51
195.9801346085117
 73
     0
 72
     2
 10
173.2983279771133
 20
15.5050074155597
 40
0.4776262635763435
 50
195.9801346085197
 51
270.0000000000007
 73
     0
 72
     1
 10
173.2983279771133
 20
15.9826336791366
 11
173.7745427610726
 21
15.9826336791366
 72
     2
 10
173.6846953091053
 20
15.47484731699387
 40
0.515673883576584
 50
280.0340315360539
 51
371.1317214410727
 73
     0
 72
     1
 10
174.1906672655878
 20
15.37528862346699
 11
175.0349507273795
 21
15.37528862346699
 72
     2
 10
173.8730668520166
 20
15.46120842785604
 40
1.165056373148939
 50
355.7707493615579
 51
450.0000000000008
 73
     1
 72
     1
 10
173.8730668520166
 20
16.62626480100516
 11
173.140911858035
 21
16.62626480100516
 72
     2
 10
173.140911858035
 20
15.48980799394485
 40
1.136456807060184
 50
90.0
 51
192.7888499479176
 73
     1
 72
     2
 10
172.8869043453142
 20
15.43215088331272
 40
0.875987693871445
 50
192.7888499479167
 51
251.8134818904958
 73
     1
 72
     1
 10
172.6134986188636
 20
14.5999227003249
 11
173.9621391026731
 21
14.15686388696849
 72
     2
 10
173.7364809027749
 20
13.46997588314116
 40
0.7230053616561865
 50
288.1865181095286
 51
327.3783608240086
 73
     0
 72
     1
 10
174.3454313420498
 20
13.85974006247397
 11
174.3454313420498
 21
13.57946845659535
 72
     2
 10
173.8038952989582
 20
13.80331270156967
 40
0.5859757093723216
 50
22.4577836430545
 51
90.0
 73
     0
 72
     1
 10
173.8038952989582
 20
13.21733699219749
 11
173.3161047645781
 21
13.21733699219749
 72
     2
 10
173.360371225087
 20
13.86422660855987
 40
0.6484024177034085
 50
93.91463020234399
 51
187.9430110159454
 73
     0
 97
        0
 75
     0
 76
     1
 98
        1
 10
0.0188030870003786
 20
0.0014061040992601
  0
HATCH
  5
27D6
330
27BD
100
AcDbEntity
  8
LAYOUT
100
AcDbHatch
 10
0.0
 20
0.0
 30
0.0
210
0.0
220
0.0
230
1.0
  2
SOLID
 70
     1
 71
     0
 91
        1
 92
        0
 93
        3
 72
     2
 10
173.830643475645
 20
13.90127027666222
 40
1.331738207040926
 50
352.2360525444682
 51
352.8097526413649
 73
     1
 72
     2
 10
175.0698571200683
 20
13.46573045569039
 40
0.2810956956111486
 50
73.02826643066663
 51
246.0775003099444
 73
     1
 72
     1
 10
174.9558726532277
 20
13.20878234534484
 11
175.1501736936743
 21
13.7213629232856
 97
        0
 75
     0
 76
     1
 98
        1
 10
0.0188030870003786
 20
0.0014061040992601
  0
HATCH
  5
27D7
330
27BD
100
AcDbEntity
  8
LAYOUT
100
AcDbHatch
 10
0.0
 20
0.0
 30
0.0
210
0.0
220
0.0
230
1.0
  2
SOLID
 70
     1
 71
     0
 91
        1
 92
        0
 93
        3
 72
     2
 10
173.830643475645
 20
13.90127027666222
 40
1.331738207040926
 50
7.763947455532613
 51
31.53929959849913
 73
     0
 72
     2
 10
175.0698571200683
 20
13.46573045569039
 40
0.2810956956111486
 50
248.2421866122009
 51
432.4026323804619
 73
     1
 72
     1
 10
175.1548396846956
 20
13.73367215420058
 11
175.1501736936752
 21
13.72136292328469
 97
        0
 75
     0
 76
     1
 98
        1
 10
0.0188030870003786
 20
0.0014061040992601
  0
HATCH
  5
27D8
330
27BD
100
AcDbEntity
  8
LAYOUT
100
AcDbHatch
 10
0.0
 20
0.0
 30
0.0
210
0.0
220
0.0
230
1.0
  2
SOLID
 70
     1
 71
     0
 91
        2
 92
        0
 93
       11
 72
     2
 10
175.0698571200683
 20
13.46573045569039
 40
0.2810956956111486
 50
287.5973676195397
 51
471.7578133878006
 73
     0
 72
     2
 10
173.830643475645
 20
13.90127027666222
 40
1.331738207040926
 50
31.53929959849913
 51
33.75591985406313
 73
     0
 72
     1
 10
174.93786687594
 20
13.16128176733764
 11
174.7527678664937
 21
12.67297683073048
 72
     1
 10
174.7527678664937
 20
12.67297683073048
 11
175.5935778171115
 21
12.67297683073048
 72
     1
 10
175.5935778171115
 20
12.67297683073048
 11
175.9080447269826
 21
13.50256389848073
 72
     1
 10
175.9080447269826
 20
13.50256389848073
 11
177.3434742266163
 21
13.50256389848073
 72
     1
 10
177.3434742266163
 20
13.50256389848073
 11
177.6751285084074
 21
12.67297683073048
 72
     1
 10
177.6751285084074
 20
12.67297683073048
 11
178.5634231528657
 21
12.67297683073048
 72
     1
 10
178.5634231528666
 20
12.67297683073048
 11
177.0155924401397
 21
16.54466012518515
 72
     1
 10
177.0155924401397
 20
16.54466012518515
 11
176.2203851051645
 21
16.54466012518515
 72
     1
 10
176.2203851051645
 20
16.54466012518515
 11
175.1548396846956
 21
13.73367215420058
 97
        0
 92
        0
 93
        3
 72
     1
 10
176.6450437450831
 20
15.60375056966495
 11
177.1391129038429
 21
14.17596615848925
 72
     1
 10
177.1391129038439
 20
14.17596615848925
 11
176.0912985646009
 21
14.17596615848925
 72
     1
 10
176.0912985646009
 20
14.17596615848925
 11
176.6450437450831
 21
15.60375056966495
 97
        0
 75
     0
 76
     1
 98
        1
 10
0.0188030870003786
 20
0.0014061040992601
  0
CIRCLE
  5
27D9
330
27BD
100
AcDbEntity
  8
LAYOUT
100
AcDbCircle
 10
175.0698571201001
 20
13.46573045569949
 30
0.0
 40
0.281095695611166
  0
ELLIPSE
  5
27DA
330
27BD
100
AcDbEntity
  8
LAYOUT
100
AcDbEllipse
 10
190.2770808450996
 20
14.59638268829895
 30
0.0
 11
0.0
 21
-2.074329288377141
 31
0.0
210
0.0
220
0.0
230
1.0
 40
0.9311589484
 41
0.0
 42
6.283185307179586
  0
ELLIPSE
  5
27DB
330
27BD
100
AcDbEntity
  8
LAYOUT
100
AcDbEllipse
 10
190.2770808450996
 20
14.59638268829895
 30
0.0
 11
0.02653369580983167
 21
-1.359239788981782
 31
0.0
210
0.0
220
0.0
230
1.0
 40
0.7975705451
 41
0.0
 42
6.283185307179586
  0
HATCH
  5
27DC
330
27BD
100
AcDbEntity
  8
LAYOUT
100
AcDbHatch
 10
0.0
 20
0.0
 30
0.0
210
0.0
220
0.0
230
1.0
  2
SOLID
 70
     1
 71
     0
 91
        1
 92
        7
 72
     1
 73
     1
 93
       11
 10
196.2764163820002
 20
18.89441132159936
 42
0.4109258272662993
 10
196.1177982853997
 20
19.05127051390809
 42
0.0
 10
164.8227117762999
 20
19.051270513899
 42
0.0
 10
164.8227117762999
 20
20.03576141709891
 42
0.0
 10
164.5697627931995
 20
20.03576141709891
 42
0.0
 10
164.569762793195
 20
18.96562983729928
 42
0.4115429654270726
 10
164.7379050996178
 20
18.79594591939713
 42
0.0
 10
196.0327104167
 20
18.79594591939895
 42
0.0
 10
196.0327104167
 20
17.82714726659924
 42
0.0
 10
196.2764163820002
 20
17.82714726659924
 42
0.0
 10
196.2764163820102
 20
18.89265241729936
 42
0.0
 97
        0
 75
     0
 76
     1
 47
0.0
 98
        1
 10
184.7339037955053
 20
18.93707027999335
1001
ACAD
1010
0.0
1020
0.0
1030
0.0
  0
HATCH
  5
27DD
330
27BD
100
AcDbEntity
  8
LAYOUT
100
AcDbHatch
 10
0.0
 20
0.0
 30
0.0
210
0.0
220
0.0
230
1.0
  2
SOLID
 70
     1
 71
     0
 91
        2
 92
        5
 93
        3
 72
     3
 10
190.2770808450996
 20
14.59638268829895
 11
0.0
 21
-2.074329288377157
 40
0.9311589484001437
 50
315.295728101389
 51
667.7195535242416
 73
     1
 72
     1
 10
188.709718646418
 20
13.38413281119938
 11
188.8702917723995
 21
13.38413281119938
 72
     1
 10
188.8702917723995
 20
13.38413281119938
 11
188.8702917723995
 21
13.17499595128538
 97
        0
 92
       20
 93
        1
 72
     3
 10
190.2770808450996
 20
14.59638268829895
 11
0.02653369581003062
 21
-1.359239788981995
 40
0.7975705450996485
 50
0.0
 51
360.0
 73
     1
 97
        0
 75
     0
 76
     1
 47
0.0
 98
        2
 10
191.073624203862
 20
16.27645075570854
 10
191.073624203862
 20
16.27645075570854
1001
ACAD
1010
0.0
1020
0.0
1030
0.0
  0
HATCH
  5
27DE
330
27BD
100
AcDbEntity
  8
LAYOUT
100
AcDbHatch
 10
0.0
 20
0.0
 30
0.0
210
0.0
220
0.0
230
1.0
  2
SOLID
 70
     1
 71
     0
 91
        1
 92
        0
 93
       12
 72
     1
 10
166.2907953938002
 20
25.44991625357306
 11
165.5188255047533
 21
21.90712586990958
 72
     2
 10
166.0789759860536
 20
21.7850697339054
 40
0.5732942194352403
 50
167.7074622073168
 51
271.0168977182062
 73
     1
 72
     2
 10
167.3529237238299
 20
-49.9863219286799
 40
71.20940288803499
 50
268.9831022817926
 51
271.2851977310887
 73
     0
 72
     2
 10
168.9679096818281
 20
21.99976828208855
 40
0.7948009022819319
 50
268.7148022688892
 51
351.0868508344587
 73
     1
 72
     1
 10
169.753112834117
 20
21.87662412305872
 11
170.5285162905866
 21
25.43517212864299
 72
     1
 10
170.5285162905866
 20
25.4351721286439
 11
169.5786916985771
 21
25.4351721286439
 72
     1
 10
169.5786916985771
 20
25.4351721286439
 11
168.90795030964
 21
22.46775340018758
 72
     2
 10
168.1783994537791
 20
22.63265764833704
 40
0.7479557890313745
 50
12.73683110763711
 51
61.02938093758575
 73
     0
 72
     1
 10
168.540680110119
 20
21.97829491377252
 11
166.7837853325364
 21
21.97829491377252
 72
     2
 10
167.053833068514
 20
22.37355446623224
 40
0.4787023015586591
 50
124.3415228132398
 51
193.346307780738
 73
     0
 72
     1
 10
166.5880592602934
 20
22.48405629016543
 11
167.2916903569794
 21
25.44991625357306
 72
     1
 10
167.2916903569785
 20
25.44991625357306
 11
166.2907953937993
 21
25.44991625357306
 97
        0
 75
     0
 76
     1
 98
        1
 10
0.0188030870003786
 20
0.0014061040992601
  0
HATCH
  5
27DF
330
27BD
100
AcDbEntity
  8
LAYOUT
100
AcDbHatch
 10
0.0
 20
0.0
 30
0.0
210
0.0
220
0.0
230
1.0
  2
SOLID
 70
     1
 71
     0
 91
        2
 92
        0
 93
       10
 72
     1
 10
168.3947503582176
 20
12.67297683073048
 11
169.2768486351415
 21
12.67297683073048
 72
     1
 10
169.2768486351415
 20
12.67297683073048
 11
169.1319420157624
 21
13.07061640889333
 72
     1
 10
169.1319420157624
 20
13.07061640889333
 11
168.8100846725201
 21
13.95382808510021
 72
     1
 10
168.8100846725192
 20
13.95382808510021
 11
167.865941451053
 21
16.54466012518515
 72
     1
 10
167.8659414510539
 20
16.54466012518515
 11
166.9472985442017
 21
16.54466012518515
 72
     1
 10
166.9472985442007
 20
16.54466012518515
 11
165.5188255047524
 21
12.67297683073048
 72
     1
 10
165.5188255047524
 20
12.67297683073048
 11
166.2907953937993
 21
12.67297683073048
 72
     1
 10
166.2907953938002
 20
12.67297683073048
 11
166.5880592602934
 21
13.54061448016455
 72
     1
 10
166.5880592602934
 20
13.54061448016455
 11
168.1783994537791
 21
13.54061448016455
 72
     1
 10
168.1783994537791
 20
13.54061448016455
 11
168.3947503582167
 21
12.67297683073048
 97
        0
 92
        0
 93
        3
 72
     1
 10
166.8806015529308
 20
14.17596615848925
 11
167.4053832404816
 21
15.60375056966495
 72
     1
 10
167.4053832404825
 20
15.60375056966495
 11
167.897070587378
 21
14.17596615848925
 72
     1
 10
167.8970705873771
 20
14.17596615848925
 11
166.8806015529308
 21
14.17596615848925
 97
        0
 75
     0
 76
     1
 98
        1
 10
0.0188030870003786
 20
0.0014061040992601
  0
HATCH
  5
27E0
330
27BD
100
AcDbEntity
  8
LAYOUT
100
AcDbHatch
 10
0.0
 20
0.0
 30
0.0
210
0.0
220
0.0
230
1.0
  2
SOLID
 70
     1
 71
     0
 91
        1
 92
        0
 93
       25
 72
     2
 10
170.3048157625581
 20
13.86422660855987
 40
0.6484024177036284
 50
93.91463020234652
 51
187.9430110159402
 73
     0
 72
     1
 10
169.6626341132678
 20
13.95382808510021
 11
168.8100846725192
 21
13.95382808510021
 72
     1
 10
168.8100846725192
 20
13.95382808510021
 11
169.1319420157615
 21
13.07061640889333
 72
     2
 10
170.2672291744175
 20
14.10638911459773
 40
1.536783013470256
 50
222.3755813376623
 51
269.088145475632
 73
     1
 72
     1
 10
170.2427725145853
 20
12.56980071743965
 11
170.7483398364302
 21
12.56980071743965
 72
     2
 10
170.8469533018933
 20
13.83078204776575
 40
1.264831423946627
 50
265.5283564423802
 51
335.2155205564163
 73
     1
 72
     2
 10
170.8469533018933
 20
13.83078204776575
 40
1.264831423946627
 50
335.2155205564163
 51
365.5801129463612
 73
     1
 72
     2
 10
171.0450621866121
 20
13.8128469733465
 40
1.070049117599742
 50
7.567763998835667
 51
7.570845461985081
 73
     1
 72
     2
 10
171.0450621866121
 20
13.8128469733465
 40
1.070049117599742
 50
7.570845461985081
 51
74.79511182071398
 73
     1
 72
     1
 10
171.3257055822096
 20
14.84543808244234
 11
170.0311695714518
 21
15.1972743306751
 72
     2
 10
170.1240475137574
 20
15.53900671761585
 40
0.3541289827893871
 50
105.2048881792625
 51
195.9801346085318
 73
     0
 72
     2
 10
170.2427725145853
 20
15.5050074155597
 40
0.4776262635763435
 50
195.9801346085205
 51
270.0000000000007
 73
     0
 72
     1
 10
170.2427725145853
 20
15.9826336791366
 11
170.7189872985446
 21
15.9826336791366
 72
     2
 10
170.6291398465773
 20
15.47484731699387
 40
0.5156738835765453
 50
280.0340315360072
 51
371.1317214410727
 73
     0
 72
     1
 10
171.1351118030598
 20
15.37528862346699
 11
171.9793952648515
 21
15.37528862346699
 72
     1
 10
171.9793952648515
 20
15.37528862346699
 11
171.9793952648515
 21
15.46438092564222
 72
     2
 10
170.8175113894877
 20
15.46438092564222
 40
1.161883875363257
 50
0.0
 51
90.0
 73
     1
 72
     1
 10
170.8175113894877
 20
16.62626480100516
 11
170.085356395507
 21
16.62626480100516
 72
     2
 10
170.085356395507
 20
15.48980799394485
 40
1.1364568070604
 50
90.0
 51
192.7888499479132
 73
     1
 72
     2
 10
169.8313488827853
 20
15.43215088331272
 40
0.8759876938716616
 50
192.7888499479107
 51
251.8134818904939
 73
     1
 72
     1
 10
169.5579431563356
 20
14.5999227003249
 11
170.9065836401442
 21
14.15686388696849
 72
     2
 10
170.6809254402469
 20
13.46997588314116
 40
0.7230053616559301
 50
288.1865181094966
 51
327.3783608239891
 73
     0
 72
     1
 10
171.2898758795209
 20
13.85974006247397
 11
171.2898758795209
 21
13.57946845659535
 72
     2
 10
170.7483398364302
 20
13.80331270156967
 40
0.5859757093721164
 50
22.4577836430715
 51
90.0
 73
     0
 72
     1
 10
170.7483398364302
 20
13.21733699219749
 11
170.2605493020492
 21
13.21733699219749
 97
        0
 75
     0
 76
     1
 98
        1
 10
0.0188030870003786
 20
0.0014061040992601
  0
LWPOLYLINE
  5
27E1
330
27BD
100
AcDbEntity
  8
LAYOUT
100
AcDbPolyline
 90
       22
 70
     0
 43
0.0
 10
172.1057833753002
 20
13.9538280850993
 10
172.7181895758004
 20
13.9538280850993
 42
0.4349596299550234
 10
173.3161047645917
 20
13.21733699223614
 10
173.803895299
 20
13.21733699219931
 42
0.3035478487272821
 10
174.3454313419998
 20
13.57946845659899
 10
174.3454313419998
 20
13.85974006249944
 42
0.1726933381909528
 10
173.9621391026976
 20
14.15686388692711
 10
172.6134986188999
 20
14.59992270029943
 42
-0.2633929586259035
 10
172.03264775967
 20
15.23824336482176
 42
-0.4812075807346065
 10
173.1409118580004
 20
16.6262648009988
 10
173.8730668520002
 20
16.6262648009988
 42
-0.4360023050210734
 10
175.0349507273631
 20
15.37528862351064
 10
174.1906672655996
 20
15.37528862349882
 42
0.419836096989208
 10
173.7745427610998
 20
15.98263367909931
 10
173.2983279770997
 20
15.98263367909931
 42
0.3346917054964769
 10
172.8391585267518
 20
15.63649986224755
 42
0.4181821598473712
 10
173.0867250339934
 20
15.19727433065827
 10
174.3812610447003
 20
14.84543808239869
 42
-0.3020480096548743
 10
175.1613464184848
 20
13.95377103756709
 42
-0.4317558252612729
 10
173.803895299
 20
12.56980071739872
 10
173.2983279770997
 20
12.56980071739872
 42
-0.259386169078722
 10
171.9952824547427
 20
13.30055691851703
 42
-0.259386169078722
  0
LWPOLYLINE
  5
27E2
330
27BD
100
AcDbEntity
  8
LAYOUT
100
AcDbPolyline
 90
        9
 70
     1
 43
0.0
 10
194.3952996129001
 20
16.54338373419887
 10
195.3218295201996
 20
16.54338373419887
 10
193.9350406283002
 20
14.20017596759862
 10
193.9350406283002
 20
12.67297683069864
 10
193.0075561496997
 20
12.67297683069864
 10
193.0075561496997
 20
14.20017596759862
 10
191.5867906454996
 20
16.54338373419887
 10
192.5279925997002
 20
16.54338373419887
 10
193.4747816438003
 20
14.98801732819902
  0
LWPOLYLINE
  5
27E3
330
27BD
100
AcDbEntity
  8
LAYOUT
100
AcDbPolyline
 90
        7
 70
     0
 43
0.0
 10
186.3653310013997
 20
12.62860457459919
 10
186.3653310013997
 20
16.54338373419887
 10
187.2281477723
 20
16.54338373419887
 10
187.2281477723
 20
13.38413281119938
 10
188.8702917723995
 20
13.38413281119938
 10
188.8702917723995
 20
12.67297683069864
 10
186.3649380325996
 20
12.67297683069864
  0
LWPOLYLINE
  5
27E4
330
27BD
100
AcDbEntity
  8
LAYOUT
100
AcDbPolyline
 90
        4
 70
     1
 43
0.0
 10
183.8378236755998
 20
14.4041105480992
 10
183.8378236755998
 20
13.30055691849884
 10
184.8379206107002
 20
13.30055691849884
 42
0.9999999999999999
 10
184.8379206107002
 20
14.40411054809647
  0
LWPOLYLINE
  5
27E5
330
27BD
100
AcDbEntity
  8
LAYOUT
100
AcDbPolyline
 90
        4
 70
     1
 43
0.0
 10
184.7330827065998
 20
15.90198172499913
 10
183.8378236755998
 20
15.90198172499913
 10
183.8378236755998
 20
14.98801732819902
 10
184.7835150005003
 20
14.98801732819902
 42
1.056700957217066
  0
LWPOLYLINE
  5
27E6
330
27BD
100
AcDbEntity
  8
LAYOUT
100
AcDbPolyline
 90
       10
 70
     1
 43
0.0
 10
185.5287413798997
 20
14.76769991019864
 10
185.5287413798997
 20
14.81137955109898
 42
0.2998198032139969
 10
186.033574354783
 20
15.39146124244417
 10
186.0335743547002
 20
15.67818471209921
 42
0.414213562373095
 10
185.1683753325997
 20
16.54338373419887
 10
183.0358857649999
 20
16.54338373419887
 10
183.0358857649999
 20
12.67297683069864
 10
185.2092263660998
 20
12.67297683069864
 42
0.3689453714538178
 10
186.2108753223192
 20
13.52854482668317
 10
186.2108753223001
 20
13.9538280850993
 42
0.3636493734877073
  0
LWPOLYLINE
  5
27E7
330
27BD
100
AcDbEntity
  8
LAYOUT
100
AcDbPolyline
 90
        3
 70
     1
 43
0.0
 10
181.6436647848996
 20
14.17596615849925
 10
180.6759182941996
 20
14.17596615849925
 10
181.1597915395996
 20
15.60375056969951
  0
LWPOLYLINE
  5
27E8
330
27BD
100
AcDbEntity
  8
LAYOUT
100
AcDbPolyline
 90
        8
 70
     1
 43
0.0
 10
179.2476147041998
 20
12.67297683069864
 10
180.6759182941996
 20
16.54466012519879
 10
181.5796417819001
 20
16.54466012519879
 10
183.0358857649999
 20
12.67297683069864
 10
182.1969760548
 20
12.67297683069864
 10
181.8751739726004
 20
13.5285448265995
 10
180.3659109517002
 20
13.5285448265995
 10
180.0928472258001
 20
12.67297683069864
  0
LWPOLYLINE
  5
27E9
330
27BD
100
AcDbEntity
  8
LAYOUT
100
AcDbPolyline
 90
        3
 70
     1
 43
0.0
 10
176.0912985646
 20
14.17596615849925
 10
176.6450437451003
 20
15.60375056969951
 10
177.1391129038002
 20
14.17596615849925
  0
LWPOLYLINE
  5
27EA
330
27BD
100
AcDbEntity
  8
LAYOUT
100
AcDbPolyline
 90
        8
 70
     1
 43
0.0
 10
176.2203851052
 20
16.54466012519879
 10
177.0155924400997
 20
16.54466012519879
 10
178.5634231529002
 20
12.67297683069864
 10
177.6751285084001
 20
12.67297683069864
 10
177.3434742265999
 20
13.50256389849892
 10
175.9080447269998
 20
13.50256389849892
 10
175.5935778170997
 20
12.67297683069864
 10
174.7527678665001
 20
12.67297683069864
  0
LWPOLYLINE
  5
27EB
330
27BD
100
AcDbEntity
  8
LAYOUT
100
AcDbPolyline
 90
       16
 70
     1
 43
0.0
 10
183.4454647409002
 20
23.70570830079942
 10
186.1246803026997
 20
23.70570830079942
 10
185.9405652058003
 20
23.04659871479907
 10
183.3149945165997
 20
23.04659871479907
 10
183.1497267855002
 20
22.28484962289895
 42
0.4782673946958509
 10
183.4542879347
 20
21.90712586993777
 10
185.6569249163003
 20
21.90712586989866
 10
185.4504970865
 20
21.20516732219949
 10
182.7116511874074
 20
21.20516732215629
 42
-0.4738930125601813
 10
182.1144139979997
 20
21.98310556089928
 10
182.8339826428
 20
25.05153348159911
 42
-0.3482476357783106
 10
183.3200631621003
 20
25.43681138849934
 10
186.5105230525996
 20
25.43681138849934
 10
186.3530312467001
 20
24.71090295319937
 10
184.0357304985
 20
24.71090295319937
 42
0.3365025571567784
 10
183.6429937441026
 20
24.41283803456827
  0
LWPOLYLINE
  5
27EC
330
27BD
100
AcDbEntity
  8
LAYOUT
100
AcDbPolyline
 90
        4
 70
     1
 43
0.0
 10
175.3573004870004
 20
21.20516732219949
 10
176.0912985646
 20
24.29658452189869
 10
177.0155924400997
 20
24.29658452189869
 10
176.3359645905002
 20
21.20516732219949
  0
LWPOLYLINE
  5
27ED
330
27BD
100
AcDbEntity
  8
LAYOUT
100
AcDbPolyline
 90
        3
 70
     0
 43
0.0
 10
196.276416382053
 20
18.89265241729936
 42
0.414213562373095
 10
196.1177982853997
 20
19.051270513899
 10
164.8227117762999
 20
19.051270513899
  0
LWPOLYLINE
  5
27EE
330
27BD
100
AcDbEntity
  8
LAYOUT
100
AcDbPolyline
 90
        9
 70
     0
 43
0.0
 10
164.8227117762999
 20
19.04987892019926
 10
164.8227117762999
 20
20.03576141709891
 10
164.5697627931995
 20
20.03576141709891
 10
164.5697627931995
 20
18.96562983729928
 42
0.411542966222985
 10
164.7379051000999
 20
18.79594591939895
 10
196.0327104167
 20
18.79594591939895
 10
196.0327104167
 20
17.82714726659924
 10
196.2764163820002
 20
17.82714726659924
 10
196.2764163820002
 20
18.89441132159936
  0
LWPOLYLINE
  5
27EF
330
27BD
100
AcDbEntity
  8
LAYOUT
100
AcDbPolyline
 90
       16
 70
     1
 43
0.0
 10
192.8583218104004
 20
24.71090295323575
 42
0.2974179543609481
 10
192.5279692610484
 20
24.49532820398781
 10
192.3123529043996
 20
23.70686631899935
 10
194.9666646052001
 20
23.70686631899935
 10
194.7864215137997
 20
23.04775673299901
 10
192.1599344453998
 20
23.04775673299901
 10
191.9748233908795
 20
22.37084606975441
 42
0.4947435521044363
 10
192.2951022458001
 20
21.95122252085366
 10
194.5138104002999
 20
21.95122252089914
 10
194.3075083501999
 20
21.19108739649892
 10
191.5867906454996
 20
21.19108739649892
 42
-0.4806103464045925
 10
190.9765554488331
 20
21.95384455204021
 10
191.6528898922998
 20
24.96043692689909
 42
-0.3507942888931328
 10
192.2483292101997
 20
25.43681138849934
 10
195.3218295201996
 20
25.43681138849934
 10
195.1711342059998
 20
24.71090295319937
  0
LWPOLYLINE
  5
27F0
330
27BD
100
AcDbEntity
  8
LAYOUT
100
AcDbPolyline
 90
       14
 70
     1
 43
0.0
 10
189.5030058585999
 20
22.04554796519915
 10
187.2281477723
 20
24.06266190509905
 42
-0.6900897355293327
 10
187.7496355574003
 20
25.43681138849934
 10
191.1226074285996
 20
25.43681138849934
 10
190.8890355074
 20
24.71090295319937
 10
188.2196421227
 20
24.71090295318481
 42
0.679711395620131
 10
188.1629181314756
 20
24.56757028936772
 10
190.3952065625999
 20
22.47259998149912
 42
-0.2071700117172078
 10
190.5110554152034
 20
22.20500167699902
 10
190.5110554151997
 20
21.95122252089914
 42
-0.414213562373095
 10
189.7509202908996
 20
21.19108739649892
 10
186.1453942598
 20
21.19108739649892
 10
186.3653310013997
 20
21.94036041659911
 10
189.5030058585717
 20
21.94036041659228
 42
0.4498021390563035
  0
LWPOLYLINE
  5
27F1
330
27BD
100
AcDbEntity
  8
LAYOUT
100
AcDbPolyline
 90
       12
 70
     1
 43
0.0
 10
180.2736587452055
 20
21.58051715319743
 42
0.2531985942570196
 10
180.8220665035169
 20
21.20516732210444
 10
181.3207962431998
 20
21.20516732219949
 10
182.2560970550003
 20
25.5195910397988
 10
181.3207962431998
 20
25.5195910397988
 10
180.6759182941996
 20
22.74074511429899
 10
179.3128716302799
 20
25.25242075356255
 42
0.2408995935034076
 10
178.6932262384998
 20
25.51410734139881
 10
178.0361614000003
 20
25.51410734139881
 10
177.0155924400997
 20
21.20516732219949
 10
177.9526838783995
 20
21.20516732219949
 10
178.7197662972003
 20
24.44386285579913
  0
LWPOLYLINE
  5
27F2
330
27BD
100
AcDbEntity
  8
LAYOUT
100
AcDbPolyline
 90
        3
 70
     1
 43
0.0
 10
177.1391129038611
 20
24.66498914454951
 42
0.2348631347031157
 10
176.395980821052
 20
25.51959103978106
 10
177.3434742265999
 20
25.5195910397988
  0
LWPOLYLINE
  5
27F3
330
27BD
100
AcDbEntity
  8
LAYOUT
100
AcDbPolyline
 90
       10
 70
     1
 43
0.0
 10
170.1930265375004
 20
21.20516732219949
 10
171.1391010576999
 20
25.43517212869938
 10
173.2063553708003
 20
25.43517212869938
 42
-0.8896343214557727
 10
173.6577788918003
 20
21.20516732219949
 10
171.9965438713998
 20
21.20516732219949
 10
172.1830561817997
 20
21.98638148149894
 10
173.0872281002003
 20
21.98638148148029
 42
0.9999999999999999
 10
173.0872281002003
 20
24.59643309511875
 10
171.8975848621003
 20
24.5964330950992
 10
171.1391010575999
 20
21.20516732219949
  0
LWPOLYLINE
  5
27F4
330
27BD
100
AcDbEntity
  8
LAYOUT
100
AcDbPolyline
 90
        3
 70
     1
 43
0.0
 10
167.4053832404998
 20
15.60375056969951
 10
166.8806015528999
 20
14.17596615849925
 10
167.8970705873999
 20
14.17596615849925
  0
LWPOLYLINE
  5
27F5
330
27BD
100
AcDbEntity
  8
LAYOUT
100
AcDbPolyline
 90
        8
 70
     1
 43
0.0
 10
165.5188255047997
 20
12.67297683069864
 10
166.9472985441998
 20
16.54466012519879
 10
167.8659414511003
 20
16.54466012519879
 10
169.2768486350997
 20
12.67297683069864
 10
168.3947503582003
 20
12.67297683069864
 10
168.1783994538
 20
13.54061448019911
 10
166.5880592602998
 20
13.54061448019911
 10
166.2907953938002
 20
12.67297683069864
  0
LWPOLYLINE
  5
27F6
330
27BD
100
AcDbEntity
  8
LAYOUT
100
AcDbPolyline
 90
       12
 70
     1
 43
0.0
 10
168.9500830518391
 20
21.20516732216265
 42
0.3757361031771025
 10
169.7531128340997
 20
21.87662412309874
 10
170.5285162906002
 20
25.43517212859933
 10
169.5786916985999
 20
25.43517212859933
 10
168.9079503096
 20
22.4677534001994
 42
-0.2138910860917839
 10
168.5406801100999
 20
21.97829491379889
 10
166.7837853325227
 20
21.97829491373932
 42
-0.3105311449654351
 10
166.5880592602998
 20
22.48405629019908
 10
167.2916903570003
 20
25.44991625359944
 10
166.2907953938002
 20
25.44991625359944
 10
165.5188255047997
 20
21.90712586989866
 42
0.4840081159988556
 10
166.0891504000374
 20
21.21186580566837
 42
-0.0100451241670552
  0
LWPOLYLINE
  5
27F7
330
27BD
100
AcDbEntity
  8
LAYOUT
100
AcDbPolyline
 90
       23
 70
     1
 43
0.0
 10
170.0853563954997
 20
16.62626480095969
 42
0.4812075807346065
 10
168.9770922971693
 20
15.23824336482176
 42
0.2633929586260083
 10
169.5579431563492
 20
14.59992270031125
 10
170.9065836400996
 20
14.15686388699942
 42
-0.1726933381719062
 10
171.2898758795
 20
13.85974006249944
 10
171.2898758795
 20
13.57946845659899
 42
-0.3035478487272821
 10
170.7483398364002
 20
13.21733699222659
 10
170.2605493020001
 20
13.21733699219931
 42
-0.4349596299550234
 10
169.6626341133087
 20
13.95382808513841
 10
168.8100846725001
 20
13.9538280850993
 10
169.1319420157997
 20
13.07061640889879
 42
0.2066922033349036
 10
170.2427725145999
 20
12.56980071739872
 10
170.7483398364002
 20
12.56980071739872
 42
0.4665826226572455
 10
172.1057909559895
 20
13.95377103748342
 42
0.3020480096549047
 10
171.3257055821978
 20
14.84543808239505
 10
170.0311695715
 20
15.19727433069875
 42
-0.4181821598474801
 10
169.7836030642802
 20
15.63649986219116
 42
-0.3346917054964769
 10
170.2427725145999
 20
15.98263367909931
 10
170.7189872985
 20
15.98263367909931
 42
-0.4198360969897656
 10
171.1351118030998
 20
15.37528862349882
 10
171.9793952648997
 20
15.37528862349882
 10
171.9793952648997
 20
15.46438092559947
 42
0.414213562373095
 10
170.8175113895004
 20
16.6262648009988
  0
TEXT
  5
27F8
330
27BD
100
AcDbEntity
  8
TEXTO
100
AcDbText
 10
125.518
 20
263.4999999999986
 30
0.0
 40
3.0
  1
APLICAÇÃO
 72
     1
 11
137.5
 21
264.9999999999986
 31
0.0
100
AcDbText
 73
     2
  0
TEXT
  5
27F9
330
27BD
100
AcDbEntity
  8
TEXTO
100
AcDbText
 10
21.338
 20
215.9899464039663
 30
0.0
 40
3.0
  1
CARACTERÍSTICAS
 72
     1
 11
41.0
 21
217.4899464039663
 31
0.0
100
AcDbText
 73
     2
  0
MTEXT
  5
27FA
330
27BD
100
AcDbEntity
  8
TEXTO
100
AcDbMText
 10
43.5893601476937
 20
252.8725839718154
 30
0.0
 40
3.0
 41
0.0
 71
     2
 72
     1
  1
DO PRODUTO
 73
     1
 44
1.0
  0
MTEXT
  5
27FB
330
27BD
100
AcDbEntity
  8
TEXTO
100
AcDbMText
 10
43.18880965707604
 20
258.1059174179009
 30
0.0
 40
3.0
 41
0.0
 71
     2
 72
     1
  1
IMAGEM RENDER
 73
     1
 44
1.0
  0
MTEXT
  5
27FC
330
27BD
100
AcDbEntity
  8
TEXTO
100
AcDbMText
 10
43.48646776972123
 20
242.4059170796445
 30
0.0
 40
3.0
 41
0.0
 71
     2
 72
     1
  1
BY: SOLIDWORKS
 73
     1
 44
1.0
  0
TEXT
  5
27FD
330
27BD
100
AcDbEntity
  8
LAYOUT
100
AcDbText
 10
202.6632145343
 20
49.0677071835982
 30
0.0
 40
2.0
  1
Reservamos o direito de alterações sem aviso prévio. Todas as medidas em mm.
 50
90.0000000000002
100
AcDbText
  0
LWPOLYLINE
  5
27FE
330
27BD
100
AcDbEntity
  8
Defpoints
100
AcDbPolyline
 90
        4
 70
     1
 43
0.0
 10
0.0
 20
-0.0000000000014211
 10
0.0
 20
296.9999999999986
 10
210.0
 20
296.9999999999986
 10
210.0
 20
-0.0000000000014211
  0
ARC
  5
27FF
330
27BD
100
AcDbEntity
  8
LAYOUT
100
AcDbCircle
 10
60.38328887697935
 20
17.89645624862624
 30
0.0
 40
0.0763923686072374
100
AcDbArc
 50
359.9998986948667
 51
89.99989869486669
1001
PE_URL
1000

  0
LINE
  5
2800
330
27BD
100
AcDbEntity
  8
LAYOUT
100
AcDbLine
 10
60.38322053223874
 20
17.97284043701438
 30
0.0
 11
60.12544553223961
 21
17.97284089278946
 31
0.0
1001
PE_URL
1000

  0
LINE
  5
2801
330
27BD
100
AcDbEntity
  8
LAYOUT
100
AcDbLine
 10
67.97152520562213
 20
14.87691355756306
 30
0.0
 11
72.41728475424316
 21
14.87785432056717
 31
0.0
1001
PE_URL
1000

  0
LINE
  5
2802
330
27BD
100
AcDbEntity
  8
LAYOUT
100
AcDbLine
 10
59.06709702053377
 20
17.40064526406422
 30
0.0
 11
59.06715416613861
 21
17.40065222839985
 31
0.0
1001
PE_URL
1000

  0
LINE
  5
2803
330
27BD
100
AcDbEntity
  8
LAYOUT
100
AcDbLine
 10
64.87457248824558
 20
17.97283669429908
 30
0.0
 11
64.87455325542851
 21
18.47567125359546
 31
0.0
1001
PE_URL
1000

  0
LINE
  5
2804
330
27BD
100
AcDbEntity
  8
LAYOUT
100
AcDbLine
 10
72.93375359231504
 20
26.86049537082818
 30
0.0
 11
67.97154017584853
 21
26.8595642660157
 31
0.0
1001
PE_URL
1000

  0
LINE
  5
2805
330
27BD
100
AcDbEntity
  8
LAYOUT
100
AcDbLine
 10
72.41680757354516
 20
20.21753412155795
 30
0.0
 11
72.41728475424316
 21
14.87785432056717
 31
0.0
1001
PE_URL
1000

  0
LINE
  5
2806
330
27BD
100
AcDbEntity
  8
LAYOUT
100
AcDbLine
 10
52.06623516164473
 20
26.86047692279226
 30
0.0
 11
52.06624640283371
 21
14.14136855919423
 31
0.0
1001
PE_URL
1000

  0
LINE
  5
2807
330
27BD
100
AcDbEntity
  8
LAYOUT
100
AcDbLine
 10
57.02847106855916
 20
14.14043209173997
 30
0.0
 11
52.06624640283371
 21
14.14136855919423
 31
0.0
1001
PE_URL
1000

  0
LINE
  5
2808
330
27BD
100
AcDbEntity
  8
LAYOUT
100
AcDbLine
 10
65.00996998824485
 20
18.52408669429951
 30
0.0
 11
65.93291998824498
 21
17.4006391942994
 31
0.0
1001
PE_URL
1000

  0
LINE
  5
2809
330
27BD
100
AcDbEntity
  8
LAYOUT
100
AcDbLine
 10
62.00800724442706
 20
20.7400288838553
 30
0.0
 11
57.58906631160062
 21
20.7400288838553
 31
0.0
1001
PE_URL
1000

  0
LINE
  5
280A
330
27BD
100
AcDbEntity
  8
LAYOUT
100
AcDbLine
 10
60.12549494828909
 20
16.22863339269861
 30
0.0
 11
60.12544244838136
 21
16.22868589279187
 31
0.0
1001
PE_URL
1000

  0
LINE
  5
280B
330
27BD
100
AcDbEntity
  8
LAYOUT
100
AcDbLine
 10
65.0099760626299
 20
18.52416044222173
 30
0.0
 11
65.00996998824485
 21
18.52408669429951
 31
0.0
1001
PE_URL
1000

  0
LINE
  5
280C
330
27BD
100
AcDbEntity
  8
LAYOUT
100
AcDbLine
 10
62.50001686658834
 20
26.85955418179674
 30
0.0
 11
62.50000562219611
 21
14.14044581819962
 31
0.0
1001
PE_URL
1000

  0
LINE
  5
280D
330
27BD
100
AcDbEntity
  8
LAYOUT
100
AcDbLine
 10
52.58322804048657
 20
26.30658309431419
 30
0.0
 11
52.58323789886435
 21
20.73092458087012
 31
0.0
1001
PE_URL
1000

  0
ARC
  5
280E
330
27BD
100
AcDbEntity
  8
LAYOUT
100
AcDbCircle
 10
60.38328695223026
 20
16.80786498509588
 30
0.0
 40
0.0763923686077361
100
AcDbArc
 50
269.999898696231
 51
359.9998987003238
1001
PE_URL
1000

  0
ARC
  5
280F
330
27BD
100
AcDbEntity
  8
LAYOUT
100
AcDbCircle
 10
60.04907328510035
 20
18.47567558712126
 30
0.0
 40
0.0763923690231797
100
AcDbArc
 50
359.9998986948672
 51
140.5992959169915
1001
PE_URL
1000

  0
LINE
  5
2810
330
27BD
100
AcDbEntity
  8
LAYOUT
100
AcDbLine
 10
60.12544553223961
 20
17.97284089278946
 30
0.0
 11
60.12546565412322
 21
18.47567545205129
 31
0.0
1001
PE_URL
1000

  0
LINE
  5
2811
330
27BD
100
AcDbEntity
  8
LAYOUT
100
AcDbLine
 10
62.98188767584816
 20
14.87691176601493
 30
0.0
 11
67.40742767584834
 21
14.87691176601493
 31
0.0
1001
PE_URL
1000

  0
LINE
  5
2812
330
27BD
100
AcDbEntity
  8
LAYOUT
100
AcDbLine
 10
60.45960597234262
 20
16.80781280195424
 30
0.0
 11
60.4596078971781
 21
17.89645280195327
 31
0.0
1001
PE_URL
1000

  0
LINE
  5
2813
330
27BD
100
AcDbEntity
  8
LAYOUT
100
AcDbLine
 10
60.3832183372806
 20
16.73142543701579
 30
0.0
 11
60.38328681716212
 21
16.73147261648865
 31
0.0
1001
PE_URL
1000

  0
LINE
  5
2814
330
27BD
100
AcDbEntity
  8
LAYOUT
100
AcDbLine
 10
59.99004293265625
 20
18.52416488011841
 30
0.0
 11
59.99004900691125
 21
18.52409113218528
 31
0.0
1001
PE_URL
1000

  0
LINE
  5
2815
330
27BD
100
AcDbEntity
  8
LAYOUT
100
AcDbLine
 10
52.58322804048657
 20
26.30658309431419
 30
0.0
 11
57.0284746344214
 21
26.30565019099595
 31
0.0
1001
PE_URL
1000

  0
LINE
  5
2816
330
27BD
100
AcDbEntity
  8
LAYOUT
100
AcDbLine
 10
67.41094493279161
 20
26.30565986524653
 30
0.0
 11
67.41094493279161
 21
20.7400288838553
 31
0.0
1001
PE_URL
1000

  0
LINE
  5
2817
330
27BD
100
AcDbEntity
  8
LAYOUT
100
AcDbLine
 10
62.49999437780389
 20
26.85955418179674
 30
0.0
 11
62.50000562219611
 21
14.14044581819962
 31
0.0
1001
PE_URL
1000

  0
LINE
  5
2818
330
27BD
100
AcDbEntity
  8
LAYOUT
100
AcDbLine
 10
67.97154017584853
 20
14.1404417660151
 30
0.0
 11
72.93376483991051
 21
14.14138700722924
 31
0.0
1001
PE_URL
1000

  0
LINE
  5
2819
330
27BD
100
AcDbEntity
  8
LAYOUT
100
AcDbLine
 10
62.50000562219611
 20
14.14044581819962
 30
0.0
 11
57.02847106854369
 21
14.1404417660151
 31
0.0
1001
PE_URL
1000

  0
LINE
  5
281A
330
27BD
100
AcDbEntity
  8
LAYOUT
100
AcDbLine
 10
59.99004900691125
 20
18.52409113218528
 30
0.0
 11
59.06709702053377
 21
17.40064526406422
 31
0.0
1001
PE_URL
1000

  0
LINE
  5
281B
330
27BD
100
AcDbEntity
  8
LAYOUT
100
AcDbLine
 10
64.87451998824508
 20
16.22862919429917
 30
0.0
 11
64.87457248824558
 21
16.22868169429876
 31
0.0
1001
PE_URL
1000

  0
ARC
  5
281C
330
27BD
100
AcDbEntity
  8
LAYOUT
100
AcDbCircle
 10
65.87383259536819
 20
17.35215673869152
 30
0.0
 40
0.0763923684056577
100
AcDbArc
 50
320.5993277777823
 51
39.40082777743303
1001
PE_URL
1000

  0
LINE
  5
281D
330
27BD
100
AcDbEntity
  8
LAYOUT
100
AcDbLine
 10
67.41094493279161
 20
26.30565986524653
 30
0.0
 11
62.99200399996516
 21
26.30563676601469
 31
0.0
1001
PE_URL
1000

  0
LINE
  5
281E
330
27BD
100
AcDbEntity
  8
LAYOUT
100
AcDbLine
 10
62.99200399996516
 20
26.30563676601469
 30
0.0
 11
62.99200399996516
 21
20.7400288838553
 31
0.0
1001
PE_URL
1000

  0
LINE
  5
281F
330
27BD
100
AcDbEntity
  8
LAYOUT
100
AcDbLine
 10
67.97152048354656
 20
20.21753412155795
 30
0.0
 11
72.41680757354516
 21
20.21753412155795
 31
0.0
1001
PE_URL
1000

  0
LINE
  5
2820
330
27BD
100
AcDbEntity
  8
LAYOUT
100
AcDbLine
 10
67.40744104871737
 20
20.20708974042736
 30
0.0
 11
67.40744629366509
 21
14.87690660686258
 31
0.0
1001
PE_URL
1000

  0
LINE
  5
2821
330
27BD
100
AcDbEntity
  8
LAYOUT
100
AcDbLine
 10
72.93375359231504
 20
26.86049537082818
 30
0.0
 11
72.93376483991051
 21
14.14138700722924
 31
0.0
1001
PE_URL
1000

  0
HATCH
  5
2822
330
27BD
100
AcDbEntity
  8
LAYOUT
100
AcDbHatch
 10
0.0
 20
0.0
 30
0.0
210
0.0
220
0.0
230
1.0
  2
SOLID
 70
     1
 71
     0
 91
        1
 92
        7
 72
     1
 73
     1
 93
        2
 10
67.95504739922592
 20
14.50913302305787
 42
1.0
 10
68.95504739922592
 20
14.50913302305787
 42
1.0
 97
        0
 75
     0
 76
     1
 47
0.0
 98
        1
 10
68.42165891598722
 20
14.70946392249048
1001
ACAD
1010
0.0
1020
0.0
1030
0.0
1001
PE_URL
1000

  0
LINE
  5
2823
330
27BD
100
AcDbEntity
  8
LAYOUT
100
AcDbLine
 10
62.99200399996516
 20
20.7400288838553
 30
0.0
 11
67.41094493279161
 21
20.7400288838553
 31
0.0
1001
PE_URL
1000

  0
LINE
  5
2824
330
27BD
100
AcDbEntity
  8
LAYOUT
100
AcDbLine
 10
64.87457248824558
 20
16.73142169429866
 30
0.0
 11
64.61679748824554
 21
16.73142169429866
 31
0.0
1001
PE_URL
1000

  0
LINE
  5
2825
330
27BD
100
AcDbEntity
  8
LAYOUT
100
AcDbLine
 10
62.01151112850221
 20
20.20708974042736
 30
0.0
 11
57.59257019567485
 21
20.20708974042736
 31
0.0
1001
PE_URL
1000

  0
LINE
  5
2826
330
27BD
100
AcDbEntity
  8
LAYOUT
100
AcDbLine
 10
60.38328901204932
 20
17.97284861723347
 30
0.0
 11
60.38322053223874
 21
17.97284043701438
 31
0.0
1001
PE_URL
1000

  0
LINE
  5
2827
330
27BD
100
AcDbEntity
  8
LAYOUT
100
AcDbLine
 10
62.98850011589002
 20
20.20708974042736
 30
0.0
 11
67.40744104871737
 21
20.20708974042736
 31
0.0
1001
PE_URL
1000

  0
LINE
  5
2828
330
27BD
100
AcDbEntity
  8
LAYOUT
100
AcDbLine
 10
65.93291998824498
 20
17.30367169429792
 30
0.0
 11
65.0099760182311
 21
16.18015292953078
 31
0.0
1001
PE_URL
1000

  0
CIRCLE
  5
2829
330
27BD
100
AcDbEntity
  8
LAYOUT
100
AcDbCircle
 10
68.45504739922592
 20
14.50913302305787
 30
0.0
 40
0.5
1001
PE_URL
1000

  0
ARC
  5
282A
330
27BD
100
AcDbEntity
  8
LAYOUT
100
AcDbCircle
 10
64.95094562445138
 20
18.47567125359546
 30
0.0
 40
0.0763923690231797
100
AcDbArc
 50
39.40060277789217
 51
179.9999999993179
1001
PE_URL
1000

  0
LINE
  5
282B
330
27BD
100
AcDbEntity
  8
LAYOUT
100
AcDbLine
 10
67.97152002960047
 20
20.73094211479747
 30
0.0
 11
72.41676169281982
 21
20.73094211479747
 31
0.0
1001
PE_URL
1000

  0
HATCH
  5
282C
330
27BD
100
AcDbEntity
  8
LAYOUT
100
AcDbHatch
 10
0.0
 20
0.0
 30
0.0
210
0.0
220
0.0
230
1.0
  2
SOLID
 70
     1
 71
     0
 91
        1
 92
        7
 72
     1
 73
     1
 93
        2
 10
56.04496384516631
 20
14.50913302305787
 42
1.0
 10
57.04496384516631
 20
14.50913302305787
 42
1.0
 97
        0
 75
     0
 76
     1
 47
0.0
 98
        1
 10
56.578352328405
 20
14.70946392249048
1001
ACAD
1010
0.0
1020
0.0
1030
0.0
1001
PE_URL
1000

  0
CIRCLE
  5
282D
330
27BD
100
AcDbEntity
  8
LAYOUT
100
AcDbCircle
 10
71.93376516658998
 20
14.50913302305787
 30
0.0
 40
0.5
1001
PE_URL
1000

  0
LINE
  5
282E
330
27BD
100
AcDbEntity
  8
LAYOUT
100
AcDbLine
 10
60.4596078971781
 20
17.89645280195327
 30
0.0
 11
60.45968124558658
 21
17.89645611355627
 31
0.0
1001
PE_URL
1000

  0
ARC
  5
282F
330
27BD
100
AcDbEntity
  8
LAYOUT
100
AcDbCircle
 10
60.04908826904466
 20
16.22864597275384
 30
0.0
 40
0.0764066802798192
100
AcDbArc
 50
219.3912220340409
 51
359.9905664783346
1001
PE_URL
1000

  0
LINE
  5
2830
330
27BD
100
AcDbEntity
  8
LAYOUT
100
AcDbLine
 10
57.58906631160062
 20
26.30565986524653
 30
0.0
 11
62.00800724442706
 21
26.30563676601469
 31
0.0
1001
PE_URL
1000

  0
CIRCLE
  5
2831
330
27BD
100
AcDbEntity
  8
LAYOUT
100
AcDbCircle
 10
56.54496384516631
 20
14.50913302305787
 30
0.0
 40
0.5
1001
PE_URL
1000

  0
LINE
  5
2832
330
27BD
100
AcDbEntity
  8
LAYOUT
100
AcDbLine
 10
57.02848473662289
 20
14.87690388331248
 30
0.0
 11
52.58272518634567
 21
14.87783678572396
 31
0.0
1001
PE_URL
1000

  0
LINE
  5
2833
330
27BD
100
AcDbEntity
  8
LAYOUT
100
AcDbLine
 10
52.06623516164473
 20
26.86047692279226
 30
0.0
 11
57.02844857975015
 21
26.85955459171964
 31
0.0
1001
PE_URL
1000

  0
LINE
  5
2834
330
27BD
100
AcDbEntity
  8
LAYOUT
100
AcDbLine
 10
52.58319292590113
 20
20.21751658754965
 30
0.0
 11
52.58272518634567
 21
14.87783678572396
 31
0.0
1001
PE_URL
1000

  0
LINE
  5
2835
330
27BD
100
AcDbEntity
  8
LAYOUT
100
AcDbLine
 10
64.5404099882453
 20
16.80780919429799
 30
0.0
 11
64.5404099882453
 21
17.89644919429975
 31
0.0
1001
PE_URL
1000

  0
LINE
  5
2836
330
27BD
100
AcDbEntity
  8
LAYOUT
100
AcDbLine
 10
57.02849663359393
 20
26.85955460782407
 30
0.0
 11
57.02848538760009
 21
14.14044624422513
 31
0.0
1001
PE_URL
1000

  0
LINE
  5
2837
330
27BD
100
AcDbEntity
  8
LAYOUT
100
AcDbLine
 10
57.02847106854369
 20
26.8595642660157
 30
0.0
 11
62.50001686658834
 21
26.85955418179674
 31
0.0
1001
PE_URL
1000

  0
LINE
  5
2838
330
27BD
100
AcDbEntity
  8
LAYOUT
100
AcDbLine
 10
62.50000562219611
 20
14.14044581819962
 30
0.0
 11
67.97154017584853
 21
14.1404417660151
 31
0.0
1001
PE_URL
1000

  0
LINE
  5
2839
330
27BD
100
AcDbEntity
  8
LAYOUT
100
AcDbLine
 10
65.93291998824498
 20
17.4006391942994
 30
0.0
 11
65.93286284265196
 21
17.40064615873507
 31
0.0
1001
PE_URL
1000

  0
LINE
  5
283A
330
27BD
100
AcDbEntity
  8
LAYOUT
100
AcDbLine
 10
64.61679748824554
 20
17.97283669429908
 30
0.0
 11
64.87457248824558
 21
17.97283669429908
 31
0.0
1001
PE_URL
1000

  0
HATCH
  5
283B
330
27BD
100
AcDbEntity
  8
LAYOUT
100
AcDbHatch
 10
0.0
 20
0.0
 30
0.0
210
0.0
220
0.0
230
1.0
  2
SOLID
 70
     1
 71
     0
 91
        1
 92
        7
 72
     1
 73
     1
 93
        2
 10
71.43376516658998
 20
14.50913302305787
 42
1.0
 10
72.43376516658998
 20
14.50913302305787
 42
1.0
 97
        0
 75
     0
 76
     1
 47
0.0
 98
        1
 10
71.96715364982867
 20
14.70946392249048
1001
ACAD
1010
0.0
1020
0.0
1030
0.0
1001
PE_URL
1000

  0
ARC
  5
283C
330
27BD
100
AcDbEntity
  8
LAYOUT
100
AcDbCircle
 10
59.12618432768795
 20
17.35216270398359
 30
0.0
 40
0.0763923684056577
100
AcDbArc
 50
140.5990709171189
 51
219.4005709166375
1001
PE_URL
1000

  0
LINE
  5
283D
330
27BD
100
AcDbEntity
  8
LAYOUT
100
AcDbLine
 10
65.93286297429859
 20
17.30366747891185
 30
0.0
 11
65.93291998824498
 21
17.30367169429792
 31
0.0
1001
PE_URL
1000

  0
LINE
  5
283E
330
27BD
100
AcDbEntity
  8
LAYOUT
100
AcDbLine
 10
62.98850011589002
 20
20.20708974042736
 30
0.0
 11
62.98850536009013
 21
14.87690710493098
 31
0.0
1001
PE_URL
1000

  0
CIRCLE
  5
283F
102
{ACAD_REACTORS
330
284B
102
}
330
27BD
100
AcDbEntity
  8
LAYOUT
100
AcDbCircle
 10
53.0662460778023
 20
14.50913302305787
 30
0.0
 40
0.5
1001
PE_URL
1000

  0
LINE
  5
2840
330
27BD
100
AcDbEntity
  8
LAYOUT
100
AcDbLine
 10
67.9715146107983
 20
26.85955460782407
 30
0.0
 11
67.97152585679214
 21
14.14044624422513
 31
0.0
1001
PE_URL
1000

  0
LINE
  5
2841
330
27BD
100
AcDbEntity
  8
LAYOUT
100
AcDbLine
 10
64.61672900844951
 20
17.97284487464003
 30
0.0
 11
64.61679748824554
 21
17.97283669429908
 31
0.0
1001
PE_URL
1000

  0
LINE
  5
2842
330
27BD
100
AcDbEntity
  8
LAYOUT
100
AcDbLine
 10
60.12544333728056
 20
16.73142589279087
 30
0.0
 11
60.3832183372806
 21
16.73142543701579
 31
0.0
1001
PE_URL
1000

  0
LINE
  5
2843
330
27BD
100
AcDbEntity
  8
LAYOUT
100
AcDbLine
 10
57.02847956207734
 20
20.73093244054689
 30
0.0
 11
52.58323789886435
 21
20.73092458087012
 31
0.0
1001
PE_URL
1000

  0
LINE
  5
2844
330
27BD
100
AcDbEntity
  8
LAYOUT
100
AcDbLine
 10
64.5404099882453
 20
17.89644919429975
 30
0.0
 11
64.54033663984228
 21
17.89645250603189
 31
0.0
1001
PE_URL
1000

  0
ARC
  5
2845
330
27BD
100
AcDbEntity
  8
LAYOUT
100
AcDbCircle
 10
64.95092666751134
 20
16.22864163925897
 30
0.0
 40
0.0764066802798192
100
AcDbArc
 50
180.0093322170917
 51
320.6086766607106
1001
PE_URL
1000

  0
LINE
  5
2846
330
27BD
100
AcDbEntity
  8
LAYOUT
100
AcDbLine
 10
59.06709684908401
 20
17.30367776406456
 30
0.0
 11
59.99003883259229
 21
16.180157367432
 31
0.0
1001
PE_URL
1000

  0
LINE
  5
2847
330
27BD
100
AcDbEntity
  8
LAYOUT
100
AcDbLine
 10
64.61679748824554
 20
16.73142169429866
 30
0.0
 11
64.61672900844769
 21
16.73146887389248
 31
0.0
1001
PE_URL
1000

  0
LINE
  5
2848
330
27BD
100
AcDbEntity
  8
LAYOUT
100
AcDbLine
 10
72.41676169281982
 20
26.30660062825064
 30
0.0
 11
67.97151510054118
 21
26.30565986524653
 31
0.0
1001
PE_URL
1000

  0
LINE
  5
2849
330
27BD
100
AcDbEntity
  8
LAYOUT
100
AcDbLine
 10
62.00800724442706
 20
26.30563676601469
 30
0.0
 11
62.00800724442706
 21
20.7400288838553
 31
0.0
1001
PE_URL
1000

  0
LINE
  5
284A
330
27BD
100
AcDbEntity
  8
LAYOUT
100
AcDbLine
 10
59.06715386302312
 20
17.30367354857663
 30
0.0
 11
59.06709684908401
 21
17.30367776406456
 31
0.0
1001
PE_URL
1000

  0
HATCH
  5
284B
330
27BD
100
AcDbEntity
  8
LAYOUT
100
AcDbHatch
 10
0.0
 20
0.0
 30
0.0
210
0.0
220
0.0
230
1.0
  2
SOLID
 70
     1
 71
     1
 91
        1
 92
        7
 72
     1
 73
     1
 93
        2
 10
52.5662460778023
 20
14.50913302305787
 42
1.0
 10
53.56624607780225
 20
14.50913302305787
 42
1.0
 97
        1
330
283F
 75
     0
 76
     1
 47
0.0
 98
        1
 10
53.0328575945635
 20
14.70946392249048
1001
ACAD
1010
0.0
1020
0.0
1030
0.0
1001
PE_URL
1000

  0
LINE
  5
284C
330
27BD
100
AcDbEntity
  8
LAYOUT
100
AcDbLine
 10
62.01812356854407
 20
14.87691176601493
 30
0.0
 11
57.59258356854389
 21
14.87691176601493
 31
0.0
1001
PE_URL
1000

  0
LINE
  5
284D
330
27BD
100
AcDbEntity
  8
LAYOUT
100
AcDbLine
 10
72.41676169281982
 20
26.30660062825064
 30
0.0
 11
72.41676169281982
 21
20.73094211479747
 31
0.0
1001
PE_URL
1000

  0
LINE
  5
284E
330
27BD
100
AcDbEntity
  8
LAYOUT
100
AcDbLine
 10
57.58906631160062
 20
26.30565986524653
 30
0.0
 11
57.58906631160062
 21
20.7400288838553
 31
0.0
1001
PE_URL
1000

  0
LINE
  5
284F
330
27BD
100
AcDbEntity
  8
LAYOUT
100
AcDbLine
 10
57.59257019567485
 20
20.20708974042736
 30
0.0
 11
57.59256495072714
 21
14.87690660686258
 31
0.0
1001
PE_URL
1000

  0
ARC
  5
2850
330
27BD
100
AcDbEntity
  8
LAYOUT
100
AcDbCircle
 10
64.61672900844951
 20
16.80786124250062
 30
0.0
 40
0.0763923686077361
100
AcDbArc
 50
179.9999999945429
 51
269.9999999986358
1001
PE_URL
1000

  0
ARC
  5
2851
330
27BD
100
AcDbEntity
  8
LAYOUT
100
AcDbCircle
 10
64.61672900844951
 20
17.89645250603189
 30
0.0
 40
0.0763923686072374
100
AcDbArc
 50
90.0
 51
179.9999999993179
1001
PE_URL
1000

  0
LINE
  5
2852
330
27BD
100
AcDbEntity
  8
LAYOUT
100
AcDbLine
 10
60.12544244838136
 20
16.22868589279187
 30
0.0
 11
60.12544333728056
 21
16.73142589279087
 31
0.0
1001
PE_URL
1000

  0
LINE
  5
2853
330
27BD
100
AcDbEntity
  8
LAYOUT
100
AcDbLine
 10
57.02848001589246
 20
20.21752444730737
 30
0.0
 11
52.58319292590113
 21
20.21751658754965
 31
0.0
1001
PE_URL
1000

  0
LINE
  5
2854
330
27BD
100
AcDbEntity
  8
LAYOUT
100
AcDbLine
 10
67.97154017584853
 20
26.8595642660157
 30
0.0
 11
62.49999437780389
 21
26.85955418179674
 31
0.0
1001
PE_URL
1000

  0
LINE
  5
2855
330
27BD
100
AcDbEntity
  8
LAYOUT
100
AcDbLine
 10
62.01151112850221
 20
20.20708974042736
 30
0.0
 11
62.0115058843021
 21
14.87690710493098
 31
0.0
1001
PE_URL
1000

  0
LINE
  5
2856
330
27BD
100
AcDbEntity
  8
LAYOUT
100
AcDbLine
 10
64.87457248824558
 20
16.22868169429876
 30
0.0
 11
64.87457248824558
 21
16.73142169429866
 31
0.0
1001
PE_URL
1000

  0
ENDBLK
  5
2857
330
27BD
100
AcDbEntity
  8
0
100
AcDbBlockEnd
  0
ENDSEC
  0
SECTION
  2
ENTITIES
  0
VIEWPORT
  5
1A4D
330
1B
100
AcDbEntity
 67
     1
  8
0
100
AcDbViewport
 10
0.0
 20
0.0
 30
0.0
 40
801.1636363636366
 41
302.9400000000001
 68
     1
 69
     1
 12
105.0
 22
148.5
 13
0.0
 23
0.0
 14
0.5
 24
0.5
 15
0.0
 25
0.0
 16
0.0
 26
0.0
 36
1.0
 17
0.0
 27
0.0
 37
0.0
 42
50.0
 43
0.0
 44
0.0
 45
302.9400000000001
 50
0.0
 51
0.0
 72
   100
 90
   557168
  1

281
     0
 71
     1
 74
     0
110
0.0
120
0.0
130
0.0
111
1.0
121
0.0
131
0.0
112
0.0
122
1.0
132
0.0
 79
     0
146
0.0
  0
LINE
  5
2863
330
1B
100
AcDbEntity
 67
     1
  8
LAYOUT
100
AcDbLine
 10
42.5
 20
208.0037280044278
 30
0.0
 11
42.5
 21
198.0037280044278
 31
0.0
  0
LINE
  5
2864
330
1B
100
AcDbEntity
 67
     1
  8
LAYOUT
100
AcDbLine
 10
12.5
 20
208.0037280044278
 30
0.0
 11
72.5
 21
208.0037280044278
 31
0.0
  0
LINE
  5
2865
330
1B
100
AcDbEntity
 67
     1
  8
LAYOUT
100
AcDbLine
 10
12.5
 20
203.0037280044278
 30
0.0
 11
72.5
 21
203.0037280044278
 31
0.0
  0
LINE
  5
2866
330
1B
100
AcDbEntity
 67
     1
  8
LAYOUT
100
AcDbLine
 10
12.5
 20
198.0037280044278
 30
0.0
 11
72.5
 21
198.0037280044278
 31
0.0
  0
MTEXT
  5
2867
330
1B
100
AcDbEntity
 67
     1
  8
TEXTO
100
AcDbMText
 10
27.5
 20
205.5037280044278
 30
0.0
 40
2.0
 41
0.0
 71
     5
 72
     1
  1
{COMPONENTES}
 73
     1
 44
1.0
1001
ACAD
1000
ACAD_MTEXT_DEFINED_HEIGHT_BEGIN
1070
    46
1040
2.034
1000
ACAD_MTEXT_DEFINED_HEIGHT_END
  0
TEXT
  5
2868
330
1B
100
AcDbEntity
 67
     1
  8
TEXTO
100
AcDbText
 10
33.657
 20
209.5037280044278
 30
0.0
 40
2.0
  1
EMBALAGEM
 72
     1
 11
42.5
 21
210.5037280044278
 31
0.0
100
AcDbText
 73
     2
  0
TEXT
  5
2869
330
1B
100
AcDbEntity
 67
     1
  8
TEXTO
100
AcDbText
 10
52.45175
 20
204.7099780044278
 30
0.0
 40
1.5875
  1
M. PRIMA
 72
     1
 11
57.5
 21
205.5037280044278
 31
0.0
100
AcDbText
 73
     2
  0
TEXT
  5
286A
330
1B
100
AcDbEntity
 67
     1
  8
TEXTO
100
AcDbText
 10
51.97325
 20
199.7537280044278
 30
0.0
 40
1.5
  1
POLÍMERO
 72
     1
 11
57.5
 21
200.5037280044278
 31
0.0
100
AcDbText
 73
     2
  0
LINE
  5
286B
330
1B
100
AcDbEntity
 67
     1
  8
LAYOUT
100
AcDbLine
 10
22.5
 20
190.5037280044278
 30
0.0
 11
22.5
 21
175.5037280044278
 31
0.0
  0
LINE
  5
286C
330
1B
100
AcDbEntity
 67
     1
  8
LAYOUT
100
AcDbLine
 10
32.5
 20
190.5037280044278
 30
0.0
 11
32.5
 21
175.5037280044278
 31
0.0
  0
LINE
  5
286D
330
1B
100
AcDbEntity
 67
     1
  8
LAYOUT
100
AcDbLine
 10
12.5
 20
190.5037280044278
 30
0.0
 11
72.5
 21
190.5037280044278
 31
0.0
  0
LINE
  5
286E
330
1B
100
AcDbEntity
 67
     1
  8
LAYOUT
100
AcDbLine
 10
12.5
 20
185.5037280044278
 30
0.0
 11
72.5
 21
185.5037280044278
 31
0.0
  0
MTEXT
  5
286F
330
1B
100
AcDbEntity
 67
     1
  8
TEXTO
100
AcDbMText
 10
42.5
 20
193.0037280044278
 30
0.0
 40
1.5875
 41
0.0
 71
     5
 72
     1
  1
CODIFICAÇÃO
 73
     1
 44
1.0
  0
MTEXT
  5
2870
330
1B
100
AcDbEntity
 67
     1
  8
TEXTO
100
AcDbMText
 10
17.5
 20
188.0037280044278
 30
0.0
 40
1.5875
 41
0.0
 71
     5
 72
     1
  1
COR
 73
     1
 44
1.0
  0
MTEXT
  5
2871
330
1B
100
AcDbEntity
 67
     1
  8
TEXTO
100
AcDbMText
 10
27.5
 20
188.0037280044278
 30
0.0
 40
1.5875
 41
0.0
 71
     5
 72
     1
  1
{CÓDIGO}
 73
     1
 44
1.0
1001
ACAD
1000
ACAD_MTEXT_DEFINED_HEIGHT_BEGIN
1070
    46
1040
1.6144875
1000
ACAD_MTEXT_DEFINED_HEIGHT_END
  0
MTEXT
  5
2872
330
1B
100
AcDbEntity
 67
     1
  8
TEXTO
100
AcDbMText
 10
45.0
 20
188.0037280044278
 30
0.0
 40
1.5875
 41
0.0
 71
     5
 72
     1
  1
CATÁLOGO
 73
     1
 44
1.0
  0
LINE
  5
2873
330
1B
100
AcDbEntity
 67
     1
  8
LAYOUT
100
AcDbLine
 10
57.5
 20
175.5037280044278
 30
0.0
 11
57.5
 21
190.5037280044278
 31
0.0
  0
MTEXT
  5
2874
330
1B
100
AcDbEntity
 67
     1
  8
TEXTO
100
AcDbMText
 10
65.0
 20
188.0037280044278
 30
0.0
 40
1.5875
 41
0.0
 71
     5
 72
     1
  1
{SISTEMISTA}
 73
     1
 44
1.0
1001
ACAD
1000
ACAD_MTEXT_DEFINED_HEIGHT_BEGIN
1070
    46
1040
1.6144875
1000
ACAD_MTEXT_DEFINED_HEIGHT_END
  0
LINE
  5
2875
330
1B
100
AcDbEntity
 67
     1
  8
LAYOUT
100
AcDbLine
 10
12.5
 20
180.5037280044278
 30
0.0
 11
57.5
 21
180.5037280044278
 31
0.0
  0
LWPOLYLINE
  5
2876
330
1B
100
AcDbEntity
 67
     1
  8
LAYOUT
100
AcDbPolyline
 90
        4
 70
     1
 43
0.0
 10
12.5
 20
175.5037280044278
 10
72.5
 20
175.5037280044278
 10
72.5
 20
195.5037280044278
 10
12.5
 20
195.5037280044278
  0
LWPOLYLINE
  5
2877
330
1B
100
AcDbEntity
 67
     1
  8
LAYOUT
100
AcDbPolyline
 90
        4
 70
     0
 43
0.0
 10
12.5
 20
198.0037280044278
 10
12.5
 20
213.0037280044278
 10
72.5
 20
213.0037280044278
 10
72.5
 20
198.0037280044278
  0
TEXT
  5
2878
330
1B
100
AcDbEntity
 67
     1
  8
TEXTO
100
AcDbText
 10
15.406
 20
182.2537280044278
 30
0.0
 40
1.5
  1
PRT
 72
     1
 11
17.5
 21
183.0037280044278
 31
0.0
100
AcDbText
 73
     2
  0
TEXT
  5
2879
330
1B
100
AcDbEntity
 67
     1
  8
TEXTO
100
AcDbText
 10
15.406
 20
177.2537280044278
 30
0.0
 40
1.5
  1
PRT
 72
     1
 11
17.5
 21
178.0037280044278
 31
0.0
100
AcDbText
 73
     2
  0
TEXT
  5
287A
330
1B
100
AcDbEntity
 67
     1
  8
TEXTO
100
AcDbText
 10
23.426
 20
182.2537280044278
 30
0.0
 40
1.5
  1
9206132
 72
     1
 11
27.5
 21
183.0037280044278
 31
0.0
100
AcDbText
 73
     2
  0
TEXT
  5
287B
330
1B
100
AcDbEntity
 67
     1
  8
TEXTO
100
AcDbText
 10
23.426
 20
177.2537280044278
 30
0.0
 40
1.5
  1
9203855
 72
     1
 11
27.5
 21
178.0037280044278
 31
0.0
100
AcDbText
 73
     2
  0
TEXT
  5
287C
330
1B
100
AcDbEntity
 67
     1
  8
TEXTO
100
AcDbText
 10
37.31925
 20
182.2537280044278
 30
0.0
 40
1.5
  1
CALNYL394E10
 72
     1
 11
45.0
 21
183.0037280044278
 31
0.0
100
AcDbText
 73
     2
  0
TEXT
  5
287D
330
1B
100
AcDbEntity
 67
     1
  8
TEXTO
100
AcDbText
 10
37.90125
 20
177.2537280044278
 30
0.0
 40
1.5
  1
CALNYL394E4
 72
     1
 11
45.0
 21
178.0037280044278
 31
0.0
100
AcDbText
 73
     2
  0
TEXT
  5
287E
330
1B
100
AcDbEntity
 67
     1
  8
TEXTO
100
AcDbText
 10
60.869
 20
179.7537280044278
 30
0.0
 40
1.5
  1
NYL-394
 72
     1
 11
65.0
 21
180.5037280044278
 31
0.0
100
AcDbText
 73
     2
  0
TEXT
  5
287F
330
1B
100
AcDbEntity
 67
     1
  8
TEXTO
100
AcDbText
 10
21.10175
 20
199.7537280044278
 30
0.0
 40
1.5
  1
ESTRUTURA
 72
     1
 11
27.5
 21
200.5037280044278
 31
0.0
100
AcDbText
 73
     2
  0
INSERT
  5
2880
330
1B
100
AcDbEntity
 67
     1
  8
PERFIS
100
AcDbBlockReference
  2
CHR-002
 10
86.4115462478685
 20
170.9798389658527
 30
0.0
  0
INSERT
  5
2881
330
1B
100
AcDbEntity
 67
     1
  8
PERFIS
100
AcDbBlockReference
  2
CHR-004
 10
111.488456415166
 20
196.2298389658552
 30
0.0
  0
INSERT
  5
2882
330
1B
100
AcDbEntity
 67
     1
  8
PERFIS
100
AcDbBlockReference
  2
CHR-004
 10
163.4884564958185
 20
196.2298389658552
 30
0.0
 41
-1.0
  0
INSERT
  5
2883
330
1B
100
AcDbEntity
 67
     1
  8
PERFIS
100
AcDbBlockReference
  2
CHR-030
 10
145.1960595164392
 20
191.9167409442547
 30
0.0
  0
INSERT
  5
2884
330
1B
100
AcDbEntity
 67
     1
  8
PRODUTO
100
AcDbBlockReference
  2
NYL-394
 10
154.7883732589495
 20
206.9069311515305
 30
0.0
 41
2.0
 42
2.0
 43
2.0
  0
INSERT
  5
2885
330
1B
100
AcDbEntity
 67
     1
  8
OUTROS_COMPONENTES
100
AcDbBlockReference
  2
FIT-223
 10
146.8358678602007
 20
193.466740944254
 30
0.0
  0
INSERT
  5
2886
330
1B
100
AcDbEntity
 67
     1
  8
OUTROS_COMPONENTES
100
AcDbBlockReference
  2
FIT-223
 10
172.5561511664627
 20
193.466740944254
 30
0.0
 41
-1.0
  0
MTEXT
  5
2887
330
1B
100
AcDbEntity
 67
     1
  8
TEXTO
100
AcDbMText
 10
135.0
 20
162.4338695524087
 30
0.0
 40
3.0
 41
32.68045017555778
 71
     5
 72
     1
  1
{ESCALA 1:1}
 73
     1
 44
1.0
1001
ACAD
1000
ACAD_MTEXT_DEFINED_HEIGHT_BEGIN
1070
    46
1040
3.051
1000
ACAD_MTEXT_DEFINED_HEIGHT_END
  0
LINE
  5
2888
330
1B
100
AcDbEntity
 67
     1
  8
PRODUTO
100
AcDbLine
 10
92.84989639655396
 20
75.20062007421762
 30
0.0
 11
117.1501559625804
 21
75.20062007421762
 31
0.0
  0
LINE
  5
2889
330
1B
100
AcDbEntity
 67
     1
  8
PRODUTO
100
AcDbLine
 10
117.1501559625804
 20
40.2006255187203
 30
0.0
 11
92.84989639655396
 21
40.2006255187203
 31
0.0
  0
LINE
  5
288A
330
1B
100
AcDbEntity
 67
     1
  8
PRODUTO
100
AcDbLine
 10
92.84989639655396
 20
40.2006255187203
 30
0.0
 11
92.84989639655396
 21
75.20062007421762
 31
0.0
  0
LINE
  5
288B
330
1B
100
AcDbEntity
 67
     1
  8
PRODUTO
100
AcDbLine
 10
117.1501559625804
 20
40.2006255187203
 30
0.0
 11
117.1501559625804
 21
75.20062007421762
 31
0.0
  0
LINE
  5
288C
330
1B
100
AcDbEntity
 67
     1
  8
PRODUTO
100
AcDbLine
 10
101.1000000007898
 20
75.20062007421762
 30
0.0
 11
101.1000000007898
 21
40.2006255187203
 31
0.0
  0
LINE
  5
288D
330
1B
100
AcDbEntity
 67
     1
  8
PRODUTO
100
AcDbLine
 10
108.90000000079
 20
75.20062007421762
 30
0.0
 11
108.90000000079
 21
40.2006255187203
 31
0.0
  0
DIMENSION
  5
288E
330
1B
100
AcDbEntity
 67
     1
  8
COTAS
100
AcDbDimension
  2
*D24
 10
127.1502793198897
 20
91.36820254459302
 30
0.0
 11
127.1502793198897
 21
109.1183090388287
 31
0.0
 70
   128
 71
     5
 42
35.50021298847129
 52
-90.0
  3
1-1
100
AcDbAlignedDimension
 13
111.6000016884645
 23
126.8684155330643
 33
0.0
 14
113.8501784793325
 24
91.36820254459302
 34
0.0
 50
90.00000000000001
100
AcDbRotatedDimension
1001
ACAD
1000
DSTYLE
1002
{
1070
   271
1070
     1
1002
}
  0
DIMENSION
  5
288F
330
1B
100
AcDbEntity
 67
     1
  8
COTAS
100
AcDbDimension
  2
*D25
 10
127.1501559625805
 20
75.20062007421762
 30
0.0
 11
127.1501559625805
 21
57.70066553306384
 31
0.0
 70
   128
 71
     5
 42
34.99999455549732
  3
1-1
100
AcDbAlignedDimension
 13
117.1501559625804
 23
40.2006255187203
 33
0.0
 14
117.1501559625804
 24
75.20062007421762
 34
0.0
 50
-90.00000000000001
100
AcDbRotatedDimension
  0
DIMENSION
  5
2890
330
1B
100
AcDbEntity
 67
     1
  8
COTAS
100
AcDbDimension
  2
*D26
 10
117.1501983131166
 20
30.2006255187203
 30
0.0
 11
104.9999636120438
 21
30.2006255187203
 31
0.0
 70
   128
 71
     5
 42
24.30029999999988
 52
-270.0
  3
1-1
100
AcDbAlignedDimension
 13
92.84989831311668
 23
40.2007155330644
 33
0.0
 14
117.1501983131166
 24
40.2006155330651
 34
0.0
 50
180.0
100
AcDbRotatedDimension
  0
MTEXT
  5
2891
330
1B
100
AcDbEntity
 67
     1
  8
TEXTO
100
AcDbMText
 10
105.0000483131166
 20
25.2006255187203
 30
0.0
 40
3.0
 41
58.87859140889027
 71
     5
 72
     1
  1
{{\C7;ESCALA 1 : 1}}
  7
Style-Arial
 73
     1
 44
1.0
1001
ACAD
1000
ACAD_MTEXT_DEFINED_HEIGHT_BEGIN
1070
    46
1040
3.051
1000
ACAD_MTEXT_DEFINED_HEIGHT_END
  0
DIMENSION
  5
2892
330
1B
100
AcDbEntity
 67
     1
  8
COTAS
100
AcDbDimension
  2
*D27
 10
113.0999271225892
 20
136.8682187967615
 30
0.0
 11
104.9999997680593
 21
138.6444687967615
 31
0.0
 71
     5
 42
16.19985470905976
  3
1-1
100
AcDbAlignedDimension
 13
96.90007241352941
 23
125.3682188000585
 33
0.0
 14
113.0999271225892
 24
125.3682188015969
 34
0.0
100
AcDbRotatedDimension
1001
ACAD
1000
DSTYLE
1002
{
1070
   271
1070
     1
1002
}
  0
DIMENSION
  5
2893
330
1B
100
AcDbEntity
 67
     1
  8
COTAS
100
AcDbDimension
  2
*D28
 10
112.1001784821892
 20
81.36820254459289
 30
0.0
 11
105.0001254486492
 21
83.12320254459289
 31
0.0
 71
     5
 42
14.20010606708001
  3
1-1
100
AcDbAlignedDimension
 13
97.90007241510921
 23
94.18560178142393
 33
0.0
 14
112.1001784821892
 24
94.18560178142393
 34
0.0
100
AcDbRotatedDimension
1001
ACAD
1000
DSTYLE
1002
{
1070
   271
1070
     1
1002
}
  0
DIMENSION
  5
2894
330
1B
100
AcDbEntity
 67
     1
  8
COTAS
100
AcDbDimension
  2
*D29
 10
82.84997157297221
 20
100.1838184402946
 30
0.0
 11
82.84997157297221
 21
113.509215533064
 31
0.0
 70
   128
 71
     5
 42
26.68459709276969
  3
1-1
100
AcDbAlignedDimension
 13
98.39999831311525
 23
126.8684155330643
 33
0.0
 14
105.0001525385887
 24
100.1838184402946
 34
0.0
 50
90.0
100
AcDbRotatedDimension
1001
ACAD
1000
DSTYLE
1002
{
1070
   271
1070
     1
1002
}
  0
LWPOLYLINE
  5
2895
330
1B
100
AcDbEntity
 67
     1
  8
PRODUTO
100
AcDbPolyline
 90
       51
 70
     0
 43
0.0
 10
103.0000724151087
 20
119.4360213010628
 10
103.0001525671578
 20
106.6908188005928
 42
-0.414213562373095
 10
100.0001525671578
 20
103.6908188005928
 10
97.85007241510903
 20
103.6908188015969
 10
93.84997157585076
 20
103.6908188015969
 42
0.414213562373095
 10
92.84997157297221
 20
102.6908188000585
 42
0.414213562373095
 10
93.84997157297221
 20
101.6908188000585
 10
95.55007241510884
 20
101.6908188015964
 42
-0.414213562373095
 10
95.85007241510903
 20
101.3908188015971
 10
95.85007241510903
 20
100.4908213010627
 10
95.85007241352935
 20
91.66820254459302
 42
0.5806155533668966
 10
96.30260663519402
 20
91.40987463045822
 42
0.2653298240291602
 10
97.90015256623383
 20
94.20834958899482
 10
97.90015256715833
 20
97.54922177219262
 42
-0.3394535544710885
 10
98.64133108169415
 20
98.51514694458552
 10
104.7413468297408
 20
100.149747832269
 42
-0.1316607909016847
 10
105.2589570727183
 20
100.1497481628131
 10
111.3589040631215
 20
98.51515116416702
 42
-0.3394581000251232
 10
112.1000983257045
 20
97.54922177219262
 10
112.1000983266282
 20
94.20834958470903
 42
0.2653298240291602
 10
113.6976442576679
 20
91.40987463045822
 42
0.5806155533668966
 10
114.1501784793325
 20
91.66820254459302
 10
114.1501784821894
 20
100.4908213010627
 10
114.1501784793329
 20
101.3908188000583
 42
-0.414213562373095
 10
114.4501784821887
 20
101.6908188015964
 10
116.1502793214477
 20
101.6908188015964
 42
0.414213562373095
 10
117.1502793198897
 20
102.6908188000585
 42
0.414213562373095
 10
116.1502793214477
 20
103.6908188015969
 10
112.1501784821894
 20
103.6908188015969
 10
110.0000983257041
 20
103.6908188005928
 42
-0.414213562373095
 10
107.0000983257041
 20
106.6908188005928
 10
106.999846967381
 20
119.4360213000591
 42
-0.414213562373095
 10
107.499846967381
 20
119.9360213000591
 10
111.5999271225892
 20
119.9360213010628
 42
0.414213562373095
 10
113.0999271210094
 20
121.4360212995248
 10
113.0999271225892
 20
125.3682188015969
 42
0.414213562373095
 10
111.5999271225892
 20
126.8682188015969
 10
110.8999997688497
 20
126.8682188015969
 42
0.414213562373095
 10
109.3999997688497
 20
125.3682188015969
 10
109.40000000079
 20
124.0682270904236
 42
-0.414213562373095
 10
108.90000000079
 20
123.5682270904236
 10
101.09999999921
 20
123.5682270888861
 42
-0.414213562373095
 10
100.6000000007898
 20
124.0682270904236
 10
100.5999997672698
 20
125.3682188000585
 42
0.414213562373095
 10
99.09999976884956
 20
126.8682188015969
 10
98.40007241352941
 20
126.8682188000585
 42
0.414213562373095
 10
96.90007241352941
 20
125.3682188000585
 10
96.90007241510921
 20
121.4360213010628
 42
0.414213562373095
 10
98.40007241510921
 20
119.9360213010628
 10
102.5001525671578
 20
119.9360213000591
 42
-0.414213562373095
 10
103.0001525671578
 20
119.4360213000591
  0
MTEXT
  5
2896
330
1B
100
AcDbEntity
 67
     1
  8
TEXTO
100
AcDbMText
 10
104.9999997680593
 20
146.8682187967615
 30
0.0
 40
3.0
 41
32.68045017555778
 71
     5
 72
     1
  1
{DIMENSÕES}
 73
     1
 44
1.0
1001
ACAD
1000
ACAD_MTEXT_DEFINED_HEIGHT_BEGIN
1070
    46
1040
3.051
1000
ACAD_MTEXT_DEFINED_HEIGHT_END
  0
MTEXT
  5
2897
102
{ACAD_XDICTIONARY
360
28DF
102
}
330
1B
100
AcDbEntity
 67
     1
  8
TEXTO
100
AcDbMText
 10
12.5
 20
169.9259780044278
 30
0.0
 40
1.5
 41
62.5
 71
     4
 72
     5
  1
APLICÁVEL NOS PERFIS:\P\PCHR-030/CHR-032/CHR-058/CHR-060
 73
     1
 44
1.0
1001
ACAD
1000
ACAD_MTEXT_DEFINED_HEIGHT_BEGIN
1070
    46
1040
7.155500000000001
1000
ACAD_MTEXT_DEFINED_HEIGHT_END
  0
LINE
  5
2898
330
1B
100
AcDbEntity
 67
     1
  8
LAYOUT
100
AcDbLine
 10
12.5
 20
208.0037280044278
 30
0.0
 11
72.5
 21
208.0037280044278
 31
0.0
  0
LINE
  5
2899
330
1B
100
AcDbEntity
 67
     1
  8
LAYOUT
100
AcDbLine
 10
12.5
 20
203.0037280044278
 30
0.0
 11
72.5
 21
203.0037280044278
 31
0.0
  0
LINE
  5
289A
330
1B
100
AcDbEntity
 67
     1
  8
LAYOUT
100
AcDbLine
 10
12.5
 20
198.0037280044278
 30
0.0
 11
72.5
 21
198.0037280044278
 31
0.0
  0
MTEXT
  5
289B
330
1B
100
AcDbEntity
 67
     1
  8
TEXTO
100
AcDbMText
 10
27.5
 20
205.5037280044278
 30
0.0
 40
2.0
 41
0.0
 71
     5
 72
     1
  1
{COMPONENTES}
 73
     1
 44
1.0
1001
ACAD
1000
ACAD_MTEXT_DEFINED_HEIGHT_BEGIN
1070
    46
1040
2.034
1000
ACAD_MTEXT_DEFINED_HEIGHT_END
  0
TEXT
  5
289C
330
1B
100
AcDbEntity
 67
     1
  8
TEXTO
100
AcDbText
 10
33.657
 20
209.5037280044278
 30
0.0
 40
2.0
  1
EMBALAGEM
 72
     1
 11
42.5
 21
210.5037280044278
 31
0.0
100
AcDbText
 73
     2
  0
TEXT
  5
289D
330
1B
100
AcDbEntity
 67
     1
  8
TEXTO
100
AcDbText
 10
52.45175
 20
204.7099780044278
 30
0.0
 40
1.5875
  1
M. PRIMA
 72
     1
 11
57.5
 21
205.5037280044278
 31
0.0
100
AcDbText
 73
     2
  0
TEXT
  5
289E
330
1B
100
AcDbEntity
 67
     1
  8
TEXTO
100
AcDbText
 10
51.97325
 20
199.7537280044278
 30
0.0
 40
1.5
  1
POLÍMERO
 72
     1
 11
57.5
 21
200.5037280044278
 31
0.0
100
AcDbText
 73
     2
  0
LINE
  5
289F
330
1B
100
AcDbEntity
 67
     1
  8
LAYOUT
100
AcDbLine
 10
22.5
 20
190.5037280044278
 30
0.0
 11
22.5
 21
175.5037280044278
 31
0.0
  0
LINE
  5
28A0
330
1B
100
AcDbEntity
 67
     1
  8
LAYOUT
100
AcDbLine
 10
32.5
 20
190.5037280044278
 30
0.0
 11
32.5
 21
175.5037280044278
 31
0.0
  0
LINE
  5
28A1
330
1B
100
AcDbEntity
 67
     1
  8
LAYOUT
100
AcDbLine
 10
12.5
 20
190.5037280044278
 30
0.0
 11
72.5
 21
190.5037280044278
 31
0.0
  0
LINE
  5
28A2
330
1B
100
AcDbEntity
 67
     1
  8
LAYOUT
100
AcDbLine
 10
12.5
 20
185.5037280044278
 30
0.0
 11
72.5
 21
185.5037280044278
 31
0.0
  0
MTEXT
  5
28A3
330
1B
100
AcDbEntity
 67
     1
  8
TEXTO
100
AcDbMText
 10
42.5
 20
193.0037280044278
 30
0.0
 40
1.5875
 41
0.0
 71
     5
 72
     1
  1
CODIFICAÇÃO
 73
     1
 44
1.0
  0
MTEXT
  5
28A4
330
1B
100
AcDbEntity
 67
     1
  8
TEXTO
100
AcDbMText
 10
17.5
 20
188.0037280044278
 30
0.0
 40
1.5875
 41
0.0
 71
     5
 72
     1
  1
COR
 73
     1
 44
1.0
  0
MTEXT
  5
28A5
330
1B
100
AcDbEntity
 67
     1
  8
TEXTO
100
AcDbMText
 10
27.5
 20
188.0037280044278
 30
0.0
 40
1.5875
 41
0.0
 71
     5
 72
     1
  1
{CÓDIGO}
 73
     1
 44
1.0
1001
ACAD
1000
ACAD_MTEXT_DEFINED_HEIGHT_BEGIN
1070
    46
1040
1.6144875
1000
ACAD_MTEXT_DEFINED_HEIGHT_END
  0
MTEXT
  5
28A6
330
1B
100
AcDbEntity
 67
     1
  8
TEXTO
100
AcDbMText
 10
45.0
 20
188.0037280044278
 30
0.0
 40
1.5875
 41
0.0
 71
     5
 72
     1
  1
CATÁLOGO
 73
     1
 44
1.0
  0
LINE
  5
28A7
330
1B
100
AcDbEntity
 67
     1
  8
LAYOUT
100
AcDbLine
 10
57.5
 20
175.5037280044278
 30
0.0
 11
57.5
 21
190.5037280044278
 31
0.0
  0
MTEXT
  5
28A8
330
1B
100
AcDbEntity
 67
     1
  8
TEXTO
100
AcDbMText
 10
65.0
 20
188.0037280044278
 30
0.0
 40
1.5875
 41
0.0
 71
     5
 72
     1
  1
{SISTEMISTA}
 73
     1
 44
1.0
1001
ACAD
1000
ACAD_MTEXT_DEFINED_HEIGHT_BEGIN
1070
    46
1040
1.6144875
1000
ACAD_MTEXT_DEFINED_HEIGHT_END
  0
LINE
  5
28A9
330
1B
100
AcDbEntity
 67
     1
  8
LAYOUT
100
AcDbLine
 10
12.5
 20
180.5037280044278
 30
0.0
 11
57.5
 21
180.5037280044278
 31
0.0
  0
LWPOLYLINE
  5
28AA
330
1B
100
AcDbEntity
 67
     1
  8
LAYOUT
100
AcDbPolyline
 90
        4
 70
     1
 43
0.0
 10
12.5
 20
175.5037280044278
 10
72.5
 20
175.5037280044278
 10
72.5
 20
195.5037280044278
 10
12.5
 20
195.5037280044278
  0
TEXT
  5
28AB
330
1B
100
AcDbEntity
 67
     1
  8
TEXTO
100
AcDbText
 10
15.406
 20
182.2537280044278
 30
0.0
 40
1.5
  1
PRT
 72
     1
 11
17.5
 21
183.0037280044278
 31
0.0
100
AcDbText
 73
     2
  0
TEXT
  5
28AC
330
1B
100
AcDbEntity
 67
     1
  8
TEXTO
100
AcDbText
 10
15.406
 20
177.2537280044278
 30
0.0
 40
1.5
  1
PRT
 72
     1
 11
17.5
 21
178.0037280044278
 31
0.0
100
AcDbText
 73
     2
  0
TEXT
  5
28AD
330
1B
100
AcDbEntity
 67
     1
  8
TEXTO
100
AcDbText
 10
23.426
 20
182.2537280044278
 30
0.0
 40
1.5
  1
9206132
 72
     1
 11
27.5
 21
183.0037280044278
 31
0.0
100
AcDbText
 73
     2
  0
TEXT
  5
28AE
330
1B
100
AcDbEntity
 67
     1
  8
TEXTO
100
AcDbText
 10
23.426
 20
177.2537280044278
 30
0.0
 40
1.5
  1
9203855
 72
     1
 11
27.5
 21
178.0037280044278
 31
0.0
100
AcDbText
 73
     2
  0
TEXT
  5
28AF
330
1B
100
AcDbEntity
 67
     1
  8
TEXTO
100
AcDbText
 10
37.31925
 20
182.2537280044278
 30
0.0
 40
1.5
  1
CALNYL394E10
 72
     1
 11
45.0
 21
183.0037280044278
 31
0.0
100
AcDbText
 73
     2
  0
TEXT
  5
28B0
330
1B
100
AcDbEntity
 67
     1
  8
TEXTO
100
AcDbText
 10
37.90125
 20
177.2537280044278
 30
0.0
 40
1.5
  1
CALNYL394E4
 72
     1
 11
45.0
 21
178.0037280044278
 31
0.0
100
AcDbText
 73
     2
  0
TEXT
  5
28B1
330
1B
100
AcDbEntity
 67
     1
  8
TEXTO
100
AcDbText
 10
60.869
 20
179.7537280044278
 30
0.0
 40
1.5
  1
NYL-394
 72
     1
 11
65.0
 21
180.5037280044278
 31
0.0
100
AcDbText
 73
     2
  0
TEXT
  5
28B2
330
1B
100
AcDbEntity
 67
     1
  8
TEXTO
100
AcDbText
 10
21.10175
 20
199.7537280044278
 30
0.0
 40
1.5
  1
ESTRUTURA
 72
     1
 11
27.5
 21
200.5037280044278
 31
0.0
100
AcDbText
 73
     2
  0
INSERT
  5
28B3
330
1B
100
AcDbEntity
 67
     1
  8
PERFIS
100
AcDbBlockReference
  2
CHR-002
 10
86.4115462478685
 20
170.9798389658527
 30
0.0
  0
INSERT
  5
28B4
330
1B
100
AcDbEntity
 67
     1
  8
PERFIS
100
AcDbBlockReference
  2
CHR-004
 10
111.488456415166
 20
196.2298389658552
 30
0.0
  0
INSERT
  5
28B5
330
1B
100
AcDbEntity
 67
     1
  8
PERFIS
100
AcDbBlockReference
  2
CHR-004
 10
163.4884564958185
 20
196.2298389658552
 30
0.0
 41
-1.0
  0
INSERT
  5
28B6
330
1B
100
AcDbEntity
 67
     1
  8
PERFIS
100
AcDbBlockReference
  2
CHR-030
 10
145.1960595164392
 20
191.9167409442547
 30
0.0
  0
INSERT
  5
28B7
330
1B
100
AcDbEntity
 67
     1
  8
PRODUTO
100
AcDbBlockReference
  2
NYL-394
 10
154.7883732589495
 20
206.9069311515305
 30
0.0
 41
2.0
 42
2.0
 43
2.0
  0
INSERT
  5
28B8
330
1B
100
AcDbEntity
 67
     1
  8
OUTROS_COMPONENTES
100
AcDbBlockReference
  2
FIT-223
 10
146.8358678602007
 20
193.466740944254
 30
0.0
  0
INSERT
  5
28B9
330
1B
100
AcDbEntity
 67
     1
  8
OUTROS_COMPONENTES
100
AcDbBlockReference
  2
FIT-223
 10
172.5561511664627
 20
193.466740944254
 30
0.0
 41
-1.0
  0
MTEXT
  5
28BA
330
1B
100
AcDbEntity
 67
     1
  8
TEXTO
100
AcDbMText
 10
135.0
 20
162.4338695524087
 30
0.0
 40
3.0
 41
32.68045017555778
 71
     5
 72
     1
  1
{ESCALA 1:1}
 73
     1
 44
1.0
1001
ACAD
1000
ACAD_MTEXT_DEFINED_HEIGHT_BEGIN
1070
    46
1040
3.051
1000
ACAD_MTEXT_DEFINED_HEIGHT_END
  0
LINE
  5
28BB
330
1B
100
AcDbEntity
 67
     1
  8
PRODUTO
100
AcDbLine
 10
92.84989639655396
 20
75.20062007421762
 30
0.0
 11
117.1501559625804
 21
75.20062007421762
 31
0.0
  0
LINE
  5
28BC
330
1B
100
AcDbEntity
 67
     1
  8
PRODUTO
100
AcDbLine
 10
117.1501559625804
 20
40.2006255187203
 30
0.0
 11
92.84989639655396
 21
40.2006255187203
 31
0.0
  0
LINE
  5
28BD
330
1B
100
AcDbEntity
 67
     1
  8
PRODUTO
100
AcDbLine
 10
92.84989639655396
 20
40.2006255187203
 30
0.0
 11
92.84989639655396
 21
75.20062007421762
 31
0.0
  0
LINE
  5
28BE
330
1B
100
AcDbEntity
 67
     1
  8
PRODUTO
100
AcDbLine
 10
117.1501559625804
 20
40.2006255187203
 30
0.0
 11
117.1501559625804
 21
75.20062007421762
 31
0.0
  0
LINE
  5
28BF
330
1B
100
AcDbEntity
 67
     1
  8
PRODUTO
100
AcDbLine
 10
101.1000000007898
 20
75.20062007421762
 30
0.0
 11
101.1000000007898
 21
40.2006255187203
 31
0.0
  0
LINE
  5
28C0
330
1B
100
AcDbEntity
 67
     1
  8
PRODUTO
100
AcDbLine
 10
108.90000000079
 20
75.20062007421762
 30
0.0
 11
108.90000000079
 21
40.2006255187203
 31
0.0
  0
DIMENSION
  5
28C1
330
1B
100
AcDbEntity
 67
     1
  8
COTAS
100
AcDbDimension
  2
*D30
 10
127.1502793198897
 20
91.36820254459302
 30
0.0
 11
127.1502793198897
 21
109.1183090388287
 31
0.0
 70
   128
 71
     5
 42
35.50021298847129
 52
-90.0
  3
1-1
100
AcDbAlignedDimension
 13
111.6000016884645
 23
126.8684155330643
 33
0.0
 14
113.8501784793325
 24
91.36820254459302
 34
0.0
 50
90.00000000000001
100
AcDbRotatedDimension
1001
ACAD
1000
DSTYLE
1002
{
1070
   271
1070
     1
1002
}
  0
DIMENSION
  5
28C2
330
1B
100
AcDbEntity
 67
     1
  8
COTAS
100
AcDbDimension
  2
*D31
 10
127.1501559625805
 20
75.20062007421762
 30
0.0
 11
127.1501559625805
 21
57.70066553306384
 31
0.0
 70
   128
 71
     5
 42
34.99999455549732
  3
1-1
100
AcDbAlignedDimension
 13
117.1501559625804
 23
40.2006255187203
 33
0.0
 14
117.1501559625804
 24
75.20062007421762
 34
0.0
 50
-90.00000000000001
100
AcDbRotatedDimension
  0
DIMENSION
  5
28C3
330
1B
100
AcDbEntity
 67
     1
  8
COTAS
100
AcDbDimension
  2
*D32
 10
117.1501983131166
 20
30.2006255187203
 30
0.0
 11
104.9999636120438
 21
30.2006255187203
 31
0.0
 70
   128
 71
     5
 42
24.30029999999988
 52
-270.0
  3
1-1
100
AcDbAlignedDimension
 13
92.84989831311668
 23
40.2007155330644
 33
0.0
 14
117.1501983131166
 24
40.2006155330651
 34
0.0
 50
180.0
100
AcDbRotatedDimension
  0
MTEXT
  5
28C4
330
1B
100
AcDbEntity
 67
     1
  8
TEXTO
100
AcDbMText
 10
105.0000483131166
 20
25.2006255187203
 30
0.0
 40
3.0
 41
58.87859140889027
 71
     5
 72
     1
  1
{{\C7;ESCALA 1 : 1}}
  7
Style-Arial
 73
     1
 44
1.0
1001
ACAD
1000
ACAD_MTEXT_DEFINED_HEIGHT_BEGIN
1070
    46
1040
3.051
1000
ACAD_MTEXT_DEFINED_HEIGHT_END
  0
DIMENSION
  5
28C5
330
1B
100
AcDbEntity
 67
     1
  8
COTAS
100
AcDbDimension
  2
*D33
 10
113.0999271225892
 20
136.8682187967615
 30
0.0
 11
104.9999997680593
 21
138.6444687967615
 31
0.0
 71
     5
 42
16.19985470905976
  3
1-1
100
AcDbAlignedDimension
 13
96.90007241352941
 23
125.3682188000585
 33
0.0
 14
113.0999271225892
 24
125.3682188015969
 34
0.0
100
AcDbRotatedDimension
1001
ACAD
1000
DSTYLE
1002
{
1070
   271
1070
     1
1002
}
  0
DIMENSION
  5
28C6
330
1B
100
AcDbEntity
 67
     1
  8
COTAS
100
AcDbDimension
  2
*D34
 10
112.1001784821892
 20
81.36820254459289
 30
0.0
 11
105.0001254486492
 21
83.12320254459289
 31
0.0
 71
     5
 42
14.20010606708001
  3
1-1
100
AcDbAlignedDimension
 13
97.90007241510921
 23
94.18560178142393
 33
0.0
 14
112.1001784821892
 24
94.18560178142393
 34
0.0
100
AcDbRotatedDimension
1001
ACAD
1000
DSTYLE
1002
{
1070
   271
1070
     1
1002
}
  0
DIMENSION
  5
28C7
330
1B
100
AcDbEntity
 67
     1
  8
COTAS
100
AcDbDimension
  2
*D35
 10
82.84997157297221
 20
100.1838184402946
 30
0.0
 11
82.84997157297221
 21
113.509215533064
 31
0.0
 70
   128
 71
     5
 42
26.68459709276969
  3
1-1
100
AcDbAlignedDimension
 13
98.39999831311525
 23
126.8684155330643
 33
0.0
 14
105.0001525385887
 24
100.1838184402946
 34
0.0
 50
90.0
100
AcDbRotatedDimension
1001
ACAD
1000
DSTYLE
1002
{
1070
   271
1070
     1
1002
}
  0
LWPOLYLINE
  5
28C8
330
1B
100
AcDbEntity
 67
     1
  8
PRODUTO
100
AcDbPolyline
 90
       51
 70
     0
 43
0.0
 10
103.0000724151087
 20
119.4360213010628
 10
103.0001525671578
 20
106.6908188005928
 42
-0.414213562373095
 10
100.0001525671578
 20
103.6908188005928
 10
97.85007241510903
 20
103.6908188015969
 10
93.84997157585076
 20
103.6908188015969
 42
0.414213562373095
 10
92.84997157297221
 20
102.6908188000585
 42
0.414213562373095
 10
93.84997157297221
 20
101.6908188000585
 10
95.55007241510884
 20
101.6908188015964
 42
-0.414213562373095
 10
95.85007241510903
 20
101.3908188015971
 10
95.85007241510903
 20
100.4908213010627
 10
95.85007241352935
 20
91.66820254459302
 42
0.5806155533668966
 10
96.30260663519402
 20
91.40987463045822
 42
0.2653298240291602
 10
97.90015256623383
 20
94.20834958899482
 10
97.90015256715833
 20
97.54922177219262
 42
-0.3394535544710885
 10
98.64133108169415
 20
98.51514694458552
 10
104.7413468297408
 20
100.149747832269
 42
-0.1316607909016847
 10
105.2589570727183
 20
100.1497481628131
 10
111.3589040631215
 20
98.51515116416702
 42
-0.3394581000251232
 10
112.1000983257045
 20
97.54922177219262
 10
112.1000983266282
 20
94.20834958470903
 42
0.2653298240291602
 10
113.6976442576679
 20
91.40987463045822
 42
0.5806155533668966
 10
114.1501784793325
 20
91.66820254459302
 10
114.1501784821894
 20
100.4908213010627
 10
114.1501784793329
 20
101.3908188000583
 42
-0.414213562373095
 10
114.4501784821887
 20
101.6908188015964
 10
116.1502793214477
 20
101.6908188015964
 42
0.414213562373095
 10
117.1502793198897
 20
102.6908188000585
 42
0.414213562373095
 10
116.1502793214477
 20
103.6908188015969
 10
112.1501784821894
 20
103.6908188015969
 10
110.0000983257041
 20
103.6908188005928
 42
-0.414213562373095
 10
107.0000983257041
 20
106.6908188005928
 10
106.999846967381
 20
119.4360213000591
 42
-0.414213562373095
 10
107.499846967381
 20
119.9360213000591
 10
111.5999271225892
 20
119.9360213010628
 42
0.414213562373095
 10
113.0999271210094
 20
121.4360212995248
 10
113.0999271225892
 20
125.3682188015969
 42
0.414213562373095
 10
111.5999271225892
 20
126.8682188015969
 10
110.8999997688497
 20
126.8682188015969
 42
0.414213562373095
 10
109.3999997688497
 20
125.3682188015969
 10
109.40000000079
 20
124.0682270904236
 42
-0.414213562373095
 10
108.90000000079
 20
123.5682270904236
 10
101.09999999921
 20
123.5682270888861
 42
-0.414213562373095
 10
100.6000000007898
 20
124.0682270904236
 10
100.5999997672698
 20
125.3682188000585
 42
0.414213562373095
 10
99.09999976884956
 20
126.8682188015969
 10
98.40007241352941
 20
126.8682188000585
 42
0.414213562373095
 10
96.90007241352941
 20
125.3682188000585
 10
96.90007241510921
 20
121.4360213010628
 42
0.414213562373095
 10
98.40007241510921
 20
119.9360213010628
 10
102.5001525671578
 20
119.9360213000591
 42
-0.414213562373095
 10
103.0001525671578
 20
119.4360213000591
  0
MTEXT
  5
28C9
330
1B
100
AcDbEntity
 67
     1
  8
TEXTO
100
AcDbMText
 10
104.9999997680593
 20
146.8682187967615
 30
0.0
 40
3.0
 41
32.68045017555778
 71
     5
 72
     1
  1
{DIMENSÕES}
 73
     1
 44
1.0
1001
ACAD
1000
ACAD_MTEXT_DEFINED_HEIGHT_BEGIN
1070
    46
1040
3.051
1000
ACAD_MTEXT_DEFINED_HEIGHT_END
  0
LWPOLYLINE
  5
28CA
330
1B
100
AcDbEntity
 67
     1
  8
LAYOUT
100
AcDbPolyline
 90
        4
 70
     0
 43
0.0
 10
12.5
 20
198.0037280044278
 10
12.5
 20
213.0037280044278
 10
72.5
 20
213.0037280044278
 10
72.5
 20
198.0037280044278
  0
LINE
  5
28CB
330
1B
100
AcDbEntity
 67
     1
  8
LAYOUT
100
AcDbLine
 10
42.5
 20
208.0037280044278
 30
0.0
 11
42.5
 21
198.0037280044278
 31
0.0
  0
MTEXT
  5
28CC
102
{ACAD_XDICTIONARY
360
28E2
102
}
330
1B
100
AcDbEntity
 67
     1
  8
TEXTO
100
AcDbMText
 10
12.5
 20
169.9259780044278
 30
0.0
 40
1.5
 41
62.5
 71
     4
 72
     5
  1
APLICÁVEL NOS PERFIS:\P\PCHR-030/CHR-032/CHR-058/CHR-060
 73
     1
 44
1.0
1001
ACAD
1000
ACAD_MTEXT_DEFINED_HEIGHT_BEGIN
1070
    46
1040
7.155500000000001
1000
ACAD_MTEXT_DEFINED_HEIGHT_END
  0
INSERT
  5
28CD
330
1B
100
AcDbEntity
 67
     1
  8
LAYOUT
100
AcDbBlockReference
 66
     1
  2
CATÁLOGO
 10
0.0
 20
0.0000000000014211
 30
0.0
  0
ATTRIB
  5
28CE
330
28CD
100
AcDbEntity
 67
     1
  8
TEXTO
100
AcDbText
 10
91.67923079339245
 20
276.5
 30
0.0
 40
4.0
  1
CALÇO NYL394
 72
     1
 11
112.1592307933925
 21
278.5
 31
0.0
100
AcDbAttribute
  2
DESCRIÇÃO
 70
     0
 74
     2
  0
ATTRIB
  5
28CF
330
28CD
100
AcDbEntity
 67
     1
  8
TEXTO
100
AcDbText
 10
15.26125
 20
25.2499999999996
 30
0.0
 40
2.5
  1
PORTA E JANELA
 72
     1
 11
30.0
 21
26.4999999999996
 31
0.0
100
AcDbAttribute
  2
APLICAÇÃO1
 70
     0
 74
     2
  0
ATTRIB
  5
28D0
330
28CD
100
AcDbEntity
 67
     1
  8
TEXTO
100
AcDbText
 10
19.53
 20
19.2499999999996
 30
0.0
 40
2.5
  1
DE CORRER
 72
     1
 11
30.0
 21
20.4999999999996
 31
0.0
100
AcDbAttribute
  2
APLICAÇÃO2
 70
     0
 74
     2
  0
ATTRIB
  5
28D1
330
28CD
100
AcDbEntity
 67
     1
  8
TEXTO
100
AcDbText
 10
22.245
 20
13.2499999999996
 30
0.0
 40
2.5
  1
CHROMA
 72
     1
 11
30.0
 21
14.4999999999996
 31
0.0
100
AcDbAttribute
  2
LINHA
 70
     0
 74
     2
  0
ATTRIB
  5
28D2
330
28CD
100
AcDbEntity
 67
     1
  8
LAYOUT
100
AcDbText
 10
195.0
 20
4.999999999999602
 30
0.0
 40
2.5
  1
1/1
100
AcDbAttribute
  2
1/1
 70
     0
  0
SEQEND
  5
28D3
330
28CD
100
AcDbEntity
 67
     1
  8
TEXTO
  0
LINE
  5
28D4
330
1B
100
AcDbEntity
 67
     1
  8
CENTRO
100
AcDbLine
 10
105.0
 20
39.7006255187203
 30
0.0
 11
105.0
 21
75.70062007421762
 31
0.0
  0
LINE
  5
28D5
330
1B
100
AcDbEntity
 67
     1
  8
CENTRO
100
AcDbLine
 10
105.0
 20
124.0682270896548
 30
0.0
 11
105.0
 21
99.70141790854242
 31
0.0
  0
ENDSEC
  0
SECTION
  2
OBJECTS
  0
DICTIONARY
  5
C
330
0
100
AcDbDictionary
281
     1
  3
ACAD_DETAILVIEWSTYLE
350
B5
  3
ACAD_GROUP
350
D
  3
ACAD_IMAGE_VARS
350
6A
  3
ACAD_LAYOUT
350
1DF1
  3
ACAD_MLINESTYLE
350
17
  3
ACAD_PLOTSETTINGS
350
1DCC
  3
ACAD_PLOTSTYLENAME
350
1DCD
  3
ACAD_SCALELIST
350
1DCF
  3
ACAD_SECTIONVIEWSTYLE
350
B6
  3
ACDB_RECOMPOSE_DATA
350
28E5
  3
ACDBVARIABLEDICTIONARY
350
3D
  3
APPDATA
350
71
  3
CENTERLINE
350
534
  3
DIMOFFSETDICTIONARY
350
52A
  3
DWGPROPS
350
28DE
  0
DICTIONARY
  5
12A
330
2
100
AcDbDictionary
280
     1
281
     1
  3
ACAD_LAYERSTATES
360
12B
  3
ACLYDICTIONARY
360
AAF
  0
DICTIONARY
  5
2673
330
2672
100
AcDbDictionary
280
     1
281
     1
  3
ACAD_SORTENTS
360
2674
  0
DICTIONARY
  5
267A
330
2679
100
AcDbDictionary
280
     1
281
     1
  3
ACAD_SORTENTS
360
267B
  0
DICTIONARY
  5
2699
330
2698
100
AcDbDictionary
280
     1
281
     1
  3
ACAD_SORTENTS
360
269A
  0
DICTIONARY
  5
26D6
330
26D5
100
AcDbDictionary
280
     1
281
     1
  3
ACAD_SORTENTS
360
26D7
  0
DICTIONARY
  5
28DF
330
2897
100
AcDbDictionary
280
     1
281
     1
  3
ACAD_MTEXT_2008_RT
360
28E0
  3
ACAD_MTEXT_RT
360
28E1
  0
DICTIONARY
  5
28E2
330
28CC
100
AcDbDictionary
280
     1
281
     1
  3
ACAD_MTEXT_2008_RT
360
28E3
  3
ACAD_MTEXT_RT
360
28E4
  0
DICTIONARY
  5
B5
102
{ACAD_REACTORS
330
C
102
}
330
C
100
AcDbDictionary
281
     1
  0
DICTIONARY
  5
D
102
{ACAD_REACTORS
330
C
102
}
330
C
100
AcDbDictionary
281
     1
  0
RASTERVARIABLES
  5
6A
102
{ACAD_REACTORS
330
C
102
}
330
C
100
AcDbRasterVariables
 90
        0
 70
     1
 71
     1
 72
     1
  0
DICTIONARY
  5
1DF1
102
{ACAD_REACTORS
330
C
102
}
330
C
100
AcDbDictionary
281
     1
  3
Model
350
1DF2
  3
Sheet 1
350
1DF3
  0
DICTIONARY
  5
17
102
{ACAD_REACTORS
330
C
102
}
330
C
100
AcDbDictionary
281
     1
  3
STANDARD
350
18
  0
DICTIONARY
  5
1DCC
102
{ACAD_REACTORS
330
C
102
}
330
C
100
AcDbDictionary
281
     1
  0
ACDBDICTIONARYWDFLT
  5
1DCD
102
{ACAD_REACTORS
330
C
102
}
330
C
100
AcDbDictionary
281
     1
  3
Normal
350
1DCE
100
AcDbDictionaryWithDefault
340
1DCE
  0
DICTIONARY
  5
1DCF
102
{ACAD_REACTORS
330
C
102
}
330
C
100
AcDbDictionary
281
     1
  3
A0
350
1DD0
  3
A1
350
1DD1
  3
A2
350
1DD2
  3
A3
350
1DD3
  3
A4
350
1DD4
  3
A5
350
1DD5
  3
A6
350
1DD6
  3
A7
350
1DD7
  3
A8
350
1DD8
  3
A9
350
1DD9
  3
B0
350
1DDA
  3
B1
350
1DDB
  3
B2
350
1DDC
  3
B3
350
1DDD
  3
B4
350
1DDE
  3
B5
350
1DDF
  3
B6
350
1DE0
  3
B7
350
1DE1
  3
B8
350
1DE2
  3
B9
350
1DE3
  3
C0
350
1DE4
  3
C1
350
1DE5
  3
C2
350
1DE6
  3
C3
350
1DE7
  3
C4
350
1DE8
  3
C5
350
1DE9
  3
C6
350
1DEA
  3
C7
350
1DEB
  3
C8
350
1DEC
  3
C9
350
1DED
  3
D0
350
1DEE
  3
D1
350
1DEF
  3
D2
350
1DF0
  0
DICTIONARY
  5
B6
102
{ACAD_REACTORS
330
C
102
}
330
C
100
AcDbDictionary
281
     1
  0
XRECORD
  5
28E5
102
{ACAD_REACTORS
330
C
102
}
330
C
100
AcDbXrecord
280
     1
 90
        1
330
28CC
330
2897
  0
DICTIONARY
  5
3D
102
{ACAD_REACTORS
330
C
102
}
330
C
100
AcDbDictionary
281
     1
  0
DICTIONARY
  5
71
102
{ACAD_REACTORS
330
C
102
}
330
C
100
AcDbDictionary
281
     1
  0
DICTIONARY
  5
534
102
{ACAD_REACTORS
330
C
102
}
330
C
100
AcDbDictionary
281
     1
  3
CLEXTENSION
350
5E7
  0
DICTIONARY
  5
52A
102
{ACAD_REACTORS
330
C
102
}
330
C
100
AcDbDictionary
281
     1
  3
DIMRAILANGLE
350
5E5
  3
DIMRAILFIRSTOFFSET
350
5E3
  3
DIMRAILOFFSET
350
5E4
  3
DIMRAILSENABLED
350
9A2
  0
XRECORD
  5
28DE
102
{ACAD_REACTORS
330
C
102
}
330
C
100
AcDbXrecord
280
     1
  1
DWGPROPS COOKIE
  2

  3

  4

  6

  7

  8
andbr2
  9

300
=
301
=
302
=
303
=
304
=
305
=
306
=
307
=
308
=
309
=
 40
0.0
 41
2455022.679026158
 42
2458724.448563831
  1

 90
        0
  0
DICTIONARY
  5
12B
102
{ACAD_REACTORS
330
12A
102
}
330
12A
100
AcDbDictionary
281
     1
  0
DICTIONARY
  5
AAF
102
{ACAD_REACTORS
330
12A
102
}
330
12A
100
AcDbDictionary
281
     1
1001
ACAD
1000
<All
  0
SORTENTSTABLE
  5
2674
102
{ACAD_REACTORS
330
2673
102
}
330
2673
100
AcDbSortentsTable
330
2672
  0
SORTENTSTABLE
  5
267B
102
{ACAD_REACTORS
330
267A
102
}
330
267A
100
AcDbSortentsTable
330
2679
  0
SORTENTSTABLE
  5
269A
102
{ACAD_REACTORS
330
2699
102
}
330
2699
100
AcDbSortentsTable
330
2698
  0
SORTENTSTABLE
  5
26D7
102
{ACAD_REACTORS
330
26D6
102
}
330
26D6
100
AcDbSortentsTable
330
26D5
  0
XRECORD
  5
28E0
102
{ACAD_REACTORS
330
28DF
102
}
330
28DF
100
AcDbXrecord
280
     1
 40
164136.0
  1
{\pxt2;APLICÁVEL NOS PERFIS:\P\PCHR-030/CHR-032/CHR-058/CHR-060}
  0
XRECORD
  5
28E1
102
{ACAD_REACTORS
330
28DF
102
}
330
28DF
100
AcDbXrecord
280
     1
 40
97192.0
  1
\pt2;APLICÁVEL NOS PERFIS:\P\pt2;\P\pt2;CHR-030/CHR-032/CHR-058/CHR-060
  0
XRECORD
  5
28E3
102
{ACAD_REACTORS
330
28E2
102
}
330
28E2
100
AcDbXrecord
280
     1
 40
164136.0
  1
{\pxt2;APLICÁVEL NOS PERFIS:\P\PCHR-030/CHR-032/CHR-058/CHR-060}
  0
XRECORD
  5
28E4
102
{ACAD_REACTORS
330
28E2
102
}
330
28E2
100
AcDbXrecord
280
     1
 40
97192.0
  1
\pt2;APLICÁVEL NOS PERFIS:\P\pt2;\P\pt2;CHR-030/CHR-032/CHR-058/CHR-060
  0
LAYOUT
  5
1DF2
102
{ACAD_REACTORS
330
1DF1
102
}
330
1DF1
100
AcDbPlotSettings
  1

  2
none_device
  4
Letter_(8.50_x_11.00_Inches)
  6

 40
6.35
 41
6.35
 42
6.35
 43
6.35
 44
215.9
 45
279.4
 46
0.0
 47
0.0
 48
0.0
 49
0.0
140
0.0
141
0.0
142
1.0
143
166.8588277999299
 70
  1712
 72
     0
 73
     0
 74
     0
  7

 75
     0
147
0.0059930901660117
148
9620.167904271002
149
3981.313347295405
100
AcDbLayout
  1
Model
 70
     1
 71
     0
 10
0.0
 20
0.0
 11
420.0
 21
297.0
 12
0.0
 22
0.0
 32
0.0
 14
1.000000000000000E+20
 24
1.000000000000000E+20
 34
1.000000000000000E+20
 15
-1.000000000000000E+20
 25
-1.000000000000000E+20
 35
-1.000000000000000E+20
146
0.0
 13
0.0
 23
0.0
 33
0.0
 16
1.0
 26
0.0
 36
0.0
 17
0.0
 27
1.0
 37
0.0
 76
     0
330
1F
331
29
  0
LAYOUT
  5
1DF3
102
{ACAD_REACTORS
330
1DF1
102
}
330
1DF1
100
AcDbPlotSettings
  1

  2
none_device
  4
ISO_A3_(420.00_x_297.00_MM)
  6

 40
7.5
 41
20.0
 42
7.5
 43
20.0
 44
420.0
 45
297.0
 46
0.0
 47
0.0
 48
0.0
 49
0.0
140
0.0
141
0.0
142
1.0
143
1.23346303501945
 70
   688
 72
     1
 73
     0
 74
     1
  7

 75
     0
147
0.8107255520504768
148
0.0
149
0.0
100
AcDbLayout
  1
Sheet 1
 70
     1
 71
     1
 10
-0.0000000000000568
 20
-0.0000000000007105
 11
209.9999999999999
 21
296.9999999999993
 12
0.0
 22
0.0
 32
0.0
 14
0.0
 24
0.0
 34
0.0
 15
210.0
 25
297.0000000000001
 35
0.0
146
0.0
 13
0.0
 23
0.0
 33
0.0
 16
1.0
 26
0.0
 36
0.0
 17
0.0
 27
1.0
 37
0.0
 76
     0
330
1B
331
1A4D
  0
MLINESTYLE
  5
18
102
{ACAD_REACTORS
330
17
102
}
330
17
100
AcDbMlineStyle
  2
Standard
 70
     0
  3

 62
   256
 51
90.0
 52
90.0
 71
     2
 49
0.5
 62
   256
  6
BYLAYER
 49
-0.5
 62
   256
  6
BYLAYER
  0
ACDBPLACEHOLDER
  5
1DCE
102
{ACAD_REACTORS
330
1DCD
102
}
330
1DCD
  0
SCALE
  5
1DD0
102
{ACAD_REACTORS
330
1DCF
102
}
330
1DCF
100
AcDbScale
 70
     0
300
1:1
140
1.0
141
1.0
290
     1
  0
SCALE
  5
1DD1
102
{ACAD_REACTORS
330
1DCF
102
}
330
1DCF
100
AcDbScale
 70
     0
300
1:2
140
1.0
141
2.0
290
     0
  0
SCALE
  5
1DD2
102
{ACAD_REACTORS
330
1DCF
102
}
330
1DCF
100
AcDbScale
 70
     0
300
1:4
140
1.0
141
4.0
290
     0
  0
SCALE
  5
1DD3
102
{ACAD_REACTORS
330
1DCF
102
}
330
1DCF
100
AcDbScale
 70
     0
300
1:5
140
1.0
141
5.0
290
     0
  0
SCALE
  5
1DD4
102
{ACAD_REACTORS
330
1DCF
102
}
330
1DCF
100
AcDbScale
 70
     0
300
1:8
140
1.0
141
8.0
290
     0
  0
SCALE
  5
1DD5
102
{ACAD_REACTORS
330
1DCF
102
}
330
1DCF
100
AcDbScale
 70
     0
300
1:10
140
1.0
141
10.0
290
     0
  0
SCALE
  5
1DD6
102
{ACAD_REACTORS
330
1DCF
102
}
330
1DCF
100
AcDbScale
 70
     0
300
1:16
140
1.0
141
16.0
290
     0
  0
SCALE
  5
1DD7
102
{ACAD_REACTORS
330
1DCF
102
}
330
1DCF
100
AcDbScale
 70
     0
300
1:20
140
1.0
141
20.0
290
     0
  0
SCALE
  5
1DD8
102
{ACAD_REACTORS
330
1DCF
102
}
330
1DCF
100
AcDbScale
 70
     0
300
1:30
140
1.0
141
30.0
290
     0
  0
SCALE
  5
1DD9
102
{ACAD_REACTORS
330
1DCF
102
}
330
1DCF
100
AcDbScale
 70
     0
300
1:40
140
1.0
141
40.0
290
     0
  0
SCALE
  5
1DDA
102
{ACAD_REACTORS
330
1DCF
102
}
330
1DCF
100
AcDbScale
 70
     0
300
1:50
140
1.0
141
50.0
290
     0
  0
SCALE
  5
1DDB
102
{ACAD_REACTORS
330
1DCF
102
}
330
1DCF
100
AcDbScale
 70
     0
300
1:100
140
1.0
141
100.0
290
     0
  0
SCALE
  5
1DDC
102
{ACAD_REACTORS
330
1DCF
102
}
330
1DCF
100
AcDbScale
 70
     0
300
2:1
140
2.0
141
1.0
290
     0
  0
SCALE
  5
1DDD
102
{ACAD_REACTORS
330
1DCF
102
}
330
1DCF
100
AcDbScale
 70
     0
300
4:1
140
4.0
141
1.0
290
     0
  0
SCALE
  5
1DDE
102
{ACAD_REACTORS
330
1DCF
102
}
330
1DCF
100
AcDbScale
 70
     0
300
8:1
140
8.0
141
1.0
290
     0
  0
SCALE
  5
1DDF
102
{ACAD_REACTORS
330
1DCF
102
}
330
1DCF
100
AcDbScale
 70
     0
300
10:1
140
10.0
141
1.0
290
     0
  0
SCALE
  5
1DE0
102
{ACAD_REACTORS
330
1DCF
102
}
330
1DCF
100
AcDbScale
 70
     0
300
100:1
140
100.0
141
1.0
290
     0
  0
SCALE
  5
1DE1
102
{ACAD_REACTORS
330
1DCF
102
}
330
1DCF
100
AcDbScale
 70
     0
300
1/128" = 1'-0"
140
0.0078125
141
12.0
290
     0
  0
SCALE
  5
1DE2
102
{ACAD_REACTORS
330
1DCF
102
}
330
1DCF
100
AcDbScale
 70
     0
300
1/64" = 1'-0"
140
0.015625
141
12.0
290
     0
  0
SCALE
  5
1DE3
102
{ACAD_REACTORS
330
1DCF
102
}
330
1DCF
100
AcDbScale
 70
     0
300
1/32" = 1'-0"
140
0.03125
141
12.0
290
     0
  0
SCALE
  5
1DE4
102
{ACAD_REACTORS
330
1DCF
102
}
330
1DCF
100
AcDbScale
 70
     0
300
1/16" = 1'-0"
140
0.0625
141
12.0
290
     0
  0
SCALE
  5
1DE5
102
{ACAD_REACTORS
330
1DCF
102
}
330
1DCF
100
AcDbScale
 70
     0
300
3/32" = 1'-0"
140
0.09375
141
12.0
290
     0
  0
SCALE
  5
1DE6
102
{ACAD_REACTORS
330
1DCF
102
}
330
1DCF
100
AcDbScale
 70
     0
300
1/8" = 1'-0"
140
0.125
141
12.0
290
     0
  0
SCALE
  5
1DE7
102
{ACAD_REACTORS
330
1DCF
102
}
330
1DCF
100
AcDbScale
 70
     0
300
3/16" = 1'-0"
140
0.1875
141
12.0
290
     0
  0
SCALE
  5
1DE8
102
{ACAD_REACTORS
330
1DCF
102
}
330
1DCF
100
AcDbScale
 70
     0
300
1/4" = 1'-0"
140
0.25
141
12.0
290
     0
  0
SCALE
  5
1DE9
102
{ACAD_REACTORS
330
1DCF
102
}
330
1DCF
100
AcDbScale
 70
     0
300
3/8" = 1'-0"
140
0.375
141
12.0
290
     0
  0
SCALE
  5
1DEA
102
{ACAD_REACTORS
330
1DCF
102
}
330
1DCF
100
AcDbScale
 70
     0
300
1/2" = 1'-0"
140
0.5
141
12.0
290
     0
  0
SCALE
  5
1DEB
102
{ACAD_REACTORS
330
1DCF
102
}
330
1DCF
100
AcDbScale
 70
     0
300
3/4" = 1'-0"
140
0.75
141
12.0
290
     0
  0
SCALE
  5
1DEC
102
{ACAD_REACTORS
330
1DCF
102
}
330
1DCF
100
AcDbScale
 70
     0
300
1" = 1'-0"
140
1.0
141
12.0
290
     0
  0
SCALE
  5
1DED
102
{ACAD_REACTORS
330
1DCF
102
}
330
1DCF
100
AcDbScale
 70
     0
300
1-1/2" = 1'-0"
140
1.5
141
12.0
290
     0
  0
SCALE
  5
1DEE
102
{ACAD_REACTORS
330
1DCF
102
}
330
1DCF
100
AcDbScale
 70
     0
300
3" = 1'-0"
140
3.0
141
12.0
290
     0
  0
SCALE
  5
1DEF
102
{ACAD_REACTORS
330
1DCF
102
}
330
1DCF
100
AcDbScale
 70
     0
300
6" = 1'-0"
140
6.0
141
12.0
290
     0
  0
SCALE
  5
1DF0
102
{ACAD_REACTORS
330
1DCF
102
}
330
1DCF
100
AcDbScale
 70
     0
300
1'-0" = 1'-0"
140
12.0
141
12.0
290
     0
  0
DICTIONARYVAR
  5
5E7
102
{ACAD_REACTORS
330
534
102
}
330
534
100
DictionaryVariables
280
     0
  1
2.500000
  0
DICTIONARYVAR
  5
5E5
102
{ACAD_REACTORS
330
52A
102
}
330
52A
100
DictionaryVariables
280
     0
  1
0.261799
  0
DICTIONARYVAR
  5
5E3
102
{ACAD_REACTORS
330
52A
102
}
330
52A
100
DictionaryVariables
280
     0
  1
10.000000
  0
DICTIONARYVAR
  5
5E4
102
{ACAD_REACTORS
330
52A
102
}
330
52A
100
DictionaryVariables
280
     0
  1
6.000000
  0
DICTIONARYVAR
  5
9A2
102
{ACAD_REACTORS
330
52A
102
}
330
52A
100
DictionaryVariables
280
     0
  1
1
  0
ENDSEC
  0
EOF
