  0
SECTION
  2
HEADER
  9
$ACADVER
  1
AC1015
  9
$ACADMAINTVER
 70
     6
  9
$DWGCODEPAGE
  3
ANSI_1252
  9
$INSBASE
 10
0.0
 20
0.0
 30
0.0
  9
$EXTMIN
 10
0.0
 20
0.0
 30
0.0
  9
$EXTMAX
 10
210.0
 20
297.0
 30
0.0
  9
$LIMMIN
 10
0.0
 20
0.0
  9
$LIMMAX
 10
210.0
 20
297.0
  9
$ORTHOMODE
 70
     0
  9
$REGENMODE
 70
     1
  9
$FILLMODE
 70
     1
  9
$QTEXTMODE
 70
     0
  9
$MIRRTEXT
 70
     1
  9
$LTSCALE
 40
1.0
  9
$ATTMODE
 70
     1
  9
$TEXTSIZE
 40
3.175
  9
$TRACEWID
 40
1.0
  9
$TEXTSTYLE
  7
Standard
  9
$CLAYER
  8
0
  9
$CELTYPE
  6
ByLayer
  9
$CECOLOR
 62
   256
  9
$CELTSCALE
 40
1.0
  9
$DISPSILH
 70
     0
  9
$DIMSCALE
 40
1.0
  9
$DIMASZ
 40
2.0
  9
$DIMEXO
 40
1.0
  9
$DIMDLI
 40
3.75
  9
$DIMRND
 40
0.0
  9
$DIMDLE
 40
0.0
  9
$DIMEXE
 40
1.0
  9
$DIMTP
 40
0.0
  9
$DIMTM
 40
0.0
  9
$DIMTXT
 40
4.0
  9
$DIMCEN
 40
2.5
  9
$DIMTSZ
 40
0.0
  9
$DIMTOL
 70
     0
  9
$DIMLIM
 70
     0
  9
$DIMTIH
 70
     1
  9
$DIMTOH
 70
     1
  9
$DIMSE1
 70
     0
  9
$DIMSE2
 70
     0
  9
$DIMTAD
 70
     1
  9
$DIMZIN
 70
     0
  9
$DIMBLK
  1

  9
$DIMASO
 70
     1
  9
$DIMSHO
 70
     1
  9
$DIMPOST
  1

  9
$DIMAPOST
  1

  9
$DIMALT
 70
     0
  9
$DIMALTD
 70
     3
  9
$DIMALTF
 40
0.0393700787
  9
$DIMLFAC
 40
1.0
  9
$DIMTOFL
 70
     1
  9
$DIMTVP
 40
0.0
  9
$DIMTIX
 70
     0
  9
$DIMSOXD
 70
     0
  9
$DIMSAH
 70
     0
  9
$DIMBLK1
  1

  9
$DIMBLK2
  1

  9
$DIMSTYLE
  2
ISO-25
  9
$DIMCLRD
 70
     0
  9
$DIMCLRE
 70
     0
  9
$DIMCLRT
 70
     0
  9
$DIMTFAC
 40
1.0
  9
$DIMGAP
 40
1.524
  9
$DIMJUST
 70
     0
  9
$DIMSD1
 70
     0
  9
$DIMSD2
 70
     0
  9
$DIMTOLJ
 70
     0
  9
$DIMTZIN
 70
     0
  9
$DIMALTZ
 70
     0
  9
$DIMALTTZ
 70
     0
  9
$DIMUPT
 70
     0
  9
$DIMDEC
 70
     1
  9
$DIMTDEC
 70
     1
  9
$DIMALTU
 70
     2
  9
$DIMALTTD
 70
     3
  9
$DIMTXSTY
  7
Standard
  9
$DIMAUNIT
 70
     0
  9
$DIMADEC
 70
     2
  9
$DIMALTRND
 40
0.0
  9
$DIMAZIN
 70
     0
  9
$DIMDSEP
 70
    44
  9
$DIMATFIT
 70
     3
  9
$DIMFRAC
 70
     0
  9
$DIMLDRBLK
  1

  9
$DIMLUNIT
 70
     2
  9
$DIMLWD
 70
    -2
  9
$DIMLWE
 70
    -2
  9
$DIMTMOVE
 70
     0
  9
$LUNITS
 70
     2
  9
$LUPREC
 70
     2
  9
$SKETCHINC
 40
1.0
  9
$FILLETRAD
 40
10.0
  9
$AUNITS
 70
     0
  9
$AUPREC
 70
     2
  9
$MENU
  1
.
  9
$ELEVATION
 40
0.0
  9
$PELEVATION
 40
0.0
  9
$THICKNESS
 40
0.0
  9
$LIMCHECK
 70
     0
  9
$CHAMFERA
 40
0.0
  9
$CHAMFERB
 40
0.0
  9
$CHAMFERC
 40
0.0
  9
$CHAMFERD
 40
0.0
  9
$SKPOLY
 70
     0
  9
$TDCREATE
 40
2457221.5880925
  9
$TDUCREATE
 40
2457221.7130925
  9
$TDUPDATE
 40
2457221.588109456
  9
$TDUUPDATE
 40
2457221.713109456
  9
$TDINDWG
 40
0.0000000116
  9
$TDUSRTIMER
 40
0.0000000116
  9
$USRTIMER
 70
     1
  9
$ANGBASE
 50
0.0
  9
$ANGDIR
 70
     0
  9
$PDMODE
 70
     0
  9
$PDSIZE
 40
-1.0
  9
$PLINEWID
 40
0.0
  9
$SPLFRAME
 70
     0
  9
$SPLINETYPE
 70
     6
  9
$SPLINESEGS
 70
     8
  9
$HANDSEED
  5
5D0
  9
$SURFTAB1
 70
     6
  9
$SURFTAB2
 70
     6
  9
$SURFTYPE
 70
     6
  9
$SURFU
 70
     6
  9
$SURFV
 70
     6
  9
$UCSBASE
  2

  9
$UCSNAME
  2

  9
$UCSORG
 10
0.0
 20
0.0
 30
0.0
  9
$UCSXDIR
 10
1.0
 20
0.0
 30
0.0
  9
$UCSYDIR
 10
0.0
 20
1.0
 30
0.0
  9
$UCSORTHOREF
  2

  9
$UCSORTHOVIEW
 70
     0
  9
$UCSORGTOP
 10
0.0
 20
0.0
 30
0.0
  9
$UCSORGBOTTOM
 10
0.0
 20
0.0
 30
0.0
  9
$UCSORGLEFT
 10
0.0
 20
0.0
 30
0.0
  9
$UCSORGRIGHT
 10
0.0
 20
0.0
 30
0.0
  9
$UCSORGFRONT
 10
0.0
 20
0.0
 30
0.0
  9
$UCSORGBACK
 10
0.0
 20
0.0
 30
0.0
  9
$PUCSBASE
  2

  9
$PUCSNAME
  2

  9
$PUCSORG
 10
0.0
 20
0.0
 30
0.0
  9
$PUCSXDIR
 10
1.0
 20
0.0
 30
0.0
  9
$PUCSYDIR
 10
0.0
 20
1.0
 30
0.0
  9
$PUCSORTHOREF
  2

  9
$PUCSORTHOVIEW
 70
     0
  9
$PUCSORGTOP
 10
0.0
 20
0.0
 30
0.0
  9
$PUCSORGBOTTOM
 10
0.0
 20
0.0
 30
0.0
  9
$PUCSORGLEFT
 10
0.0
 20
0.0
 30
0.0
  9
$PUCSORGRIGHT
 10
0.0
 20
0.0
 30
0.0
  9
$PUCSORGFRONT
 10
0.0
 20
0.0
 30
0.0
  9
$PUCSORGBACK
 10
0.0
 20
0.0
 30
0.0
  9
$USERI1
 70
     0
  9
$USERI2
 70
     0
  9
$USERI3
 70
     0
  9
$USERI4
 70
     0
  9
$USERI5
 70
     0
  9
$USERR1
 40
0.0
  9
$USERR2
 40
0.0
  9
$USERR3
 40
0.0
  9
$USERR4
 40
0.0
  9
$USERR5
 40
0.0
  9
$WORLDVIEW
 70
     1
  9
$SHADEDGE
 70
     3
  9
$SHADEDIF
 70
    70
  9
$TILEMODE
 70
     1
  9
$MAXACTVP
 70
    64
  9
$PINSBASE
 10
0.0
 20
0.0
 30
0.0
  9
$PLIMCHECK
 70
     0
  9
$PEXTMIN
 10
0.0
 20
0.0
 30
0.0
  9
$PEXTMAX
 10
210.0
 20
297.0
 30
0.0
  9
$PLIMMIN
 10
0.0
 20
0.0
  9
$PLIMMAX
 10
210.0
 20
297.0
  9
$UNITMODE
 70
     0
  9
$VISRETAIN
 70
     1
  9
$PLINEGEN
 70
     0
  9
$PSLTSCALE
 70
     1
  9
$TREEDEPTH
 70
  3020
  9
$CMLSTYLE
  2
Standard
  9
$CMLJUST
 70
     0
  9
$CMLSCALE
 40
20.0
  9
$PROXYGRAPHICS
 70
     1
  9
$MEASUREMENT
 70
     1
  9
$CELWEIGHT
370
    -1
  9
$ENDCAPS
280
     0
  9
$JOINSTYLE
280
     0
  9
$LWDISPLAY
290
     1
  9
$INSUNITS
 70
     4
  9
$HYPERLINKBASE
  1

  9
$STYLESHEET
  1

  9
$XEDIT
290
     1
  9
$CEPSNTYPE
380
     0
  9
$PSTYLEMODE
290
     1
  9
$FINGERPRINTGUID
  2
{2D09461B-2259-4448-8F6E-6D1A0F753FD5}
  9
$VERSIONGUID
  2
{FAEB1C32-E019-11D5-929B-00C0DF256EC4}
  9
$EXTNAMES
290
     1
  9
$PSVPSCALE
 40
0.0
  9
$OLESTARTUP
290
     0
  0
ENDSEC
  0
SECTION
  2
CLASSES
  0
CLASS
  1
ACDBDICTIONARYWDFLT
  2
AcDbDictionaryWithDefault
  3
ObjectDBX Classes
 90
        0
280
     0
281
     0
  0
CLASS
  1
VISUALSTYLE
  2
AcDbVisualStyle
  3
ObjectDBX Classes
 90
     4095
280
     0
281
     0
  0
CLASS
  1
MATERIAL
  2
AcDbMaterial
  3
ObjectDBX Classes
 90
     1153
280
     0
281
     0
  0
CLASS
  1
SCALE
  2
AcDbScale
  3
ObjectDBX Classes
 90
     1153
280
     0
281
     0
  0
CLASS
  1
TABLESTYLE
  2
AcDbTableStyle
  3
ObjectDBX Classes
 90
     4095
280
     0
281
     0
  0
CLASS
  1
MLEADERSTYLE
  2
AcDbMLeaderStyle
  3
ACDB_MLEADERSTYLE_CLASS
 90
     4095
280
     0
281
     0
  0
CLASS
  1
SUN
  2
AcDbSun
  3
SCENEOE
 90
     1153
280
     0
281
     0
  0
CLASS
  1
ACDBPLACEHOLDER
  2
AcDbPlaceHolder
  3
ObjectDBX Classes
 90
        0
280
     0
281
     0
  0
CLASS
  1
LAYOUT
  2
AcDbLayout
  3
ObjectDBX Classes
 90
        0
280
     0
281
     0
  0
ENDSEC
  0
SECTION
  2
TABLES
  0
TABLE
  2
VPORT
  5
8
330
0
100
AcDbSymbolTable
 70
     1
  0
VPORT
  5
29
330
8
100
AcDbSymbolTableRecord
100
AcDbViewportTableRecord
  2
*Active
 70
     0
 10
0.0
 20
0.0
 11
1.0
 21
1.0
 12
105.0
 22
148.5
 13
0.0
 23
0.0
 14
10.0
 24
10.0
 15
10.0
 25
10.0
 16
0.0
 26
0.0
 36
1.0
 17
0.0
 27
0.0
 37
0.0
 40
297.0
 41
0.7070707071
 42
50.0
 43
0.0
 44
0.0
 50
0.0
 51
0.0
 71
     0
 72
  2000
 73
     1
 74
     3
 75
     0
 76
     0
 77
     0
 78
     0
281
     0
 65
     1
110
0.0
120
0.0
130
0.0
111
1.0
121
0.0
131
0.0
112
0.0
122
1.0
132
0.0
 79
     0
146
0.0
  0
ENDTAB
  0
TABLE
  2
LTYPE
  5
5
330
0
100
AcDbSymbolTable
 70
     6
  0
LTYPE
  5
14
330
5
100
AcDbSymbolTableRecord
100
AcDbLinetypeTableRecord
  2
ByBlock
 70
     0
  3

 72
    65
 73
     0
 40
0.0
  0
LTYPE
  5
15
330
5
100
AcDbSymbolTableRecord
100
AcDbLinetypeTableRecord
  2
ByLayer
 70
     0
  3

 72
    65
 73
     0
 40
0.0
  0
LTYPE
  5
16
330
5
100
AcDbSymbolTableRecord
100
AcDbLinetypeTableRecord
  2
Continuous
 70
     0
  3
Solid line
 72
    65
 73
     0
 40
0.0
  0
LTYPE
  5
6E
330
5
100
AcDbSymbolTableRecord
100
AcDbLinetypeTableRecord
  2
HIDDEN
 70
     0
  3
Hidden __ __ __ __ __ __ __ __ __ __ __ __ __ __
 72
    65
 73
     2
 40
1.905
 49
1.27
 74
     0
 49
-0.635
 74
     0
  0
LTYPE
  5
6F
330
5
100
AcDbSymbolTableRecord
100
AcDbLinetypeTableRecord
  2
PHANTOM
 70
     0
  3
Phantom ______  __  __  ______  __  __  ______
 72
    65
 73
     6
 40
12.7
 49
6.35
 74
     0
 49
-1.27
 74
     0
 49
1.27
 74
     0
 49
-1.27
 74
     0
 49
1.27
 74
     0
 49
-1.27
 74
     0
  0
LTYPE
  5
70
330
5
100
AcDbSymbolTableRecord
100
AcDbLinetypeTableRecord
  2
CENTER
 70
     0
  3
Center ____ _ ____ _ ____ _ ____ _ ____ _ ____
 72
    65
 73
     4
 40
10.16
 49
6.35
 74
     0
 49
-1.27
 74
     0
 49
1.27
 74
     0
 49
-1.27
 74
     0
  0
LTYPE
  5
71
330
5
100
AcDbSymbolTableRecord
100
AcDbLinetypeTableRecord
  2
CENTERX2
 70
     0
  3
Center (2x) ________  __  ________  __  _____
 72
    65
 73
     4
 40
20.32
 49
12.7
 74
     0
 49
-2.54
 74
     0
 49
2.54
 74
     0
 49
-2.54
 74
     0
  0
LTYPE
  5
72
330
5
100
AcDbSymbolTableRecord
100
AcDbLinetypeTableRecord
  2
DOT2
 70
     0
  3
Dot (.5x) ........................................
 72
    65
 73
     2
 40
0.635
 49
0.0
 74
     0
 49
-0.635
 74
     0
  0
ENDTAB
  0
TABLE
  2
LAYER
  5
2
330
0
100
AcDbSymbolTable
 70
    39
  0
LAYER
  5
10
330
2
100
AcDbSymbolTableRecord
100
AcDbLayerTableRecord
  2
0
 70
     0
 62
     7
  6
Continuous
370
    -3
390
F
  0
LAYER
  5
73
330
2
100
AcDbSymbolTableRecord
100
AcDbLayerTableRecord
  2
ANOTAÇÕES
 70
     0
 62
   179
  6
Continuous
370
    -3
390
F
  0
LAYER
  5
74
330
2
100
AcDbSymbolTableRecord
100
AcDbLayerTableRecord
  2
DESENHO
 70
     0
 62
   179
  6
Continuous
370
    15
390
F
  0
LAYER
  5
75
330
2
100
AcDbSymbolTableRecord
100
AcDbLayerTableRecord
  2
CENTRO
 70
     0
 62
     7
  6
CENTERX2
370
    -3
390
F
  0
LAYER
  5
76
330
2
100
AcDbSymbolTableRecord
100
AcDbLayerTableRecord
  2
COTAS
 70
     0
 62
     7
  6
Continuous
370
    -3
390
F
  0
LAYER
  5
77
330
2
100
AcDbSymbolTableRecord
100
AcDbLayerTableRecord
  2
LAYOUT_
 70
     0
 62
     7
  6
Continuous
370
    40
390
F
  0
LAYER
  5
78
330
2
100
AcDbSymbolTableRecord
100
AcDbLayerTableRecord
  2
TEXTOS_PORTUGUES
 70
     0
 62
     7
  6
Continuous
370
    -3
390
F
  0
LAYER
  5
79
330
2
100
AcDbSymbolTableRecord
100
AcDbLayerTableRecord
  2
FORMAT
 70
     0
 62
     7
  6
Continuous
370
    -3
390
F
  0
LAYER
  5
7A
330
2
100
AcDbSymbolTableRecord
100
AcDbLayerTableRecord
  2
SLD-0
 70
     0
 62
   179
  6
Continuous
370
    -3
390
F
  0
LAYER
  5
7B
330
2
100
AcDbSymbolTableRecord
100
AcDbLayerTableRecord
  2
TEXTO
 70
     0
 62
     7
  6
Continuous
370
    -3
390
F
  0
LAYER
  5
7C
330
2
100
AcDbSymbolTableRecord
100
AcDbLayerTableRecord
  2
RASTREAR_DIRETÓRIO
 70
     0
 62
     7
  6
Continuous
370
    -3
390
F
  0
LAYER
  5
7D
330
2
100
AcDbSymbolTableRecord
100
AcDbLayerTableRecord
  2
HACHURA
 70
     0
 62
     7
  6
Continuous
370
    -3
390
F
  0
LAYER
  5
7E
330
2
100
AcDbSymbolTableRecord
100
AcDbLayerTableRecord
  2
INJETORAS
 70
     0
 62
   179
  6
Continuous
370
    -3
390
F
  0
LAYER
  5
7F
330
2
100
AcDbSymbolTableRecord
100
AcDbLayerTableRecord
  2
TORNOS
 70
     0
 62
   179
  6
Continuous
370
    -3
390
F
  0
LAYER
  5
80
330
2
100
AcDbSymbolTableRecord
100
AcDbLayerTableRecord
  2
USI__ACESSÓRIOS
 70
     0
 62
   179
  6
Continuous
370
    -3
390
F
  0
LAYER
  5
81
330
2
100
AcDbSymbolTableRecord
100
AcDbLayerTableRecord
  2
USI__BRAÇOS
 70
     0
 62
   179
  6
Continuous
370
    -3
390
F
  0
LAYER
  5
82
330
2
100
AcDbSymbolTableRecord
100
AcDbLayerTableRecord
  2
CORTE_BATH
 70
     0
 62
   179
  6
Continuous
370
    -3
390
F
  0
LAYER
  5
83
330
2
100
AcDbSymbolTableRecord
100
AcDbLayerTableRecord
  2
RECEBIMENTO
 70
     0
 62
   179
  6
Continuous
370
    -3
390
F
  0
LAYER
  5
84
330
2
100
AcDbSymbolTableRecord
100
AcDbLayerTableRecord
  2
USI_GUARDA_SOL
 70
     0
 62
   179
  6
Continuous
370
    -3
390
F
  0
LAYER
  5
85
330
2
100
AcDbSymbolTableRecord
100
AcDbLayerTableRecord
  2
MONT__ACESSÓRIOS
 70
     0
 62
   179
  6
Continuous
370
    -3
390
F
  0
LAYER
  5
86
330
2
100
AcDbSymbolTableRecord
100
AcDbLayerTableRecord
  2
GRADINESE
 70
     0
 62
   179
  6
Continuous
370
    -3
390
F
  0
LAYER
  5
87
330
2
100
AcDbSymbolTableRecord
100
AcDbLayerTableRecord
  2
MONT__GUARDA_SOL
 70
     0
 62
   179
  6
Continuous
370
    -3
390
F
  0
LAYER
  5
88
330
2
100
AcDbSymbolTableRecord
100
AcDbLayerTableRecord
  2
CONSTRUCTION_CLASS
 70
     0
 62
   179
  6
Continuous
370
    -3
390
F
  0
LAYER
  5
89
330
2
100
AcDbSymbolTableRecord
100
AcDbLayerTableRecord
  2
PATTERN_CLASS
 70
     0
 62
   179
  6
Continuous
370
    -3
390
F
  0
LAYER
  5
8A
330
2
100
AcDbSymbolTableRecord
100
AcDbLayerTableRecord
  2
PORTUGUES
 70
     0
 62
   179
  6
Continuous
370
    -3
390
F
  0
LAYER
  5
8B
330
2
100
AcDbSymbolTableRecord
100
AcDbLayerTableRecord
  2
CATALOGO
 70
     0
 62
     7
  6
Continuous
370
    40
390
F
  0
LAYER
  5
8C
330
2
100
AcDbSymbolTableRecord
100
AcDbLayerTableRecord
  2
-MONT$$GUARDA$SOL
 70
     0
 62
   179
  6
Continuous
370
    -3
390
F
  0
LAYER
  5
8D
330
2
100
AcDbSymbolTableRecord
100
AcDbLayerTableRecord
  2
-1
 70
     0
 62
   179
  6
Continuous
370
    -3
390
F
  0
LAYER
  5
8E
330
2
100
AcDbSymbolTableRecord
100
AcDbLayerTableRecord
  2
LEVEL_1
 70
     0
 62
   179
  6
Continuous
370
    -3
390
F
  0
LAYER
  5
8F
330
2
100
AcDbSymbolTableRecord
100
AcDbLayerTableRecord
  2
FORMATO
 70
     0
 62
     7
  6
Continuous
370
    -3
390
F
  0
LAYER
  5
90
330
2
100
AcDbSymbolTableRecord
100
AcDbLayerTableRecord
  2
NOTA_IMPRESSÃO
 70
     0
 62
     7
  6
Continuous
370
    -3
390
F
  0
LAYER
  5
91
330
2
100
AcDbSymbolTableRecord
100
AcDbLayerTableRecord
  2
TOLERANCIAS
 70
     0
 62
     7
  6
Continuous
370
    -3
390
F
  0
LAYER
  5
92
330
2
100
AcDbSymbolTableRecord
100
AcDbLayerTableRecord
  2
LOGO_ZEPPINI
 70
     0
 62
     7
  6
Continuous
370
    -3
390
F
  0
LAYER
  5
93
330
2
100
AcDbSymbolTableRecord
100
AcDbLayerTableRecord
  2
LEGENDA-PORT
 70
     0
 62
     7
  6
Continuous
370
    -3
390
F
  0
LAYER
  5
94
330
2
100
AcDbSymbolTableRecord
100
AcDbLayerTableRecord
  2
7
 70
     0
 62
   179
  6
Continuous
370
    -3
390
F
  0
LAYER
  5
95
330
2
100
AcDbSymbolTableRecord
100
AcDbLayerTableRecord
  2
LAYOUT_ITC
 70
     0
 62
     7
  6
Continuous
370
    -3
390
F
  0
LAYER
  5
96
330
2
100
AcDbSymbolTableRecord
100
AcDbLayerTableRecord
  2
INFORME_TECNICO
 70
     0
 62
     7
  6
Continuous
370
    -3
390
F
  0
LAYER
  5
97
330
2
100
AcDbSymbolTableRecord
100
AcDbLayerTableRecord
  2
TEXTOS
 70
     0
 62
     7
  6
Continuous
370
    -3
390
F
  0
LAYER
  5
98
330
2
100
AcDbSymbolTableRecord
100
AcDbLayerTableRecord
  2
7__JANELA_BASCULANTE
 70
     0
 62
     7
  6
Continuous
370
    -3
390
F
  0
ENDTAB
  0
TABLE
  2
STYLE
  5
3
330
0
100
AcDbSymbolTable
 70
     3
  0
STYLE
  5
11
330
3
100
AcDbSymbolTableRecord
100
AcDbTextStyleTableRecord
  2
Standard
 70
     0
 40
0.0
 41
1.0
 50
0.0
 71
     0
 42
3.175
  3
txt
  4

  0
STYLE
  5
143
330
3
100
AcDbSymbolTableRecord
100
AcDbTextStyleTableRecord
  2
SLDTEXTSTYLE0
 70
     0
 40
0.0
 41
0.605
 50
0.0
 71
     0
 42
3.175
  3
TXT
  4

  0
STYLE
  5
2D5
330
3
100
AcDbSymbolTableRecord
100
AcDbTextStyleTableRecord
  2
SLDTEXTSTYLE1
 70
     0
 40
0.0
 41
0.75
 50
0.0
 71
     0
 42
3.175
  3
TXT
  4

  0
ENDTAB
  0
TABLE
  2
VIEW
  5
6
330
0
100
AcDbSymbolTable
 70
     0
  0
ENDTAB
  0
TABLE
  2
UCS
  5
7
330
0
100
AcDbSymbolTable
 70
     0
  0
ENDTAB
  0
TABLE
  2
APPID
  5
9
330
0
100
AcDbSymbolTable
 70
     1
  0
APPID
  5
12
330
9
100
AcDbSymbolTableRecord
100
AcDbRegAppTableRecord
  2
ACAD
 70
     0
  0
ENDTAB
  0
TABLE
  2
DIMSTYLE
  5
A
330
0
100
AcDbSymbolTable
 70
     4
100
AcDbDimStyleTable
  0
DIMSTYLE
105
27
330
A
100
AcDbSymbolTableRecord
100
AcDbDimStyleTableRecord
  2
ISO-25
 70
     0
 41
2.5
 42
0.625
 43
3.75
 44
1.25
 73
     0
 74
     0
 77
     1
 78
     8
140
2.5
141
2.5
143
0.0393700787
147
0.625
171
     3
172
     1
178
     0
271
     2
272
     2
274
     3
278
    44
283
     0
284
     8
340
11
  0
DIMSTYLE
105
2D6
102
{ACAD_REACTORS
330
2D4
102
}
330
A
100
AcDbSymbolTableRecord
100
AcDbDimStyleTableRecord
  2
SLDDIMSTYLE0
 70
     0
 41
2.0
 44
0.0
 45
0.000000001
 78
    12
 79
     3
140
4.0
141
0.0
147
1.0
172
     1
173
     1
178
     0
271
     1
272
     1
276
     2
284
    12
340
2D5
341
2D7
343
2D7
  0
DIMSTYLE
105
2E4
102
{ACAD_REACTORS
330
2E3
330
2EE
330
2F8
330
379
330
383
330
38D
330
3CD
102
}
330
A
100
AcDbSymbolTableRecord
100
AcDbDimStyleTableRecord
  2
SLDDIMSTYLE1
 70
     0
 41
2.0
 44
0.0
 45
0.000000001
 73
     0
 74
     0
 77
     1
 78
    12
 79
     3
140
4.0
147
1.0
173
     1
178
     0
271
     1
272
     1
276
     2
284
    12
340
2D5
  0
DIMSTYLE
105
3C1
102
{ACAD_REACTORS
330
3C0
102
}
330
A
100
AcDbSymbolTableRecord
100
AcDbDimStyleTableRecord
  2
SLDDIMSTYLE2
 70
     0
 41
2.0
 44
0.0
 45
0.000000001
 73
     0
 74
     0
 77
     1
 78
    12
 79
     3
140
4.0
147
1.0
172
     1
173
     1
178
     0
271
     1
272
     1
276
     2
284
    12
289
     0
340
2D5
  0
ENDTAB
  0
TABLE
  2
BLOCK_RECORD
  5
1
330
0
100
AcDbSymbolTable
 70
    27
  0
BLOCK_RECORD
  5
1F
330
1
100
AcDbSymbolTableRecord
100
AcDbBlockTableRecord
  2
*Model_Space
340
22
  0
BLOCK_RECORD
  5
1B
330
1
100
AcDbSymbolTableRecord
100
AcDbBlockTableRecord
  2
*Paper_Space
340
1E
  0
BLOCK_RECORD
  5
23
330
1
100
AcDbSymbolTableRecord
100
AcDbBlockTableRecord
  2
*Paper_Space0
340
26
  0
BLOCK_RECORD
  5
148
330
1
100
AcDbSymbolTableRecord
100
AcDbBlockTableRecord
  2
SW_NOTE_0
340
0
102
{BLKREFS
331
14D
102
}
  0
BLOCK_RECORD
  5
153
330
1
100
AcDbSymbolTableRecord
100
AcDbBlockTableRecord
  2
SW_NOTE_1
340
0
102
{BLKREFS
331
16C
102
}
  0
BLOCK_RECORD
  5
171
330
1
100
AcDbSymbolTableRecord
100
AcDbBlockTableRecord
  2
SW_TABLEANNOTATION_0
340
0
102
{BLKREFS
331
181
102
}
  0
BLOCK_RECORD
  5
182
330
1
100
AcDbSymbolTableRecord
100
AcDbBlockTableRecord
  2
SW_TABLEANNOTATION_1
340
0
102
{BLKREFS
331
193
102
}
  0
BLOCK_RECORD
  5
194
330
1
100
AcDbSymbolTableRecord
100
AcDbBlockTableRecord
  2
SW_TABLEANNOTATION_2
340
0
102
{BLKREFS
331
1A0
102
}
  0
BLOCK_RECORD
  5
1A1
330
1
100
AcDbSymbolTableRecord
100
AcDbBlockTableRecord
  2
SW_TABLEANNOTATION_3
340
0
102
{BLKREFS
331
1BB
102
}
  0
BLOCK_RECORD
  5
2D7
330
1
100
AcDbSymbolTableRecord
100
AcDbBlockTableRecord
  2
_NONE
340
0
  0
BLOCK_RECORD
  5
2DA
330
1
100
AcDbSymbolTableRecord
100
AcDbBlockTableRecord
  2
_D
340
0
  0
BLOCK_RECORD
  5
2E5
330
1
100
AcDbSymbolTableRecord
100
AcDbBlockTableRecord
  2
_D_1
340
0
  0
BLOCK_RECORD
  5
2EF
330
1
100
AcDbSymbolTableRecord
100
AcDbBlockTableRecord
  2
_D_2
340
0
  0
BLOCK_RECORD
  5
2F9
330
1
100
AcDbSymbolTableRecord
100
AcDbBlockTableRecord
  2
_D_3
340
0
  0
BLOCK_RECORD
  5
304
330
1
100
AcDbSymbolTableRecord
100
AcDbBlockTableRecord
  2
SW_CENTERMARKSYMBOL_0
340
0
102
{BLKREFS
331
30F
102
}
  0
BLOCK_RECORD
  5
310
330
1
100
AcDbSymbolTableRecord
100
AcDbBlockTableRecord
  2
SW_CENTERMARKSYMBOL_1
340
0
102
{BLKREFS
331
31B
102
}
  0
BLOCK_RECORD
  5
31C
330
1
100
AcDbSymbolTableRecord
100
AcDbBlockTableRecord
  2
SW_CENTERMARKSYMBOL_2
340
0
102
{BLKREFS
331
327
102
}
  0
BLOCK_RECORD
  5
37A
330
1
100
AcDbSymbolTableRecord
100
AcDbBlockTableRecord
  2
_D_4
340
0
  0
BLOCK_RECORD
  5
384
330
1
100
AcDbSymbolTableRecord
100
AcDbBlockTableRecord
  2
_D_5
340
0
  0
BLOCK_RECORD
  5
38E
330
1
100
AcDbSymbolTableRecord
100
AcDbBlockTableRecord
  2
_D_6
340
0
  0
BLOCK_RECORD
  5
3C2
330
1
100
AcDbSymbolTableRecord
100
AcDbBlockTableRecord
  2
_D_7
340
0
  0
BLOCK_RECORD
  5
3CE
330
1
100
AcDbSymbolTableRecord
100
AcDbBlockTableRecord
  2
_D_8
340
0
  0
BLOCK_RECORD
  5
458
330
1
100
AcDbSymbolTableRecord
100
AcDbBlockTableRecord
  2
SW_NOTE_2
340
0
102
{BLKREFS
331
45D
102
}
  0
BLOCK_RECORD
  5
464
330
1
100
AcDbSymbolTableRecord
100
AcDbBlockTableRecord
  2
SW_NOTE_3
340
0
102
{BLKREFS
331
47B
102
}
  0
BLOCK_RECORD
  5
4FF
330
1
100
AcDbSymbolTableRecord
100
AcDbBlockTableRecord
  2
SW_NOTE_4
340
0
102
{BLKREFS
331
504
102
}
  0
BLOCK_RECORD
  5
50B
330
1
100
AcDbSymbolTableRecord
100
AcDbBlockTableRecord
  2
SW_NOTE_5
340
0
102
{BLKREFS
331
522
102
}
  0
BLOCK_RECORD
  5
525
330
1
100
AcDbSymbolTableRecord
100
AcDbBlockTableRecord
  2
*Paper_Space24
340
526
  0
BLOCK_RECORD
  5
5AA
330
1
100
AcDbSymbolTableRecord
100
AcDbBlockTableRecord
  2
SW_NOTE_6
340
0
102
{BLKREFS
331
5AF
102
}
  0
BLOCK_RECORD
  5
5B6
330
1
100
AcDbSymbolTableRecord
100
AcDbBlockTableRecord
  2
SW_NOTE_7
340
0
102
{BLKREFS
331
5CD
102
}
  0
ENDTAB
  0
ENDSEC
  0
SECTION
  2
BLOCKS
  0
BLOCK
  5
20
330
1F
100
AcDbEntity
  8
0
100
AcDbBlockBegin
  2
*Model_Space
 70
     0
 10
0.0
 20
0.0
 30
0.0
  3
*Model_Space
  1

  0
ENDBLK
  5
21
330
1F
100
AcDbEntity
  8
0
100
AcDbBlockEnd
  0
BLOCK
  5
1C
330
1B
100
AcDbEntity
 67
     1
  8
0
100
AcDbBlockBegin
  2
*Paper_Space
 70
     0
 10
0.0
 20
0.0
 30
0.0
  3
*Paper_Space
  1

  0
ENDBLK
  5
1D
330
1B
100
AcDbEntity
 67
     1
  8
0
100
AcDbBlockEnd
  0
BLOCK
  5
24
330
23
100
AcDbEntity
  8
0
100
AcDbBlockBegin
  2
*Paper_Space0
 70
     0
 10
0.0
 20
0.0
 30
0.0
  3
*Paper_Space0
  1

  0
HATCH
  5
47E
330
23
100
AcDbEntity
  8
LAYOUT_
100
AcDbHatch
 10
0.0
 20
0.0
 30
0.0
210
0.0
220
0.0
230
1.0
  2
SOLID
 70
     1
 71
     0
 91
        1
 92
        0
 93
       12
 72
     2
 10
170.5130402307581
 20
19.12739629603989
 40
0.4456675237456963
 50
89.99999999974423
 51
179.5957936170848
 73
     0
 72
     1
 10
170.067383797235
 20
19.12425225707161
 11
170.8479788055123
 21
22.24706896226007
 72
     1
 10
170.8479788055123
 20
22.24706896226007
 11
169.8139393226297
 21
22.24706896226004
 72
     1
 10
169.8139393226297
 20
22.24706896226004
 11
168.9226042751383
 21
18.68172877229406
 72
     2
 10
169.8139393226298
 20
18.68172877229407
 40
0.8913350474914795
 50
180.0000000000017
 51
270.0000000000008
 73
     1
 72
     1
 10
169.8139393226298
 20
17.79039372480256
 11
172.5981604978237
 21
17.79039372480258
 72
     2
 10
172.5980078948977
 20
18.68172877229447
 40
0.8913350605542537
 50
270.0098094465608
 51
346.0052277622873
 73
     1
 72
     1
 10
173.462886165989
 20
18.46617421686658
 11
174.4082812168459
 21
22.2474050826257
 72
     1
 10
174.4082812168459
 20
22.2474050826257
 11
173.375027743704
 21
22.24740508262621
 72
     1
 10
173.375027743704
 20
22.24740508262621
 11
172.5403727320565
 21
18.90808636070918
 72
     2
 10
172.1518111063253
 20
19.12635088996369
 40
0.445667523745801
 50
29.32398295252708
 51
93.92517999700813
 73
     0
 72
     1
 10
172.1213034974225
 20
18.68172877229415
 11
170.5130402307601
 21
18.68172877229415
 97
        0
 75
     0
 76
     1
 98
        1
 10
0.0
 20
0.0
  0
HATCH
  5
47F
330
23
100
AcDbEntity
  8
LAYOUT_
100
AcDbHatch
 10
0.0
 20
0.0
 30
0.0
210
0.0
220
0.0
230
1.0
  2
SOLID
 70
     1
 71
     0
 91
        1
 92
        0
 93
        4
 72
     1
 10
179.4968722163075
 20
17.7903293156669
 11
180.5308243647744
 21
17.7903293156669
 72
     1
 10
180.5308243647744
 20
17.7903293156669
 11
181.3380563698657
 21
21.02144069642759
 72
     1
 10
181.3380563698657
 20
21.02144069642759
 11
180.3048028967254
 21
21.0214406964276
 72
     1
 10
180.3048028967254
 20
21.0214406964276
 11
179.4968722163075
 21
17.7903293156669
 97
        0
 75
     0
 76
     1
 98
        1
 10
0.0
 20
0.0
  0
HATCH
  5
480
330
23
100
AcDbEntity
  8
LAYOUT_
100
AcDbHatch
 10
0.0
 20
0.0
 30
0.0
210
0.0
220
0.0
230
1.0
  2
SOLID
 70
     1
 71
     0
 91
        1
 92
        0
 93
        3
 72
     2
 10
180.1829862628089
 20
21.0547421387491
 40
1.266760894066317
 50
289.7476650131743
 51
347.0857716004965
 73
     0
 72
     1
 10
181.4177053570608
 20
21.33785328481299
 11
181.6450368413465
 21
22.24700455312437
 72
     1
 10
181.6450368413465
 20
22.24700455312437
 11
180.6109973584639
 21
22.24700455312437
 97
        0
 75
     0
 76
     1
 98
        1
 10
0.0
 20
0.0
  0
HATCH
  5
481
330
23
100
AcDbEntity
  8
LAYOUT_
100
AcDbHatch
 10
0.0
 20
0.0
 30
0.0
210
0.0
220
0.0
230
1.0
  2
SOLID
 70
     1
 71
     0
 91
        1
 92
        0
 93
       16
 72
     1
 10
187.4905078243961
 20
21.74063865570438
 11
186.7100001505347
 21
18.62096598948408
 72
     2
 10
187.3585239179832
 20
18.45875966430492
 40
0.668501285618632
 50
165.9574885007146
 51
270.0458519450647
 73
     1
 72
     1
 10
187.3590588977184
 20
17.7902585927497
 11
190.2928839271504
 21
17.79025859274971
 72
     1
 10
190.2928839271504
 20
17.79025859274971
 11
190.488338349675
 21
18.57024226011634
 72
     1
 10
190.488338349675
 20
18.57024226011634
 11
188.1600028248734
 21
18.57024226011634
 72
     2
 10
188.1600028248735
 20
18.90449290292561
 40
0.3342506428092735
 50
90.00000000002923
 51
194.0410249999861
 73
     0
 72
     1
 10
187.8357388370931
 20
18.98558765273799
 11
188.0101456654137
 21
19.68400097576269
 72
     1
 10
188.0101456654137
 20
19.68400097576269
 11
190.7662451587252
 21
19.68400097576269
 72
     1
 10
190.7662451587252
 20
19.68400097576269
 11
190.9337525681987
 21
20.35254592858882
 72
     1
 10
190.9337525681987
 20
20.35254592858882
 11
188.1769543995616
 21
20.35254592858882
 72
     1
 10
188.1769543995616
 20
20.35254592858882
 11
188.3928450753792
 21
21.21392527146464
 72
     2
 10
188.7171158282875
 20
21.13285757736421
 40
0.3342506428093905
 50
194.0362444446529
 51
269.999999999991
 73
     0
 72
     1
 10
188.7171158282874
 20
21.46710822017361
 11
191.2121727528206
 21
21.46710822017361
 72
     1
 10
191.2121727528206
 20
21.46710822017361
 11
191.4070158344346
 21
22.24700455312453
 72
     1
 10
191.4070158344346
 20
22.24700455312453
 11
188.1390493302132
 21
22.24700455312453
 72
     2
 10
188.1390493302133
 20
21.57850326750584
 40
0.6685012856187086
 50
90.00000000000487
 51
165.9637555555539
 73
     1
 97
        0
 75
     0
 76
     1
 98
        1
 10
0.0
 20
0.0
  0
HATCH
  5
482
330
23
100
AcDbEntity
  8
LAYOUT_
100
AcDbHatch
 10
0.0
 20
0.0
 30
0.0
210
0.0
220
0.0
230
1.0
  2
SOLID
 70
     1
 71
     0
 91
        1
 92
        0
 93
       16
 72
     2
 10
197.5785105597292
 20
18.90455206700181
 40
0.3342506428093934
 50
90.0
 51
194.0410249999755
 73
     0
 72
     1
 10
197.2542465719486
 20
18.98564681681415
 11
197.4286534002693
 21
19.68406013983883
 72
     1
 10
197.4286534002693
 20
19.68406013983883
 11
200.1847528935807
 21
19.68406013983885
 72
     1
 10
200.1847528935807
 20
19.68406013983885
 11
200.3522603030545
 21
20.35260509266541
 72
     1
 10
200.3522603030545
 20
20.35260509266541
 11
197.5954621344166
 21
20.35260509266539
 72
     1
 10
197.5954621344166
 20
20.35260509266539
 11
197.8113528102347
 21
21.21398443554289
 72
     2
 10
198.1356235631432
 20
21.13291674144371
 40
0.3342506428092739
 50
194.0362444444343
 51
270.0000000000008
 73
     0
 72
     1
 10
198.1356235631432
 20
21.46716738425296
 11
200.6306804876765
 21
21.467167384253
 72
     1
 10
200.6306804876765
 20
21.467167384253
 11
200.8255235692905
 21
22.24706371720393
 72
     1
 10
200.8255235692905
 20
22.24706371720393
 11
197.5575570650689
 21
22.2470637172039
 72
     2
 10
197.5575570650689
 20
21.57856243158543
 40
0.6685012856185218
 50
90.0
 51
165.9637555555665
 73
     1
 72
     1
 10
196.9090155592518
 20
21.74069781978379
 11
196.1285078853903
 21
18.62102515356356
 72
     2
 10
196.7770316528378
 20
18.45881882838061
 40
0.668501285618565
 50
165.9574885003799
 51
270.0458519451499
 73
     1
 72
     1
 10
196.777566632574
 20
17.79031775682553
 11
199.7113916620061
 21
17.79031775682555
 72
     1
 10
199.7113916620061
 20
17.79031775682555
 11
199.9068460845305
 21
18.57030142419241
 72
     1
 10
199.9068460845305
 20
18.57030142419241
 11
197.5785105597292
 21
18.5703014241924
 97
        0
 75
     0
 76
     1
 98
        1
 10
0.0
 20
0.0
  0
HATCH
  5
483
330
23
100
AcDbEntity
  8
LAYOUT_
100
AcDbHatch
 10
0.0
 20
0.0
 30
0.0
210
0.0
220
0.0
230
1.0
  2
SOLID
 70
     1
 71
     0
 91
        1
 92
        0
 93
       14
 72
     1
 10
175.0168192367113
 20
17.79055454930106
 11
173.9828670882443
 21
17.79055454930106
 72
     1
 10
173.9828670882443
 20
17.79055454930106
 11
175.076643311523
 21
22.16260273786385
 72
     2
 10
175.1847354369723
 20
22.13558767218786
 40
0.1114168809365144
 50
194.0322694450046
 51
270.0000000001031
 73
     0
 72
     1
 10
175.1847354369725
 20
22.24700455312433
 11
177.3525503055629
 21
22.24700455312435
 72
     2
 10
177.172710349574
 20
20.02071224671071
 40
2.233544233581842
 50
274.6183266272648
 51
373.3085399948901
 73
     0
 72
     2
 10
177.172710349574
 20
20.02071224671071
 40
2.233544233581867
 50
13.30853999488929
 51
86.95123031227389
 73
     0
 72
     1
 10
177.2915035489283
 20
17.7903293156529
 11
175.9365974224543
 21
17.7903293156529
 72
     1
 10
175.9365974224543
 20
17.7903293156529
 11
176.1314405040694
 21
18.5703129830234
 72
     1
 10
176.1314405040694
 20
18.5703129830234
 11
177.0133434346557
 21
18.5703129830234
 72
     2
 10
177.0127774411057
 20
19.94122160845794
 40
1.370908742272628
 50
270.0236551431669
 51
345.8635575517509
 73
     1
 72
     1
 10
178.3421707757872
 20
19.60640204310367
 11
178.3540194683802
 21
19.65341965431127
 72
     2
 10
176.9378270462958
 20
20.0075385479399
 40
1.459794905866569
 50
345.961061110989
 51
450.0000000000008
 73
     1
 72
     1
 10
176.9378270462958
 20
21.46733345380644
 11
175.9361012972535
 21
21.46733345380636
 72
     1
 10
175.9361012972535
 20
21.46733345380636
 11
175.0168192367113
 21
17.79055454930106
 97
        0
 75
     0
 76
     1
 98
        1
 10
0.0
 20
0.0
  0
HATCH
  5
484
330
23
100
AcDbEntity
  8
LAYOUT_
100
AcDbHatch
 10
0.0
 20
0.0
 30
0.0
210
0.0
220
0.0
230
1.0
  2
SOLID
 70
     1
 71
     0
 91
        1
 92
        0
 93
       12
 72
     2
 10
185.167061423616
 20
18.45860636448581
 40
0.6685012856186326
 50
207.1838119432031
 51
269.9475909935572
 73
     1
 72
     1
 10
185.1664499390774
 20
17.79010535853265
 11
185.8133359567896
 21
17.79010535853265
 72
     1
 10
185.8133359567896
 20
17.79010535853265
 11
186.9274610989458
 21
22.24678059598929
 72
     1
 10
186.9274610989458
 20
22.24678059598929
 11
185.893508950479
 21
22.24678059598929
 72
     1
 10
185.893508950479
 20
22.24678059598929
 11
185.1416469649948
 21
19.2385466443094
 72
     1
 10
185.1416469649948
 20
19.2385466443094
 11
183.7835967995534
 21
21.88390609840656
 72
     2
 10
183.188934643576
 20
21.57850326750574
 40
0.6685012856187489
 50
27.1838388889056
 51
90.0
 73
     1
 72
     1
 10
183.188934643576
 20
22.24700455312446
 11
182.3339307130508
 21
22.24700455312446
 72
     1
 10
182.3339307130508
 20
22.24700455312446
 11
181.2197182364786
 21
17.79032931566692
 72
     1
 10
181.2197182364786
 20
17.79032931566692
 11
182.2536703849455
 21
17.79032931566693
 72
     1
 10
182.2536703849455
 20
17.79032931566693
 11
183.0736532147413
 21
21.07174531991914
 72
     1
 10
183.0736532147413
 20
21.07174531991914
 11
184.5723991240105
 21
18.15320381324946
 97
        0
 75
     0
 76
     1
 98
        1
 10
0.0
 20
0.0
  0
HATCH
  5
485
330
23
100
AcDbEntity
  8
LAYOUT_
100
AcDbHatch
 10
0.0
 20
0.0
 30
0.0
210
0.0
220
0.0
230
1.0
  2
SOLID
 70
     1
 71
     0
 91
        1
 92
        0
 93
       12
 72
     2
 10
193.2539640594348
 20
21.35569133923711
 40
0.1114168809364868
 50
90.0
 51
228.0365750000344
 73
     1
 72
     1
 10
193.1794644845312
 20
21.27284488670711
 11
195.1232665766341
 21
19.52458455154431
 72
     2
 10
194.4567603820072
 20
18.78333446879962
 40
0.9968360911629796
 50
311.9607722222112
 51
450.0000000000269
 73
     0
 72
     1
 10
194.4567603820067
 20
17.78649837763665
 11
190.9856540266717
 21
17.78649837763663
 72
     1
 10
190.9856540266717
 20
17.78649837763663
 11
191.1805844427014
 21
18.56648204500324
 72
     1
 10
191.1805844427014
 20
18.56648204500324
 11
194.3982463234316
 21
18.56648204500327
 72
     2
 10
194.3809850766869
 20
18.67655370674425
 40
0.1114168809364247
 50
278.9124394812695
 51
411.3264264756569
 73
     1
 72
     1
 10
194.4506075505736
 20
18.76353894967366
 11
192.168821269385
 21
20.81563571735025
 72
     2
 10
192.7177321051163
 20
21.42610296534083
 40
0.8209588092300139
 50
131.9607722223978
 51
270.6764861111357
 73
     0
 72
     1
 10
192.727424866673
 20
22.24700455312453
 11
196.3456897126041
 21
22.24700455312455
 72
     1
 10
196.3456897126041
 20
22.24700455312455
 11
196.1508466309901
 21
21.46710822017361
 72
     1
 10
196.1508466309901
 20
21.46710822017361
 11
193.2539640594348
 21
21.46710822017358
 97
        0
 75
     0
 76
     1
 98
        1
 10
0.0
 20
0.0
  0
LINE
  5
486
330
23
100
AcDbEntity
  8
LAYOUT_
370
    30
100
AcDbLine
 10
9.6393342483
 20
8.8593134707
 30
0.0
 11
9.6393342483
 21
284.8855092333
 31
0.0
  0
LINE
  5
487
330
23
100
AcDbEntity
  8
LAYOUT_
370
    30
100
AcDbLine
 10
197.9839330998
 20
273.8855092333
 30
0.0
 11
93.5495543863
 21
273.8855092333
 31
0.0
  0
LINE
  5
488
330
23
100
AcDbEntity
  8
LAYOUT_
370
    30
100
AcDbLine
 10
90.5495543863
 20
276.8855092333
 30
0.0
 11
90.5495543863
 21
284.8855092333
 31
0.0
  0
LINE
  5
489
330
23
100
AcDbEntity
  8
LAYOUT_
370
    30
100
AcDbLine
 10
87.5495543863
 20
287.8855092333
 30
0.0
 11
12.6393342483
 21
287.8855092333
 31
0.0
  0
LINE
  5
48A
330
23
100
AcDbEntity
  8
LAYOUT_
 62
     5
370
    30
100
AcDbLine
 10
179.4968722163
 20
17.7903293157
 30
0.0
 11
180.3048028967
 21
21.0214406964
 31
0.0
  0
LINE
  5
48B
330
23
100
AcDbEntity
  8
LAYOUT_
 62
     5
370
    30
100
AcDbLine
 10
180.3048028967
 20
21.0214406964
 30
0.0
 11
181.3380563699
 21
21.0214406964
 31
0.0
  0
LINE
  5
48C
330
23
100
AcDbEntity
  8
LAYOUT_
 62
     5
370
    30
100
AcDbLine
 10
181.3380563699
 20
21.0214406964
 30
0.0
 11
180.5308243648
 21
17.7903293157
 31
0.0
  0
LINE
  5
48D
330
23
100
AcDbEntity
  8
LAYOUT_
 62
     5
370
    30
100
AcDbLine
 10
180.5308243648
 20
17.7903293157
 30
0.0
 11
179.4968722163
 21
17.7903293157
 31
0.0
  0
LINE
  5
48E
330
23
100
AcDbEntity
  8
LAYOUT_
  6
Continuous
 62
     5
370
    30
100
AcDbLine
 10
170.0673837972
 20
19.1242522571
 30
0.0
 11
170.8479788055
 21
22.2470689623
 31
0.0
  0
LINE
  5
48F
330
23
100
AcDbEntity
  8
LAYOUT_
  6
Continuous
370
    30
100
AcDbLine
 10
170.8479788055
 20
22.2470689623
 30
0.0
 11
169.8139393226
 21
22.2470689623
 31
0.0
  0
LINE
  5
490
330
23
100
AcDbEntity
  8
LAYOUT_
  6
Continuous
 62
     5
370
    30
100
AcDbLine
 10
169.8139393226
 20
22.2470689623
 30
0.0
 11
168.9226042751
 21
18.6817287723
 31
0.0
  0
LINE
  5
491
330
23
100
AcDbEntity
  8
LAYOUT_
  6
Continuous
 62
     5
370
    30
100
AcDbLine
 10
169.8139393226
 20
17.7903937248
 30
0.0
 11
172.5981604978
 21
17.7903937248
 31
0.0
  0
LINE
  5
492
330
23
100
AcDbEntity
  8
LAYOUT_
  6
Continuous
 62
     5
370
    30
100
AcDbLine
 10
173.462886166
 20
18.4661742169
 30
0.0
 11
174.4082812168
 21
22.2474050826
 31
0.0
  0
LINE
  5
493
330
23
100
AcDbEntity
  8
LAYOUT_
  6
Continuous
 62
     5
370
    30
100
AcDbLine
 10
174.4082812168
 20
22.2474050826
 30
0.0
 11
173.3750277437
 21
22.2474050826
 31
0.0
  0
LINE
  5
494
330
23
100
AcDbEntity
  8
LAYOUT_
  6
Continuous
 62
     5
370
    30
100
AcDbLine
 10
173.3750277437
 20
22.2474050826
 30
0.0
 11
172.5403727321
 21
18.9080863607
 31
0.0
  0
LINE
  5
495
330
23
100
AcDbEntity
  8
LAYOUT_
370
    30
100
AcDbLine
 10
196.3456897126
 20
22.2470045531
 30
0.0
 11
196.150846631
 21
21.4671082202
 31
0.0
  0
LINE
  5
496
330
23
100
AcDbEntity
  8
LAYOUT_
  6
Continuous
 62
     5
370
    30
100
AcDbLine
 10
197.5785105597
 20
18.5703014242
 30
0.0
 11
199.9068460845
 21
18.5703014242
 31
0.0
  0
LINE
  5
497
330
23
100
AcDbEntity
  8
LAYOUT_
  6
Continuous
 62
     5
370
    30
100
AcDbLine
 10
172.1213034974
 20
18.6817287723
 30
0.0
 11
170.5130402308
 21
18.6817287723
 31
0.0
  0
LINE
  5
498
330
23
100
AcDbEntity
  8
LAYOUT_
  6
Continuous
 62
     5
370
    30
100
AcDbLine
 10
175.184735437
 20
22.2470045531
 30
0.0
 11
177.3525503056
 21
22.2470045531
 31
0.0
  0
LINE
  5
499
330
23
100
AcDbEntity
  8
LAYOUT_
  6
Continuous
 62
     5
370
    30
100
AcDbLine
 10
177.2915035489
 20
17.7903293157
 30
0.0
 11
175.9365974225
 21
17.7903293157
 31
0.0
  0
LINE
  5
49A
330
23
100
AcDbEntity
  8
LAYOUT_
  6
Continuous
 62
     5
370
    30
100
AcDbLine
 10
175.9365974225
 20
17.7903293157
 30
0.0
 11
176.1314405041
 21
18.570312983
 31
0.0
  0
LINE
  5
49B
330
23
100
AcDbEntity
  8
LAYOUT_
  6
Continuous
 62
     5
370
    30
100
AcDbLine
 10
176.1314405041
 20
18.570312983
 30
0.0
 11
177.0133434347
 21
18.570312983
 31
0.0
  0
LINE
  5
49C
330
23
100
AcDbEntity
  8
LAYOUT_
  6
Continuous
 62
     5
370
    30
100
AcDbLine
 10
178.3421707758
 20
19.6064020431
 30
0.0
 11
178.3540194684
 21
19.6534196543
 31
0.0
  0
LINE
  5
49D
330
23
100
AcDbEntity
  8
LAYOUT_
  6
Continuous
 62
     5
370
    30
100
AcDbLine
 10
176.9378270463
 20
21.4673334538
 30
0.0
 11
175.9361012973
 21
21.4673334538
 31
0.0
  0
LINE
  5
49E
330
23
100
AcDbEntity
  8
LAYOUT_
  6
Continuous
 62
     5
370
    30
100
AcDbLine
 10
175.9361012973
 20
21.4673334538
 30
0.0
 11
175.0168192367
 21
17.7905545493
 31
0.0
  0
LINE
  5
49F
330
23
100
AcDbEntity
  8
LAYOUT_
  6
Continuous
 62
     5
370
    30
100
AcDbLine
 10
175.0168192367
 20
17.7905545493
 30
0.0
 11
173.9828670882
 21
17.7905545493
 31
0.0
  0
LINE
  5
4A0
330
23
100
AcDbEntity
  8
LAYOUT_
  6
Continuous
 62
     5
370
    30
100
AcDbLine
 10
173.9828670882
 20
17.7905545493
 30
0.0
 11
175.0766433115
 21
22.1626027379
 31
0.0
  0
LINE
  5
4A1
330
23
100
AcDbEntity
  8
LAYOUT_
  6
Continuous
 62
     5
370
    30
100
AcDbLine
 10
200.8255235693
 20
22.2470637172
 30
0.0
 11
200.6306804877
 21
21.4671673843
 31
0.0
  0
LINE
  5
4A2
330
23
100
AcDbEntity
  8
LAYOUT_
  6
Continuous
 62
     5
370
    30
100
AcDbLine
 10
200.1847528936
 20
19.6840601398
 30
0.0
 11
197.4286534003
 21
19.6840601398
 31
0.0
  0
LINE
  5
4A3
330
23
100
AcDbEntity
  8
LAYOUT_
  6
Continuous
 62
     1
370
    30
100
AcDbLine
 10
180.6109973585
 20
22.2470045531
 30
0.0
 11
181.6450368413
 21
22.2470045531
 31
0.0
  0
LINE
  5
4A4
330
23
100
AcDbEntity
  8
LAYOUT_
  6
Continuous
 62
     1
370
    30
100
AcDbLine
 10
181.6450368413
 20
22.2470045531
 30
0.0
 11
181.4177053571
 21
21.3378532848
 31
0.0
  0
LINE
  5
4A5
330
23
100
AcDbEntity
  8
LAYOUT_
  6
Continuous
 62
     5
370
    30
100
AcDbLine
 10
180.3048028967
 20
21.0214406964
 30
0.0
 11
181.3380563699
 21
21.0214406964
 31
0.0
  0
LINE
  5
4A6
330
23
100
AcDbEntity
  8
LAYOUT_
  6
Continuous
 62
     5
370
    30
100
AcDbLine
 10
181.3380563699
 20
21.0214406964
 30
0.0
 11
180.5308243648
 21
17.7903293157
 31
0.0
  0
LINE
  5
4A7
330
23
100
AcDbEntity
  8
LAYOUT_
  6
Continuous
 62
     5
370
    30
100
AcDbLine
 10
180.5308243648
 20
17.7903293157
 30
0.0
 11
179.4968722163
 21
17.7903293157
 31
0.0
  0
LINE
  5
4A8
330
23
100
AcDbEntity
  8
LAYOUT_
  6
Continuous
 62
     5
370
    30
100
AcDbLine
 10
179.4968722163
 20
17.7903293157
 30
0.0
 11
180.3048028967
 21
21.0214406964
 31
0.0
  0
LINE
  5
4A9
330
23
100
AcDbEntity
  8
LAYOUT_
  6
Continuous
 62
     5
370
    30
100
AcDbLine
 10
181.2197182365
 20
17.7903293157
 30
0.0
 11
182.3339307131
 21
22.2470045531
 31
0.0
  0
LINE
  5
4AA
330
23
100
AcDbEntity
  8
LAYOUT_
  6
Continuous
 62
     5
370
    30
100
AcDbLine
 10
182.3339307131
 20
22.2470045531
 30
0.0
 11
183.1889346436
 21
22.2470045531
 31
0.0
  0
LINE
  5
4AB
330
23
100
AcDbEntity
  8
LAYOUT_
  6
Continuous
 62
     5
370
    30
100
AcDbLine
 10
197.5954621344
 20
20.3526050927
 30
0.0
 11
200.3522603031
 21
20.3526050927
 31
0.0
  0
LINE
  5
4AC
330
23
100
AcDbEntity
  8
LAYOUT_
  6
Continuous
 62
     5
370
    30
100
AcDbLine
 10
183.7835967996
 20
21.8839060984
 30
0.0
 11
185.141646965
 21
19.2385466443
 31
0.0
  0
LINE
  5
4AD
330
23
100
AcDbEntity
  8
LAYOUT_
  6
Continuous
 62
     5
370
    30
100
AcDbLine
 10
185.141646965
 20
19.2385466443
 30
0.0
 11
185.8935089505
 21
22.246780596
 31
0.0
  0
LINE
  5
4AE
330
23
100
AcDbEntity
  8
LAYOUT_
  6
Continuous
 62
     5
370
    30
100
AcDbLine
 10
185.8935089505
 20
22.246780596
 30
0.0
 11
186.9274610989
 21
22.246780596
 31
0.0
  0
LINE
  5
4AF
330
23
100
AcDbEntity
  8
LAYOUT_
  6
Continuous
 62
     5
370
    30
100
AcDbLine
 10
186.9274610989
 20
22.246780596
 30
0.0
 11
185.8133359568
 21
17.7901053585
 31
0.0
  0
LINE
  5
4B0
330
23
100
AcDbEntity
  8
LAYOUT_
  6
Continuous
 62
     5
370
    30
100
AcDbLine
 10
185.8133359568
 20
17.7901053585
 30
0.0
 11
185.1664499391
 21
17.7901053585
 31
0.0
  0
LINE
  5
4B1
330
23
100
AcDbEntity
  8
LAYOUT_
  6
Continuous
 62
     5
370
    30
100
AcDbLine
 10
196.1285078854
 20
18.6210251536
 30
0.0
 11
196.9090155593
 21
21.7406978198
 31
0.0
  0
LINE
  5
4B2
330
23
100
AcDbEntity
  8
LAYOUT_
  6
Continuous
 62
     5
370
    30
100
AcDbLine
 10
184.572399124
 20
18.1532038132
 30
0.0
 11
183.0736532147
 21
21.0717453199
 31
0.0
  0
LINE
  5
4B3
330
23
100
AcDbEntity
  8
LAYOUT_
  6
Continuous
 62
     5
370
    30
100
AcDbLine
 10
183.0736532147
 20
21.0717453199
 30
0.0
 11
182.2536703849
 21
17.7903293157
 31
0.0
  0
LINE
  5
4B4
330
23
100
AcDbEntity
  8
LAYOUT_
  6
Continuous
370
    30
100
AcDbLine
 10
199.9839330998
 20
290.0554081804
 30
0.0
 11
10.6393342483
 21
290.0554081804
 31
0.0
  0
LINE
  5
4B5
330
23
100
AcDbEntity
  8
0
  6
Continuous
 62
   179
370
    30
100
AcDbLine
 10
7.6393342483
 20
287.0554081804
 30
0.0
 11
7.6393342483
 21
10.0292124178
 31
0.0
  0
LINE
  5
4B6
330
23
100
AcDbEntity
  8
0
  6
Continuous
 62
   179
370
    30
100
AcDbLine
 10
10.6393342483
 20
7.0292124178
 30
0.0
 11
165.000198038
 21
7.0292124178
 31
0.0
  0
LINE
  5
4B7
330
23
100
AcDbEntity
  8
0
  6
Continuous
 62
   179
370
    30
100
AcDbLine
 10
168.0002007161
 20
10.029215096
 30
0.0
 11
168.0002007161
 21
11.9169709142
 31
0.0
  0
LINE
  5
4B8
330
23
100
AcDbEntity
  8
0
  6
Continuous
 62
   179
370
    30
100
AcDbLine
 10
171.0002007161
 20
14.9169709142
 30
0.0
 11
200.2151368976
 21
14.9169709142
 31
0.0
  0
LINE
  5
4B9
330
23
100
AcDbEntity
  8
0
  6
Continuous
 62
   179
370
    30
100
AcDbLine
 10
202.9839330998
 20
17.9080509255
 30
0.0
 11
202.9839330998
 21
287.0554081804
 31
0.0
  0
LINE
  5
4BA
330
23
100
AcDbEntity
  8
LAYOUT_
  6
Continuous
 62
     5
370
    30
100
AcDbLine
 10
182.2536703849
 20
17.7903293157
 30
0.0
 11
181.2197182365
 21
17.7903293157
 31
0.0
  0
LINE
  5
4BB
330
23
100
AcDbEntity
  8
LAYOUT_
  6
Continuous
 62
     5
370
    30
100
AcDbLine
 10
188.1390493302
 20
22.2470045531
 30
0.0
 11
191.4070158344
 21
22.2470045531
 31
0.0
  0
LINE
  5
4BC
330
23
100
AcDbEntity
  8
LAYOUT_
  6
Continuous
 62
     5
370
    30
100
AcDbLine
 10
191.4070158344
 20
22.2470045531
 30
0.0
 11
191.2121727528
 21
21.4671082202
 31
0.0
  0
LINE
  5
4BD
330
23
100
AcDbEntity
  8
0
  6
Continuous
 62
   179
370
    30
100
AcDbLine
 10
200.9839330998
 20
270.8855092333
 30
0.0
 11
200.9839330998
 21
28.3658790023
 31
0.0
  0
LINE
  5
4BE
330
23
100
AcDbEntity
  8
LAYOUT_
  6
Continuous
 62
     5
370
    30
100
AcDbLine
 10
191.2121727528
 20
21.4671082202
 30
0.0
 11
188.7171158283
 21
21.4671082202
 31
0.0
  0
LINE
  5
4BF
330
23
100
AcDbEntity
  8
0
  6
Continuous
 62
   179
370
    30
100
AcDbLine
 10
165.9839087496
 20
22.3658790023
 30
0.0
 11
165.9839087496
 21
12.029215096
 31
0.0
  0
LINE
  5
4C0
330
23
100
AcDbEntity
  8
0
  6
Continuous
 62
   179
370
    30
100
AcDbLine
 10
162.9887208729
 20
8.8593134707
 30
0.0
 11
9.6393342483
 21
8.8593134707
 31
0.0
  0
LINE
  5
4C1
330
23
100
AcDbEntity
  8
LAYOUT_
  6
Continuous
 62
     5
370
    30
100
AcDbLine
 10
197.8113528102
 20
21.2139844355
 30
0.0
 11
197.5954621344
 21
20.3526050927
 31
0.0
  0
LINE
  5
4C2
330
23
100
AcDbEntity
  8
LAYOUT_
370
    30
100
AcDbLine
 10
168.9839087496
 20
25.3658790023
 30
0.0
 11
197.9839330998
 21
25.3658790023
 31
0.0
  0
LINE
  5
4C3
330
23
100
AcDbEntity
  8
LAYOUT_
  6
Continuous
 62
     5
370
    30
100
AcDbLine
 10
188.3928450754
 20
21.2139252715
 30
0.0
 11
188.1769543996
 21
20.3525459286
 31
0.0
  0
LINE
  5
4C4
330
23
100
AcDbEntity
  8
LAYOUT_
  6
Continuous
 62
     5
370
    30
100
AcDbLine
 10
188.1769543996
 20
20.3525459286
 30
0.0
 11
190.9337525682
 21
20.3525459286
 31
0.0
  0
LINE
  5
4C5
330
23
100
AcDbEntity
  8
LAYOUT_
  6
Continuous
 62
     5
370
    30
100
AcDbLine
 10
190.9337525682
 20
20.3525459286
 30
0.0
 11
190.7662451587
 21
19.6840009758
 31
0.0
  0
LINE
  5
4C6
330
23
100
AcDbEntity
  8
LAYOUT_
  6
Continuous
 62
     5
370
    30
100
AcDbLine
 10
190.7662451587
 20
19.6840009758
 30
0.0
 11
188.0101456654
 21
19.6840009758
 31
0.0
  0
LINE
  5
4C7
330
23
100
AcDbEntity
  8
LAYOUT_
  6
Continuous
 62
     5
370
    30
100
AcDbLine
 10
188.0101456654
 20
19.6840009758
 30
0.0
 11
187.8357388371
 21
18.9855876527
 31
0.0
  0
LINE
  5
4C8
330
23
100
AcDbEntity
  8
LAYOUT_
  6
Continuous
 62
     5
370
    30
100
AcDbLine
 10
199.711391662
 20
17.7903177568
 30
0.0
 11
196.7775666326
 21
17.7903177568
 31
0.0
  0
LINE
  5
4C9
330
23
100
AcDbEntity
  8
LAYOUT_
  6
Continuous
 62
     5
370
    30
100
AcDbLine
 10
188.1600028249
 20
18.5702422601
 30
0.0
 11
190.4883383497
 21
18.5702422601
 31
0.0
  0
LINE
  5
4CA
330
23
100
AcDbEntity
  8
LAYOUT_
  6
Continuous
 62
     5
370
    30
100
AcDbLine
 10
190.4883383497
 20
18.5702422601
 30
0.0
 11
190.2928839272
 21
17.7902585927
 31
0.0
  0
LINE
  5
4CB
330
23
100
AcDbEntity
  8
LAYOUT_
  6
Continuous
 62
     5
370
    30
100
AcDbLine
 10
190.2928839272
 20
17.7902585927
 30
0.0
 11
187.3590588977
 21
17.7902585927
 31
0.0
  0
LINE
  5
4CC
330
23
100
AcDbEntity
  8
LAYOUT_
  6
Continuous
 62
     5
370
    30
100
AcDbLine
 10
199.9068460845
 20
18.5703014242
 30
0.0
 11
199.711391662
 21
17.7903177568
 31
0.0
  0
LINE
  5
4CD
330
23
100
AcDbEntity
  8
LAYOUT_
  6
Continuous
 62
     5
370
    30
100
AcDbLine
 10
186.7100001505
 20
18.6209659895
 30
0.0
 11
187.4905078244
 21
21.7406386557
 31
0.0
  0
LINE
  5
4CE
330
23
100
AcDbEntity
  8
LAYOUT_
  6
Continuous
 62
     5
370
    30
100
AcDbLine
 10
193.2539640594
 20
21.4671082202
 30
0.0
 11
196.150846631
 21
21.4671082202
 31
0.0
  0
LINE
  5
4CF
330
23
100
AcDbEntity
  8
LAYOUT_
  6
Continuous
 62
     5
370
    30
100
AcDbLine
 10
197.4286534003
 20
19.6840601398
 30
0.0
 11
197.2542465719
 21
18.9856468168
 31
0.0
  0
LINE
  5
4D0
330
23
100
AcDbEntity
  8
LAYOUT_
  6
Continuous
 62
     5
370
    30
100
AcDbLine
 10
196.3456897126
 20
22.2470045531
 30
0.0
 11
192.7274248667
 21
22.2470045531
 31
0.0
  0
LINE
  5
4D1
330
23
100
AcDbEntity
  8
LAYOUT_
  6
Continuous
 62
     5
370
    30
100
AcDbLine
 10
200.3522603031
 20
20.3526050927
 30
0.0
 11
200.1847528936
 21
19.6840601398
 31
0.0
  0
LINE
  5
4D2
330
23
100
AcDbEntity
  8
LAYOUT_
  6
Continuous
 62
     5
370
    30
100
AcDbLine
 10
200.6306804877
 20
21.4671673843
 30
0.0
 11
198.1356235631
 21
21.4671673843
 31
0.0
  0
LINE
  5
4D3
330
23
100
AcDbEntity
  8
LAYOUT_
  6
Continuous
 62
     5
370
    30
100
AcDbLine
 10
192.1688212694
 20
20.8156357174
 30
0.0
 11
194.4506075506
 21
18.7635389497
 31
0.0
  0
LINE
  5
4D4
330
23
100
AcDbEntity
  8
LAYOUT_
  6
Continuous
 62
     5
370
    30
100
AcDbLine
 10
197.5575570651
 20
22.2470637172
 30
0.0
 11
200.8255235693
 21
22.2470637172
 31
0.0
  0
LINE
  5
4D5
330
23
100
AcDbEntity
  8
LAYOUT_
  6
Continuous
 62
     5
370
    30
100
AcDbLine
 10
194.3982463234
 20
18.566482045
 30
0.0
 11
191.1805844427
 21
18.566482045
 31
0.0
  0
LINE
  5
4D6
330
23
100
AcDbEntity
  8
LAYOUT_
  6
Continuous
 62
     5
370
    30
100
AcDbLine
 10
191.1805844427
 20
18.566482045
 30
0.0
 11
190.9856540267
 21
17.7864983776
 31
0.0
  0
LINE
  5
4D7
330
23
100
AcDbEntity
  8
LAYOUT_
  6
Continuous
 62
     5
370
    30
100
AcDbLine
 10
190.9856540267
 20
17.7864983776
 30
0.0
 11
194.456760382
 21
17.7864983776
 31
0.0
  0
LINE
  5
4D8
330
23
100
AcDbEntity
  8
LAYOUT_
  6
Continuous
 62
     5
370
    30
100
AcDbLine
 10
195.1232665766
 20
19.5245845515
 30
0.0
 11
193.1794644845
 21
21.2728448867
 31
0.0
  0
ARC
  5
4D9
330
23
100
AcDbEntity
  8
LAYOUT_
370
    30
100
AcDbCircle
 10
93.5495543863
 20
276.8855092333
 30
0.0
 40
3.000000000000014
100
AcDbArc
 50
180.0
 51
270.0
  0
ARC
  5
4DA
330
23
100
AcDbEntity
  8
LAYOUT_
370
    30
100
AcDbCircle
 10
87.5495543863
 20
284.8855092333
 30
0.0
 40
3.0
100
AcDbArc
 50
0.0
 51
90.0
  0
ARC
  5
4DB
330
23
100
AcDbEntity
  8
LAYOUT_
370
    30
100
AcDbCircle
 10
12.6393342483
 20
284.8855092333
 30
0.0
 40
3.000000000000004
100
AcDbArc
 50
90.0
 51
180.0
  0
ARC
  5
4DC
330
23
100
AcDbEntity
  8
LAYOUT_
  6
Continuous
 62
     5
370
    30
100
AcDbCircle
 10
169.8139393226
 20
18.6817287723
 30
0.0
 40
0.8913350474915127
100
AcDbArc
 50
180.0
 51
270.0
  0
ARC
  5
4DD
330
23
100
AcDbEntity
  8
LAYOUT_
  6
Continuous
 62
     5
370
    30
100
AcDbCircle
 10
172.5980078949
 20
18.6817287723
 30
0.0
 40
0.891335060555241
100
AcDbArc
 50
270.0098094466
 51
346.0052277623
  0
ARC
  5
4DE
330
23
100
AcDbEntity
  8
LAYOUT_
  6
Continuous
 62
     5
370
    30
100
AcDbCircle
 10
172.1518111063
 20
19.12635089
 30
0.0
 40
0.445667523746016
100
AcDbArc
 50
266.074820003
 51
330.6760170475
  0
ARC
  5
4DF
330
23
100
AcDbEntity
  8
0
  6
Continuous
 62
   179
370
    30
100
AcDbCircle
 10
165.000198038
 20
10.029215096
 30
0.0
 40
3.000002678143693
100
AcDbArc
 50
270.0
 51
0.0
  0
ARC
  5
4E0
330
23
100
AcDbEntity
  8
LAYOUT_
370
    30
100
AcDbCircle
 10
171.0002007161
 20
11.9169709142
 30
0.0
 40
3.000000000000028
100
AcDbArc
 50
90.0
 51
180.0
  0
ARC
  5
4E1
330
23
100
AcDbEntity
  8
0
  6
Continuous
 62
   179
370
    30
100
AcDbCircle
 10
199.9839304216
 20
17.9080509255
 30
0.0
 40
3.000002678143705
100
AcDbArc
 50
274.4200974644
 51
0.0
  0
ARC
  5
4E2
330
23
100
AcDbEntity
  8
LAYOUT_
370
    30
100
AcDbCircle
 10
197.9839330998
 20
270.8855092333
 30
0.0
 40
2.999999999999943
100
AcDbArc
 50
0.0
 51
90.0
  0
ARC
  5
4E3
330
23
100
AcDbEntity
  8
LAYOUT_
  6
Continuous
 62
     5
370
    30
100
AcDbCircle
 10
170.5130402308
 20
19.127396296
 30
0.0
 40
0.4456675237457368
100
AcDbArc
 50
180.4042063829
 51
270.0000000003
  0
ARC
  5
4E4
330
23
100
AcDbEntity
  8
LAYOUT_
  6
Continuous
 62
     5
370
    30
100
AcDbCircle
 10
177.1727103496
 20
20.0207122467
 30
0.0
 40
2.233544233581845
100
AcDbArc
 50
346.6914600051
 51
85.3816733727
  0
ARC
  5
4E5
330
23
100
AcDbEntity
  8
LAYOUT_
370
    30
100
AcDbCircle
 10
199.9839330998
 20
287.0554081804
 30
0.0
 40
3.0
100
AcDbArc
 50
0.0
 51
90.0
  0
ARC
  5
4E6
330
23
100
AcDbEntity
  8
LAYOUT_
  6
Continuous
370
    30
100
AcDbCircle
 10
197.9839330998
 20
28.3658790023
 30
0.0
 40
3.000000000000028
100
AcDbArc
 50
270.0
 51
0.0
  0
ARC
  5
4E7
330
23
100
AcDbEntity
  8
LAYOUT_
370
    30
100
AcDbCircle
 10
168.9839087496
 20
22.3658790023
 30
0.0
 40
3.000000000000007
100
AcDbArc
 50
90.0
 51
180.0
  0
ARC
  5
4E8
330
23
100
AcDbEntity
  8
0
  6
Continuous
 62
   179
370
    30
100
AcDbCircle
 10
162.9887208729
 20
11.8593161489
 30
0.0
 40
3.000002678143741
100
AcDbArc
 50
270.0
 51
3.2465649992
  0
ARC
  5
4E9
330
23
100
AcDbEntity
  8
LAYOUT_
  6
Continuous
 62
     5
370
    30
100
AcDbCircle
 10
177.1727103496
 20
20.0207122467
 30
0.0
 40
2.233544233581874
100
AcDbArc
 50
273.0487696877
 51
346.6914600051
  0
ARC
  5
4EA
330
23
100
AcDbEntity
  8
LAYOUT_
  6
Continuous
 62
     5
370
    30
100
AcDbCircle
 10
177.0127774411
 20
19.9412216085
 30
0.0
 40
1.370908742272629
100
AcDbArc
 50
270.0236551432
 51
345.8635575518
  0
ARC
  5
4EB
330
23
100
AcDbEntity
  8
LAYOUT_
370
    30
100
AcDbCircle
 10
10.6393342483
 20
10.0292124178
 30
0.0
 40
2.999999999999999
100
AcDbArc
 50
180.0
 51
270.0
  0
ARC
  5
4EC
330
23
100
AcDbEntity
  8
LAYOUT_
  6
Continuous
 62
     5
370
    30
100
AcDbCircle
 10
176.9378270463
 20
20.0075385479
 30
0.0
 40
1.459794905866598
100
AcDbArc
 50
345.961061111
 51
90.0
  0
ARC
  5
4ED
330
23
100
AcDbEntity
  8
LAYOUT_
370
    30
100
AcDbCircle
 10
10.6393342483
 20
287.0554081804
 30
0.0
 40
3.000000000000057
100
AcDbArc
 50
90.0
 51
180.0
  0
ARC
  5
4EE
330
23
100
AcDbEntity
  8
LAYOUT_
  6
Continuous
 62
     5
370
    30
100
AcDbCircle
 10
175.184735437
 20
22.1355876722
 30
0.0
 40
0.1114168809365383
100
AcDbArc
 50
89.9999999999
 51
165.967730555
  0
ARC
  5
4EF
330
23
100
AcDbEntity
  8
LAYOUT_
  6
Continuous
 62
     1
370
    30
100
AcDbCircle
 10
180.1829862628
 20
21.0547421387
 30
0.0
 40
1.266760894066332
100
AcDbArc
 50
12.9142283995
 51
70.2523349868
  0
ARC
  5
4F0
330
23
100
AcDbEntity
  8
LAYOUT_
  6
Continuous
 62
     5
370
    30
100
AcDbCircle
 10
183.1889346436
 20
21.5785032675
 30
0.0
 40
0.668501285618757
100
AcDbArc
 50
27.1838388889
 51
90.0
  0
ARC
  5
4F1
330
23
100
AcDbEntity
  8
LAYOUT_
  6
Continuous
 62
     5
370
    30
100
AcDbCircle
 10
185.1670614236
 20
18.4586063645
 30
0.0
 40
0.6685012856186513
100
AcDbArc
 50
207.1838119432
 51
269.9475909936
  0
ARC
  5
4F2
330
23
100
AcDbEntity
  8
LAYOUT_
  6
Continuous
 62
     5
370
    30
100
AcDbCircle
 10
188.1390493302
 20
21.5785032675
 30
0.0
 40
0.6685012856187369
100
AcDbArc
 50
90.0
 51
165.9637555556
  0
ARC
  5
4F3
330
23
100
AcDbEntity
  8
LAYOUT_
  6
Continuous
 62
     5
370
    30
100
AcDbCircle
 10
188.7171158283
 20
21.1328575774
 30
0.0
 40
0.3342506428094048
100
AcDbArc
 50
90.0
 51
165.9637555553
  0
ARC
  5
4F4
330
23
100
AcDbEntity
  8
LAYOUT_
  6
Continuous
 62
     5
370
    30
100
AcDbCircle
 10
188.1600028249
 20
18.9044929029
 30
0.0
 40
0.334250642809277
100
AcDbArc
 50
165.958975
 51
270.0
  0
ARC
  5
4F5
330
23
100
AcDbEntity
  8
LAYOUT_
  6
Continuous
 62
     5
370
    30
100
AcDbCircle
 10
187.358523918
 20
18.4587596643
 30
0.0
 40
0.6685012856186544
100
AcDbArc
 50
165.9574885007
 51
270.0458519451
  0
ARC
  5
4F6
330
23
100
AcDbEntity
  8
LAYOUT_
  6
Continuous
 62
     5
370
    30
100
AcDbCircle
 10
192.7177321051
 20
21.4261029653
 30
0.0
 40
0.8209588092300357
100
AcDbArc
 50
89.3235138889
 51
228.0392277776
  0
ARC
  5
4F7
330
23
100
AcDbEntity
  8
LAYOUT_
  6
Continuous
 62
     5
370
    30
100
AcDbCircle
 10
194.3809850767
 20
18.6765537067
 30
0.0
 40
0.1114168809364326
100
AcDbArc
 50
278.9124394813
 51
51.3264264757
  0
ARC
  5
4F8
330
23
100
AcDbEntity
  8
LAYOUT_
  6
Continuous
 62
     5
370
    30
100
AcDbCircle
 10
194.456760382
 20
18.7833344688
 30
0.0
 40
0.9968360911629807
100
AcDbArc
 50
270.0
 51
48.0392277778
  0
ARC
  5
4F9
330
23
100
AcDbEntity
  8
LAYOUT_
  6
Continuous
 62
     5
370
    30
100
AcDbCircle
 10
193.2539640594
 20
21.3556913392
 30
0.0
 40
0.1114168809364989
100
AcDbArc
 50
90.0
 51
228.036575
  0
ARC
  5
4FA
330
23
100
AcDbEntity
  8
LAYOUT_
  6
Continuous
 62
     5
370
    30
100
AcDbCircle
 10
198.1356235631
 20
21.1329167414
 30
0.0
 40
0.3342506428093059
100
AcDbArc
 50
90.0
 51
165.9637555556
  0
ARC
  5
4FB
330
23
100
AcDbEntity
  8
LAYOUT_
  6
Continuous
 62
     5
370
    30
100
AcDbCircle
 10
196.7770316528
 20
18.4588188284
 30
0.0
 40
0.6685012856186068
100
AcDbArc
 50
165.9574885004
 51
270.0458519451
  0
ARC
  5
4FC
330
23
100
AcDbEntity
  8
LAYOUT_
  6
Continuous
 62
     5
370
    30
100
AcDbCircle
 10
197.5575570651
 20
21.5785624316
 30
0.0
 40
0.6685012856185826
100
AcDbArc
 50
90.0
 51
165.9637555556
  0
ARC
  5
4FD
330
23
100
AcDbEntity
  8
LAYOUT_
  6
Continuous
 62
     5
370
    30
100
AcDbCircle
 10
197.5785105597
 20
18.904552067
 30
0.0
 40
0.3342506428094048
100
AcDbArc
 50
165.958975
 51
270.0
  0
MTEXT
  5
4FE
330
23
100
AcDbEntity
  8
TEXTOS_PORTUGUES
 62
     7
100
AcDbMText
 10
-31.52161713
 20
212.3054170333
 30
0.0
 40
2.6458333333
 41
0.0
 71
     1
 72
     1
  1
SUBTÍTULO 1
  7
SLDTEXTSTYLE0
 73
     1
 44
1.0
  0
INSERT
  5
504
330
23
100
AcDbEntity
  8
TEXTOS_PORTUGUES
 62
     7
100
AcDbBlockReference
  2
SW_NOTE_4
 10
-32.0115868678
 20
215.9221583156
 30
0.0
  0
MTEXT
  5
505
330
23
100
AcDbEntity
  8
TEXTOS_PORTUGUES
 62
     7
100
AcDbMText
 10
-29.5029447158
 20
226.1940268952
 30
0.0
 40
2.38125
 41
0.0
 71
     1
 72
     1
  1
Textos/Notas
  7
SLDTEXTSTYLE0
 73
     1
 44
1.0
  0
MTEXT
  5
506
330
23
100
AcDbEntity
  8
TEXTOS_PORTUGUES
 62
     7
100
AcDbMText
 10
23.6979221896
 20
282.0365374145
 30
0.0
 40
3.175
 41
0.0
 71
     1
 72
     1
  1
\LDETALHE DE USINAGEM
  7
SLDTEXTSTYLE0
 73
     1
 44
1.0
  0
MTEXT
  5
507
330
23
100
AcDbEntity
  8
LAYOUT_
 62
     7
100
AcDbMText
 10
5.6133829609
 20
55.758651613
 30
0.0
 40
1.8520833333
 41
0.0
 71
     2
 72
     1
  1
Reservamos o direito de alteração sem aviso prévio
  7
SLDTEXTSTYLE0
 11
-3.269436733918102E-15
 21
1.0
 31
0.0
 73
     1
 44
1.0
  0
MTEXT
  5
508
330
23
100
AcDbEntity
  8
TEXTOS_PORTUGUES
 62
     7
100
AcDbMText
 10
165.3141722366
 20
28.8434067723
 30
0.0
 40
2.1166666667
 41
0.0
 71
     1
 72
     1
  1
*Todas as medidas em mm.
  7
SLDTEXTSTYLE0
 73
     1
 44
1.0
  0
MTEXT
  5
509
330
23
100
AcDbEntity
  8
LAYOUT_
 62
     7
100
AcDbMText
 10
189.7438185528
 20
11.5572210479
 30
0.0
 40
2.5
 41
0.0
 71
     1
 72
     1
  1
3/4
  7
SLDTEXTSTYLE0
 73
     1
 44
1.0
  0
MTEXT
  5
50A
330
23
100
AcDbEntity
  8
TEXTOS_PORTUGUES
 62
     7
100
AcDbMText
 10
174.5856658711
 20
11.5572210479
 30
0.0
 40
2.5
 41
0.0
 71
     1
 72
     1
  1
FOLHA:
  7
SLDTEXTSTYLE0
 73
     1
 44
1.0
  0
INSERT
  5
522
330
23
100
AcDbEntity
  8
LAYOUT_
 62
     7
100
AcDbBlockReference
  2
SW_NOTE_5
 10
222.9302142857
 20
283.8511825994
 30
0.0
  0
MTEXT
  5
523
330
23
100
AcDbEntity
  8
TEXTOS_PORTUGUES
100
AcDbMText
 10
147.1791831691
 20
287.9178607695
 30
0.0
 40
5.2916666667
 41
0.0
 71
     2
 72
     1
  1
PIVO BASCULANTE MASTER
  7
SLDTEXTSTYLE0
 73
     1
 44
1.0
  0
MTEXT
  5
524
330
23
100
AcDbEntity
  8
TEXTOS_PORTUGUES
100
AcDbMText
 10
146.6769525348
 20
281.3632687115
 30
0.0
 40
5.2916666667
 41
0.0
 71
     2
 72
     1
  1
PIV-7580
  7
SLDTEXTSTYLE0
 73
     1
 44
1.0
  0
ENDBLK
  5
25
330
23
100
AcDbEntity
  8
0
100
AcDbBlockEnd
  0
BLOCK
  5
149
330
148
100
AcDbEntity
  8
0
100
AcDbBlockBegin
  2
SW_NOTE_0
 70
     0
 10
0.0
 20
0.0
 30
0.0
  3
SW_NOTE_0
  1

  0
MTEXT
  5
14B
330
148
100
AcDbEntity
  8
TEXTOS_PORTUGUES
 62
     0
100
AcDbMText
 10
0.0
 20
4.0927900738
 30
0.0
 40
3.175
 41
0.0
 71
     1
 72
     1
  1
\LSUBTÍTULO
  7
SLDTEXTSTYLE0
 73
     1
 44
1.0
  0
MTEXT
  5
14C
330
148
100
AcDbEntity
  8
TEXTOS_PORTUGUES
 62
     0
100
AcDbMText
 10
25.399999693
 20
4.0927900738
 30
0.0
 40
3.175
 41
0.0
 71
     1
 72
     1
  1
3
  7
SLDTEXTSTYLE0
 73
     1
 44
1.0
  0
ENDBLK
  5
14A
330
148
100
AcDbEntity
  8
0
100
AcDbBlockEnd
  0
BLOCK
  5
154
330
153
100
AcDbEntity
  8
0
100
AcDbBlockBegin
  2
SW_NOTE_1
 70
     0
 10
0.0
 20
0.0
 30
0.0
  3
SW_NOTE_1
  1

  0
MTEXT
  5
156
330
153
100
AcDbEntity
  8
LAYOUT_
 62
     0
100
AcDbMText
 10
0.0
 20
4.7749217527
 30
0.0
 40
3.7041666667
 41
0.0
 71
     1
 72
     1
  1
LAYERS RELACIONADOS AS TIPOLOGIAS:
  7
SLDTEXTSTYLE0
 73
     1
 44
1.0
  0
MTEXT
  5
157
330
153
100
AcDbEntity
  8
LAYOUT_
 62
     0
100
AcDbMText
 10
9.9999997765
 20
-5.1028559057
 30
0.0
 40
3.7041666667
 41
0.0
 71
     1
 72
     1
  1
JANELA E PORTA DE CORRER
  7
SLDTEXTSTYLE0
 73
     1
 44
1.0
  0
MTEXT
  5
158
330
153
100
AcDbEntity
  8
LAYOUT_
 62
     0
100
AcDbMText
 10
0.0
 20
-5.1028559057
 30
0.0
 40
3.7041666667
 41
0.0
 71
     1
 72
     1
  1
1.
  7
SLDTEXTSTYLE0
 73
     1
 44
1.0
  0
MTEXT
  5
159
330
153
100
AcDbEntity
  8
LAYOUT_
 62
     0
100
AcDbMText
 10
9.9999997765
 20
-10.0417447349
 30
0.0
 40
3.7041666667
 41
0.0
 71
     1
 72
     1
  1
JANELA DE CORRER
  7
SLDTEXTSTYLE0
 73
     1
 44
1.0
  0
MTEXT
  5
15A
330
153
100
AcDbEntity
  8
LAYOUT_
 62
     0
100
AcDbMText
 10
0.0
 20
-10.0417447349
 30
0.0
 40
3.7041666667
 41
0.0
 71
     1
 72
     1
  1
2.
  7
SLDTEXTSTYLE0
 73
     1
 44
1.0
  0
MTEXT
  5
15B
330
153
100
AcDbEntity
  8
LAYOUT_
 62
     0
100
AcDbMText
 10
9.9999997765
 20
-14.9806335641
 30
0.0
 40
3.7041666667
 41
0.0
 71
     1
 72
     1
  1
PORTA DE CORRER
  7
SLDTEXTSTYLE0
 73
     1
 44
1.0
  0
MTEXT
  5
15C
330
153
100
AcDbEntity
  8
LAYOUT_
 62
     0
100
AcDbMText
 10
0.0
 20
-14.9806335641
 30
0.0
 40
3.7041666667
 41
0.0
 71
     1
 72
     1
  1
3.
  7
SLDTEXTSTYLE0
 73
     1
 44
1.0
  0
MTEXT
  5
15D
330
153
100
AcDbEntity
  8
LAYOUT_
 62
     0
100
AcDbMText
 10
9.9999997765
 20
-19.9195223933
 30
0.0
 40
3.7041666667
 41
0.0
 71
     1
 72
     1
  1
MAXIM-AR
  7
SLDTEXTSTYLE0
 73
     1
 44
1.0
  0
MTEXT
  5
15E
330
153
100
AcDbEntity
  8
LAYOUT_
 62
     0
100
AcDbMText
 10
0.0
 20
-19.9195223933
 30
0.0
 40
3.7041666667
 41
0.0
 71
     1
 72
     1
  1
4.
  7
SLDTEXTSTYLE0
 73
     1
 44
1.0
  0
MTEXT
  5
15F
330
153
100
AcDbEntity
  8
LAYOUT_
 62
     0
100
AcDbMText
 10
9.9999997765
 20
-24.8584112225
 30
0.0
 40
3.7041666667
 41
0.0
 71
     1
 72
     1
  1
PERSIANAS
  7
SLDTEXTSTYLE0
 73
     1
 44
1.0
  0
MTEXT
  5
160
330
153
100
AcDbEntity
  8
LAYOUT_
 62
     0
100
AcDbMText
 10
0.0
 20
-24.8584112225
 30
0.0
 40
3.7041666667
 41
0.0
 71
     1
 72
     1
  1
5.
  7
SLDTEXTSTYLE0
 73
     1
 44
1.0
  0
MTEXT
  5
161
330
153
100
AcDbEntity
  8
LAYOUT_
 62
     0
100
AcDbMText
 10
9.9999997765
 20
-29.7973000517
 30
0.0
 40
3.7041666667
 41
0.0
 71
     1
 72
     1
  1
PORTA DE GIRO
  7
SLDTEXTSTYLE0
 73
     1
 44
1.0
  0
MTEXT
  5
162
330
153
100
AcDbEntity
  8
LAYOUT_
 62
     0
100
AcDbMText
 10
0.0
 20
-29.7973000517
 30
0.0
 40
3.7041666667
 41
0.0
 71
     1
 72
     1
  1
6.
  7
SLDTEXTSTYLE0
 73
     1
 44
1.0
  0
MTEXT
  5
163
330
153
100
AcDbEntity
  8
LAYOUT_
 62
     0
100
AcDbMText
 10
9.9999997765
 20
-34.7361888809
 30
0.0
 40
3.7041666667
 41
0.0
 71
     1
 72
     1
  1
JANELA BASCULANTE
  7
SLDTEXTSTYLE0
 73
     1
 44
1.0
  0
MTEXT
  5
164
330
153
100
AcDbEntity
  8
LAYOUT_
 62
     0
100
AcDbMText
 10
0.0
 20
-34.7361888809
 30
0.0
 40
3.7041666667
 41
0.0
 71
     1
 72
     1
  1
7.
  7
SLDTEXTSTYLE0
 73
     1
 44
1.0
  0
MTEXT
  5
165
330
153
100
AcDbEntity
  8
LAYOUT_
 62
     0
100
AcDbMText
 10
0.0
 20
-44.6139665393
 30
0.0
 40
3.7041666667
 41
0.0
 71
     1
 72
     1
  1
**OBS:
  7
SLDTEXTSTYLE0
 73
     1
 44
1.0
  0
MTEXT
  5
166
330
153
100
AcDbEntity
  8
LAYOUT_
 62
     0
100
AcDbMText
 10
0.0
 20
-49.5528553685
 30
0.0
 40
3.7041666667
 41
0.0
 71
     1
 72
     1
  1
- PARA CATÁLOGOS EM PORTUGUES
  7
SLDTEXTSTYLE0
 73
     1
 44
1.0
  0
MTEXT
  5
167
330
153
100
AcDbEntity
  8
LAYOUT_
 62
     0
100
AcDbMText
 10
19.999999553
 20
-54.4917441977
 30
0.0
 40
3.7041666667
 41
0.0
 71
     1
 72
     1
  1
LAYER: TEXTOS EM PORTUGUES
  7
SLDTEXTSTYLE0
 73
     1
 44
1.0
  0
MTEXT
  5
168
330
153
100
AcDbEntity
  8
LAYOUT_
 62
     0
100
AcDbMText
 10
10.0
 20
-54.4917441977
 30
0.0
 40
3.7041666667
 41
0.0
 71
     1
 72
     1
  1
%%d
  7
SLDTEXTSTYLE0
 73
     1
 44
1.0
  0
MTEXT
  5
169
330
153
100
AcDbEntity
  8
LAYOUT_
 62
     0
100
AcDbMText
 10
0.0
 20
-64.3695218561
 30
0.0
 40
3.7041666667
 41
0.0
 71
     1
 72
     1
  1
- PARA CATÁLOGOS EM ESPANHOL
  7
SLDTEXTSTYLE0
 73
     1
 44
1.0
  0
MTEXT
  5
16A
330
153
100
AcDbEntity
  8
LAYOUT_
 62
     0
100
AcDbMText
 10
19.999999553
 20
-69.3084106853
 30
0.0
 40
3.7041666667
 41
0.0
 71
     1
 72
     1
  1
LAYER: TEXTOS EM ESPANHOL
  7
SLDTEXTSTYLE0
 73
     1
 44
1.0
  0
MTEXT
  5
16B
330
153
100
AcDbEntity
  8
LAYOUT_
 62
     0
100
AcDbMText
 10
10.0
 20
-69.3084106853
 30
0.0
 40
3.7041666667
 41
0.0
 71
     1
 72
     1
  1
%%d
  7
SLDTEXTSTYLE0
 73
     1
 44
1.0
  0
ENDBLK
  5
155
330
153
100
AcDbEntity
  8
0
100
AcDbBlockEnd
  0
BLOCK
  5
172
330
171
100
AcDbEntity
  8
0
100
AcDbBlockBegin
  2
SW_TABLEANNOTATION_0
 70
     0
 10
0.0
 20
0.0
 30
0.0
  3
SW_TABLEANNOTATION_0
  1

  0
LINE
  5
174
330
171
100
AcDbEntity
  8
LAYOUT_
 62
     0
100
AcDbLine
 10
0.0
 20
0.0
 30
0.0
 11
0.0
 21
-17.2333332822
 31
0.0
  0
LINE
  5
175
330
171
100
AcDbEntity
  8
LAYOUT_
 62
     0
100
AcDbLine
 10
0.0
 20
-17.2333332822
 30
0.0
 11
77.1964603431
 21
-17.2333332822
 31
0.0
  0
LINE
  5
176
330
171
100
AcDbEntity
  8
LAYOUT_
 62
     0
100
AcDbLine
 10
77.1964603431
 20
-17.2333332822
 30
0.0
 11
77.1964603431
 21
0.0
 31
0.0
  0
LINE
  5
177
330
171
100
AcDbEntity
  8
LAYOUT_
 62
     0
100
AcDbLine
 10
77.1964603431
 20
0.0
 30
0.0
 11
0.0
 21
0.0
 31
0.0
  0
LINE
  5
178
330
171
100
AcDbEntity
  8
LAYOUT_
 62
     0
100
AcDbLine
 10
39.6004960482
 20
0.0
 30
0.0
 11
39.6004960482
 21
-17.2333332822
 31
0.0
  0
LINE
  5
179
330
171
100
AcDbEntity
  8
LAYOUT_
 62
     0
100
AcDbLine
 10
0.0
 20
-6.2333332822
 30
0.0
 11
77.1964603431
 21
-6.2333332822
 31
0.0
  0
LINE
  5
17A
330
171
100
AcDbEntity
  8
LAYOUT_
 62
     0
100
AcDbLine
 10
0.0
 20
-11.7333332822
 30
0.0
 11
77.1964603431
 21
-11.7333332822
 31
0.0
  0
MTEXT
  5
17B
330
171
100
AcDbEntity
  8
LAYOUT_
 62
     0
100
AcDbMText
 10
9.2169152843
 20
-1.6345740084
 30
0.0
 40
2.38125
 41
0.0
 71
     1
 72
     1
  1
Componentes
  7
SLDTEXTSTYLE0
 73
     1
 44
1.0
  0
MTEXT
  5
17C
330
171
100
AcDbEntity
  8
LAYOUT_
 62
     0
100
AcDbMText
 10
47.9033389097
 20
-1.6345740084
 30
0.0
 40
2.38125
 41
0.0
 71
     1
 72
     1
  1
Matéria-Prima
  7
SLDTEXTSTYLE0
 73
     1
 44
1.0
  0
MTEXT
  5
17D
330
171
100
AcDbEntity
  8
LAYOUT_
 62
     0
100
AcDbMText
 10
9.6578862789
 20
-7.7960568259
 30
0.0
 40
2.38125
 41
0.0
 71
     1
 72
     1
  1
PIVO MACHO
  7
SLDTEXTSTYLE0
 73
     1
 44
1.0
  0
MTEXT
  5
17E
330
171
100
AcDbEntity
  8
LAYOUT_
 62
     0
100
AcDbMText
 10
50.0200060165
 20
-7.7960568259
 30
0.0
 40
2.38125
 41
0.0
 71
     1
 72
     1
  1
POLÍMERO
  7
SLDTEXTSTYLE0
 73
     1
 44
1.0
  0
MTEXT
  5
17F
330
171
100
AcDbEntity
  8
LAYOUT_
 62
     0
100
AcDbMText
 10
10.098859136
 20
-13.2960568259
 30
0.0
 40
2.38125
 41
0.0
 71
     1
 72
     1
  1
PIVO FEMEA
  7
SLDTEXTSTYLE0
 73
     1
 44
1.0
  0
MTEXT
  5
180
330
171
100
AcDbEntity
  8
LAYOUT_
 62
     0
100
AcDbMText
 10
50.0200060165
 20
-13.2960568259
 30
0.0
 40
2.38125
 41
0.0
 71
     1
 72
     1
  1
POLÍMERO
  7
SLDTEXTSTYLE0
 73
     1
 44
1.0
  0
ENDBLK
  5
173
330
171
100
AcDbEntity
  8
0
100
AcDbBlockEnd
  0
BLOCK
  5
183
330
182
100
AcDbEntity
  8
0
100
AcDbBlockBegin
  2
SW_TABLEANNOTATION_1
 70
     0
 10
0.0
 20
0.0
 30
0.0
  3
SW_TABLEANNOTATION_1
  1

  0
LINE
  5
185
330
182
100
AcDbEntity
  8
LAYOUT_
 62
     0
100
AcDbLine
 10
0.0
 20
0.0
 30
0.0
 11
0.0
 21
-14.1175931968
 31
0.0
  0
LINE
  5
186
330
182
100
AcDbEntity
  8
LAYOUT_
 62
     0
100
AcDbLine
 10
0.0
 20
-14.1175931968
 30
0.0
 11
77.4559245234
 21
-14.1175931968
 31
0.0
  0
LINE
  5
187
330
182
100
AcDbEntity
  8
LAYOUT_
 62
     0
100
AcDbLine
 10
77.4559245234
 20
-14.1175931968
 30
0.0
 11
77.4559245234
 21
0.0
 31
0.0
  0
LINE
  5
188
330
182
100
AcDbEntity
  8
LAYOUT_
 62
     0
100
AcDbLine
 10
77.4559245234
 20
0.0
 30
0.0
 11
0.0
 21
0.0
 31
0.0
  0
LINE
  5
189
330
182
100
AcDbEntity
  8
LAYOUT_
 62
     0
100
AcDbLine
 10
25.6335428828
 20
0.0
 30
0.0
 11
25.6335428828
 21
-14.1175931968
 31
0.0
  0
LINE
  5
18A
330
182
100
AcDbEntity
  8
LAYOUT_
 62
     0
100
AcDbLine
 10
66.3420354998
 20
0.0
 30
0.0
 11
66.3420354998
 21
-14.1175931968
 31
0.0
  0
LINE
  5
18B
330
182
100
AcDbEntity
  8
LAYOUT_
 62
     0
100
AcDbLine
 10
0.0
 20
-8.6704363852
 30
0.0
 11
77.4559245234
 21
-8.6704363852
 31
0.0
  0
MTEXT
  5
18C
330
182
100
AcDbEntity
  8
LAYOUT_
 62
     0
100
AcDbMText
 10
0.8223276076
 20
-1.265625579
 30
0.0
 40
2.38125
 41
0.0
 71
     1
 72
     1
  1
Componente de
  7
SLDTEXTSTYLE0
 73
     1
 44
1.0
  0
MTEXT
  5
18D
330
182
100
AcDbEntity
  8
LAYOUT_
 62
     0
100
AcDbMText
 10
6.9077443753
 20
-4.4406255407
 30
0.0
 40
2.38125
 41
0.0
 71
     1
 72
     1
  1
Fixação
  7
SLDTEXTSTYLE0
 73
     1
 44
1.0
  0
MTEXT
  5
18E
330
182
100
AcDbEntity
  8
LAYOUT_
 62
     0
100
AcDbMText
 10
37.5211226269
 20
-2.8531255599
 30
0.0
 40
2.38125
 41
0.0
 71
     1
 72
     1
  1
Dimensões
  7
SLDTEXTSTYLE0
 73
     1
 44
1.0
  0
MTEXT
  5
18F
330
182
100
AcDbEntity
  8
LAYOUT_
 62
     0
100
AcDbMText
 10
67.8420354998
 20
-2.8531255599
 30
0.0
 40
2.38125
 41
0.0
 71
     1
 72
     1
  1
Qtde.
  7
SLDTEXTSTYLE0
 73
     1
 44
1.0
  0
MTEXT
  5
190
330
182
100
AcDbEntity
  8
LAYOUT_
 62
     0
100
AcDbMText
 10
4.0855217215
 20
-10.2067383347
 30
0.0
 40
2.38125
 41
0.0
 71
     1
 72
     1
  1
PARAFUSO
  7
SLDTEXTSTYLE0
 73
     1
 44
1.0
  0
MTEXT
  5
191
330
182
100
AcDbEntity
  8
LAYOUT_
 62
     0
100
AcDbMText
 10
29.1426523104
 20
-10.2067383347
 30
0.0
 40
2.38125
 41
0.0
 71
     1
 72
     1
  1
A4,2X16 CHA/PH/INOX
  7
SLDTEXTSTYLE0
 73
     1
 44
1.0
  0
MTEXT
  5
192
330
182
100
AcDbEntity
  8
LAYOUT_
 62
     0
100
AcDbMText
 10
70.135091144
 20
-10.2067383347
 30
0.0
 40
2.38125
 41
0.0
 71
     1
 72
     1
  1
80
  7
SLDTEXTSTYLE0
 73
     1
 44
1.0
  0
ENDBLK
  5
184
330
182
100
AcDbEntity
  8
0
100
AcDbBlockEnd
  0
BLOCK
  5
195
330
194
100
AcDbEntity
  8
0
100
AcDbBlockBegin
  2
SW_TABLEANNOTATION_2
 70
     0
 10
0.0
 20
0.0
 30
0.0
  3
SW_TABLEANNOTATION_2
  1

  0
LINE
  5
197
330
194
100
AcDbEntity
  8
LAYOUT_
 62
     0
100
AcDbLine
 10
0.0
 20
0.0
 30
0.0
 11
0.0
 21
-11.6804900938
 31
0.0
  0
LINE
  5
198
330
194
100
AcDbEntity
  8
LAYOUT_
 62
     0
100
AcDbLine
 10
0.0
 20
-11.6804900938
 30
0.0
 11
77.4532031039
 21
-11.6804900938
 31
0.0
  0
LINE
  5
199
330
194
100
AcDbEntity
  8
LAYOUT_
 62
     0
100
AcDbLine
 10
77.4532031039
 20
-11.6804900938
 30
0.0
 11
77.4532031039
 21
0.0
 31
0.0
  0
LINE
  5
19A
330
194
100
AcDbEntity
  8
LAYOUT_
 62
     0
100
AcDbLine
 10
77.4532031039
 20
0.0
 30
0.0
 11
0.0
 21
0.0
 31
0.0
  0
LINE
  5
19B
330
194
100
AcDbEntity
  8
LAYOUT_
 62
     0
100
AcDbLine
 10
39.4716055109
 20
0.0
 30
0.0
 11
39.4716055109
 21
-11.6804900938
 31
0.0
  0
LINE
  5
19C
330
194
100
AcDbEntity
  8
LAYOUT_
 62
     0
100
AcDbLine
 10
39.4716055109
 20
-6.2333332822
 30
0.0
 11
77.4532031039
 21
-6.2333332822
 31
0.0
  0
MTEXT
  5
19D
330
194
100
AcDbEntity
  8
LAYOUT_
 62
     0
100
AcDbMText
 10
10.8281642652
 20
-4.3581524142
 30
0.0
 40
2.38125
 41
0.0
 71
     1
 72
     1
  1
Embalagem
  7
SLDTEXTSTYLE0
 73
     1
 44
1.0
  0
MTEXT
  5
19E
330
194
100
AcDbEntity
  8
LAYOUT_
 62
     0
100
AcDbMText
 10
50.2523348075
 20
-1.5085805986
 30
0.0
 40
2.5
 41
0.0
 71
     1
 72
     1
  1
10 PARES
  7
SLDTEXTSTYLE0
 73
     1
 44
1.0
  0
MTEXT
  5
19F
330
194
100
AcDbEntity
  8
LAYOUT_
 62
     0
100
AcDbMText
 10
45.4832377252
 20
-7.6763991749
 30
0.0
 40
2.5
 41
0.0
 71
     1
 72
     1
  1
80 PARAFUSOS
  7
SLDTEXTSTYLE0
 73
     1
 44
1.0
  0
ENDBLK
  5
196
330
194
100
AcDbEntity
  8
0
100
AcDbBlockEnd
  0
BLOCK
  5
1A2
330
1A1
100
AcDbEntity
  8
0
100
AcDbBlockBegin
  2
SW_TABLEANNOTATION_3
 70
     0
 10
0.0
 20
0.0
 30
0.0
  3
SW_TABLEANNOTATION_3
  1

  0
LINE
  5
1A4
330
1A1
100
AcDbEntity
  8
LAYOUT_
 62
     0
100
AcDbLine
 10
0.0
 20
0.0
 30
0.0
 11
0.0
 21
-23.3508692955
 31
0.0
  0
LINE
  5
1A5
330
1A1
100
AcDbEntity
  8
LAYOUT_
 62
     0
100
AcDbLine
 10
0.0
 20
-23.3508692955
 30
0.0
 11
77.4862318379
 21
-23.3508692955
 31
0.0
  0
LINE
  5
1A6
330
1A1
100
AcDbEntity
  8
LAYOUT_
 62
     0
100
AcDbLine
 10
77.4862318379
 20
-23.3508692955
 30
0.0
 11
77.4862318379
 21
0.0
 31
0.0
  0
LINE
  5
1A7
330
1A1
100
AcDbEntity
  8
LAYOUT_
 62
     0
100
AcDbLine
 10
77.4862318379
 20
0.0
 30
0.0
 11
0.0
 21
0.0
 31
0.0
  0
LINE
  5
1A8
330
1A1
100
AcDbEntity
  8
LAYOUT_
 62
     0
100
AcDbLine
 10
10.7943046696
 20
-4.8941501799
 30
0.0
 11
10.7943046696
 21
-23.3508692955
 31
0.0
  0
LINE
  5
1A9
330
1A1
100
AcDbEntity
  8
LAYOUT_
 62
     0
100
AcDbLine
 10
27.71627157
 20
-4.8941501799
 30
0.0
 11
27.71627157
 21
-23.3508692955
 31
0.0
  0
LINE
  5
1AA
330
1A1
100
AcDbEntity
  8
LAYOUT_
 62
     0
100
AcDbLine
 10
63.3837813858
 20
-4.8941501799
 30
0.0
 11
63.3837813858
 21
-23.3508692955
 31
0.0
  0
LINE
  5
1AB
330
1A1
100
AcDbEntity
  8
LAYOUT_
 62
     0
100
AcDbLine
 10
0.0
 20
-4.8941501799
 30
0.0
 11
77.4862318379
 21
-4.8941501799
 31
0.0
  0
LINE
  5
1AC
330
1A1
100
AcDbEntity
  8
LAYOUT_
 62
     0
100
AcDbLine
 10
0.0
 20
-10.1096147555
 30
0.0
 11
77.4862318379
 21
-10.1096147555
 31
0.0
  0
LINE
  5
1AD
330
1A1
100
AcDbEntity
  8
LAYOUT_
 62
     0
100
AcDbLine
 10
0.0
 20
-18.0190285976
 30
0.0
 11
63.3837813858
 21
-18.0190285976
 31
0.0
  0
MTEXT
  5
1AE
330
1A1
100
AcDbEntity
  8
LAYOUT_
 62
     0
100
AcDbMText
 10
29.7472821122
 20
-1.2597986337
 30
0.0
 40
2.38125
 41
0.0
 71
     1
 72
     1
  1
Codificação
  7
SLDTEXTSTYLE0
 73
     1
 44
1.0
  0
MTEXT
  5
1AF
330
1A1
100
AcDbEntity
  8
LAYOUT_
 62
     0
100
AcDbMText
 10
2.6631245319
 20
-6.019789835
 30
0.0
 40
2.38125
 41
0.0
 71
     1
 72
     1
  1
Cor
  7
SLDTEXTSTYLE0
 73
     1
 44
1.0
  0
MTEXT
  5
1B0
330
1A1
100
AcDbEntity
  8
LAYOUT_
 62
     0
100
AcDbMText
 10
13.7872329796
 20
-6.019789835
 30
0.0
 40
2.38125
 41
0.0
 71
     1
 72
     1
  1
Código
  7
SLDTEXTSTYLE0
 73
     1
 44
1.0
  0
MTEXT
  5
1B1
330
1A1
100
AcDbEntity
  8
LAYOUT_
 62
     0
100
AcDbMText
 10
38.7590546288
 20
-6.019789835
 30
0.0
 40
2.38125
 41
0.0
 71
     1
 72
     1
  1
Catálogo
  7
SLDTEXTSTYLE0
 73
     1
 44
1.0
  0
MTEXT
  5
1B2
330
1A1
100
AcDbEntity
  8
LAYOUT_
 62
     0
100
AcDbMText
 10
64.6138260819
 20
-5.8937964252
 30
0.0
 40
2.5
 41
0.0
 71
     1
 72
     1
  1
ALCOA
  7
SLDTEXTSTYLE0
 73
     1
 44
1.0
  0
MTEXT
  5
1B3
330
1A1
100
AcDbEntity
  8
LAYOUT_
 62
     0
100
AcDbMText
 10
1.6766662638
 20
-12.7838091635
 30
0.0
 40
2.5
 41
0.0
 71
     1
 72
     1
  1
BCO
  7
SLDTEXTSTYLE0
 73
     1
 44
1.0
  0
MTEXT
  5
1B4
330
1A1
100
AcDbEntity
  8
LAYOUT_
 62
     0
100
AcDbMText
 10
12.5712600419
 20
-12.7838091635
 30
0.0
 40
2.5
 41
0.0
 71
     1
 72
     1
  1
9500404
  7
SLDTEXTSTYLE0
 73
     1
 44
1.0
  0
MTEXT
  5
1B5
330
1A1
100
AcDbEntity
  8
LAYOUT_
 62
     0
100
AcDbMText
 10
29.8000280872
 20
-12.7838091635
 30
0.0
 40
2.5
 41
0.0
 71
     1
 72
     1
  1
PIV7580BCO10PAR
  7
SLDTEXTSTYLE0
 73
     1
 44
1.0
  0
MTEXT
  5
1B6
330
1A1
100
AcDbEntity
  8
LAYOUT_
 62
     0
100
AcDbMText
 10
67.6659093917
 20
-13.8351462055
 30
0.0
 40
2.5
 41
0.0
 71
     1
 72
     1
  1
PIV
  7
SLDTEXTSTYLE0
 73
     1
 44
1.0
  0
MTEXT
  5
1B7
330
1A1
100
AcDbEntity
  8
LAYOUT_
 62
     0
100
AcDbMText
 10
66.6155621622
 20
-17.3351463135
 30
0.0
 40
2.5
 41
0.0
 71
     1
 72
     1
  1
7580
  7
SLDTEXTSTYLE0
 73
     1
 44
1.0
  0
MTEXT
  5
1B8
330
1A1
100
AcDbEntity
  8
LAYOUT_
 62
     0
100
AcDbMText
 10
1.9631247896
 20
-19.4044364335
 30
0.0
 40
2.5
 41
0.0
 71
     1
 72
     1
  1
PRT
  7
SLDTEXTSTYLE0
 73
     1
 44
1.0
  0
MTEXT
  5
1B9
330
1A1
100
AcDbEntity
  8
LAYOUT_
 62
     0
100
AcDbMText
 10
12.5712600419
 20
-19.4044364335
 30
0.0
 40
2.5
 41
0.0
 71
     1
 72
     1
  1
9500405
  7
SLDTEXTSTYLE0
 73
     1
 44
1.0
  0
MTEXT
  5
1BA
330
1A1
100
AcDbEntity
  8
LAYOUT_
 62
     0
100
AcDbMText
 10
30.0864861474
 20
-19.4044364335
 30
0.0
 40
2.5
 41
0.0
 71
     1
 72
     1
  1
PIV7580PRT10PAR
  7
SLDTEXTSTYLE0
 73
     1
 44
1.0
  0
ENDBLK
  5
1A3
330
1A1
100
AcDbEntity
  8
0
100
AcDbBlockEnd
  0
BLOCK
  5
2D8
330
2D7
100
AcDbEntity
  8
0
100
AcDbBlockBegin
  2
_NONE
 70
     0
 10
0.0
 20
0.0
 30
0.0
  3
_NONE
  1

  0
ENDBLK
  5
2D9
330
2D7
100
AcDbEntity
  8
0
100
AcDbBlockEnd
  0
BLOCK
  5
2DB
330
2DA
100
AcDbEntity
  8
0
100
AcDbBlockBegin
  2
_D
 70
     0
 10
0.0
 20
0.0
 30
0.0
  3
_D
  1

  0
SOLID
  5
2DD
330
2DA
100
AcDbEntity
  8
TEXTOS_PORTUGUES
100
AcDbTrace
 10
170.2067811302
 20
137.2765801245
 30
0.0
 11
168.9440394986
 21
138.8665435114
 31
0.0
 12
168.4791329997
 22
138.343225303
 32
0.0
 13
168.4791329997
 23
138.343225303
 33
0.0
  0
LINE
  5
2DE
330
2DA
100
AcDbEntity
  8
TEXTOS_PORTUGUES
100
AcDbLine
 10
170.2067811302
 20
137.2765801245
 30
0.0
 11
157.479602976
 21
148.5831766515
 31
0.0
  0
LINE
  5
2DF
330
2DA
100
AcDbEntity
  8
TEXTOS_PORTUGUES
100
AcDbLine
 10
173.5709696127
 20
134.2878954883
 30
0.0
 11
170.2067811302
 21
137.2765801245
 31
0.0
  0
LINE
  5
2E0
330
2DA
100
AcDbEntity
  8
TEXTOS_PORTUGUES
100
AcDbLine
 10
157.479602976
 20
148.5831766515
 30
0.0
 11
142.470714633
 21
148.5831766515
 31
0.0
  0
MTEXT
  5
2E1
330
2DA
100
AcDbEntity
  8
TEXTOS_PORTUGUES
100
AcDbMText
 10
142.470714633
 20
153.7394476105
 30
0.0
 40
4.0
 41
0.0
 71
     1
 72
     1
  1
%%c
  7
SLDTEXTSTYLE1
 73
     1
 44
1.0
  0
MTEXT
  5
2E2
330
2DA
100
AcDbEntity
  8
TEXTOS_PORTUGUES
100
AcDbMText
 10
148.5032145834
 20
153.8005586696
 30
0.0
 40
4.0
 41
0.0
 71
     1
 72
     1
  1
4,5
  7
SLDTEXTSTYLE1
 73
     1
 44
1.0
  0
ENDBLK
  5
2DC
330
2DA
100
AcDbEntity
  8
0
100
AcDbBlockEnd
  0
BLOCK
  5
2E6
330
2E5
100
AcDbEntity
  8
0
100
AcDbBlockBegin
  2
_D_1
 70
     0
 10
0.0
 20
0.0
 30
0.0
  3
_D_1
  1

  0
SOLID
  5
2E8
330
2E5
100
AcDbEntity
  8
TEXTOS_PORTUGUES
100
AcDbTrace
 10
162.8388753715
 20
74.6751832111
 30
0.0
 11
164.8388753715
 21
74.3251832111
 31
0.0
 12
164.8388753715
 22
75.0251832111
 32
0.0
 13
164.8388753715
 23
75.0251832111
 33
0.0
  0
SOLID
  5
2E9
330
2E5
100
AcDbEntity
  8
TEXTOS_PORTUGUES
100
AcDbTrace
 10
180.9388753715
 20
74.6751832111
 30
0.0
 11
178.9388753715
 21
75.0251832111
 31
0.0
 12
178.9388753715
 22
74.3251832111
 32
0.0
 13
178.9388753715
 23
74.3251832111
 33
0.0
  0
LINE
  5
2EA
330
2E5
100
AcDbEntity
  8
TEXTOS_PORTUGUES
100
AcDbLine
 10
162.8388753715
 20
93.7822378064
 30
0.0
 11
162.8388753715
 21
73.6751832111
 31
0.0
  0
LINE
  5
2EB
330
2E5
100
AcDbEntity
  8
TEXTOS_PORTUGUES
100
AcDbLine
 10
180.9388753715
 20
93.7822378064
 30
0.0
 11
180.9388753715
 21
73.6751832111
 31
0.0
  0
LINE
  5
2EC
330
2E5
100
AcDbEntity
  8
TEXTOS_PORTUGUES
100
AcDbLine
 10
162.8388753715
 20
74.6751832111
 30
0.0
 11
180.9388753715
 21
74.6751832111
 31
0.0
  0
MTEXT
  5
2ED
330
2E5
100
AcDbEntity
  8
TEXTOS_PORTUGUES
100
AcDbMText
 10
166.7166534501
 20
79.8314541702
 30
0.0
 40
4.0
 41
0.0
 71
     1
 72
     1
  1
18,1
  7
SLDTEXTSTYLE1
 73
     1
 44
1.0
  0
ENDBLK
  5
2E7
330
2E5
100
AcDbEntity
  8
0
100
AcDbBlockEnd
  0
BLOCK
  5
2F0
330
2EF
100
AcDbEntity
  8
0
100
AcDbBlockBegin
  2
_D_2
 70
     0
 10
0.0
 20
0.0
 30
0.0
  3
_D_2
  1

  0
SOLID
  5
2F2
330
2EF
100
AcDbEntity
  8
TEXTOS_PORTUGUES
100
AcDbTrace
 10
190.9388753715
 20
143.2822378064
 30
0.0
 11
190.5888753715
 21
141.2822378064
 31
0.0
 12
191.2888753715
 22
141.2822378064
 32
0.0
 13
191.2888753715
 23
141.2822378064
 33
0.0
  0
SOLID
  5
2F3
330
2EF
100
AcDbEntity
  8
TEXTOS_PORTUGUES
100
AcDbTrace
 10
190.9388753715
 20
93.2822378064
 30
0.0
 11
191.2888753715
 21
95.2822378064
 31
0.0
 12
190.5888753715
 22
95.2822378064
 32
0.0
 13
190.5888753715
 23
95.2822378064
 33
0.0
  0
LINE
  5
2F4
330
2EF
100
AcDbEntity
  8
TEXTOS_PORTUGUES
100
AcDbLine
 10
180.4388753715
 20
143.2822378064
 30
0.0
 11
191.9388753715
 21
143.2822378064
 31
0.0
  0
LINE
  5
2F5
330
2EF
100
AcDbEntity
  8
TEXTOS_PORTUGUES
100
AcDbLine
 10
180.4388753715
 20
93.2822378064
 30
0.0
 11
191.9388753715
 21
93.2822378064
 31
0.0
  0
LINE
  5
2F6
330
2EF
100
AcDbEntity
  8
TEXTOS_PORTUGUES
100
AcDbLine
 10
190.9388753715
 20
143.2822378064
 30
0.0
 11
190.9388753715
 21
93.2822378064
 31
0.0
  0
MTEXT
  5
2F7
330
2EF
100
AcDbEntity
  8
TEXTOS_PORTUGUES
100
AcDbMText
 10
185.7826044124
 20
115.3266823562
 30
0.0
 40
4.0
 41
0.0
 71
     1
 72
     1
  1
50
  7
SLDTEXTSTYLE1
 11
-7.044195017643634E-15
 21
1.0
 31
0.0
 73
     1
 44
1.0
  0
ENDBLK
  5
2F1
330
2EF
100
AcDbEntity
  8
0
100
AcDbBlockEnd
  0
BLOCK
  5
2FA
330
2F9
100
AcDbEntity
  8
0
100
AcDbBlockBegin
  2
_D_3
 70
     0
 10
0.0
 20
0.0
 30
0.0
  3
_D_3
  1

  0
SOLID
  5
2FC
330
2F9
100
AcDbEntity
  8
TEXTOS_PORTUGUES
100
AcDbTrace
 10
174.7553313411
 20
116.2738943782
 30
0.0
 11
173.3167062649
 21
117.7066741554
 31
0.0
 12
172.9156320273
 22
117.1329673871
 32
0.0
 13
172.9156320273
 23
117.1329673871
 33
0.0
  0
SOLID
  5
2FD
330
2F9
100
AcDbEntity
  8
TEXTOS_PORTUGUES
100
AcDbTrace
 10
169.0182636585
 20
120.2846367539
 30
0.0
 11
170.4568887348
 21
118.8518569767
 31
0.0
 12
170.8579629723
 22
119.425563745
 32
0.0
 13
170.8579629723
 23
119.425563745
 33
0.0
  0
LINE
  5
2FE
330
2F9
100
AcDbEntity
  8
TEXTOS_PORTUGUES
100
AcDbLine
 10
174.1844460163
 20
115.457285521
 30
0.0
 11
174.1823681446
 21
115.4543132806
 31
0.0
  0
LINE
  5
2FF
330
2F9
100
AcDbEntity
  8
TEXTOS_PORTUGUES
100
AcDbLine
 10
168.4473783336
 20
119.4680278967
 30
0.0
 11
168.445300462
 21
119.4650556564
 31
0.0
  0
LINE
  5
300
330
2F9
100
AcDbEntity
  8
TEXTOS_PORTUGUES
100
AcDbLine
 10
174.7553313411
 20
116.2738943782
 30
0.0
 11
169.0182636585
 21
120.2846367539
 31
0.0
  0
LINE
  5
301
330
2F9
100
AcDbEntity
  8
TEXTOS_PORTUGUES
100
AcDbLine
 10
169.0182636585
 20
120.2846367539
 30
0.0
 11
148.9984558078
 21
134.2803391132
 31
0.0
  0
MTEXT
  5
302
330
2F9
100
AcDbEntity
  8
TEXTOS_PORTUGUES
100
AcDbMText
 10
151.9528092988
 20
138.5063213249
 30
0.0
 40
4.0
 41
0.0
 71
     1
 72
     1
  1
%%c
  7
SLDTEXTSTYLE1
 11
0.8195810975214144
 21
-0.5729631965367354
 31
0.0
 73
     1
 44
1.0
  0
MTEXT
  5
303
330
2F9
100
AcDbEntity
  8
TEXTOS_PORTUGUES
100
AcDbMText
 10
156.9319466166
 20
135.1000063391
 30
0.0
 40
4.0
 41
0.0
 71
     1
 72
     1
  1
7
  7
SLDTEXTSTYLE1
 11
0.8195810975214144
 21
-0.5729631965367354
 31
0.0
 73
     1
 44
1.0
  0
ENDBLK
  5
2FB
330
2F9
100
AcDbEntity
  8
0
100
AcDbBlockEnd
  0
BLOCK
  5
305
330
304
100
AcDbEntity
  8
0
100
AcDbBlockBegin
  2
SW_CENTERMARKSYMBOL_0
 70
     0
 10
0.0
 20
0.0
 30
0.0
  3
SW_CENTERMARKSYMBOL_0
  1

  0
LINE
  5
307
330
304
100
AcDbEntity
  8
TEXTOS_PORTUGUES
 62
     0
100
AcDbLine
 10
0.0
 20
0.0
 30
0.0
 11
0.0
 21
2.5
 31
0.0
  0
LINE
  5
308
330
304
100
AcDbEntity
  8
TEXTOS_PORTUGUES
 62
     0
100
AcDbLine
 10
0.0
 20
0.0
 30
0.0
 11
-2.5
 21
0.0
 31
0.0
  0
LINE
  5
309
330
304
100
AcDbEntity
  8
TEXTOS_PORTUGUES
 62
     0
100
AcDbLine
 10
0.0
 20
0.0
 30
0.0
 11
0.0
 21
-2.5
 31
0.0
  0
LINE
  5
30A
330
304
100
AcDbEntity
  8
TEXTOS_PORTUGUES
 62
     0
100
AcDbLine
 10
0.0
 20
0.0
 30
0.0
 11
2.5
 21
0.0
 31
0.0
  0
LINE
  5
30B
330
304
100
AcDbEntity
  8
TEXTOS_PORTUGUES
 62
     0
100
AcDbLine
 10
0.0
 20
5.0
 30
0.0
 11
0.0
 21
5.8
 31
0.0
  0
LINE
  5
30C
330
304
100
AcDbEntity
  8
TEXTOS_PORTUGUES
 62
     0
100
AcDbLine
 10
-5.0
 20
0.0
 30
0.0
 11
-5.8
 21
0.0
 31
0.0
  0
LINE
  5
30D
330
304
100
AcDbEntity
  8
TEXTOS_PORTUGUES
 62
     0
100
AcDbLine
 10
0.0
 20
-5.0
 30
0.0
 11
0.0
 21
-5.8
 31
0.0
  0
LINE
  5
30E
330
304
100
AcDbEntity
  8
TEXTOS_PORTUGUES
 62
     0
100
AcDbLine
 10
5.0
 20
0.0
 30
0.0
 11
5.8
 21
0.0
 31
0.0
  0
ENDBLK
  5
306
330
304
100
AcDbEntity
  8
0
100
AcDbBlockEnd
  0
BLOCK
  5
311
330
310
100
AcDbEntity
  8
0
100
AcDbBlockBegin
  2
SW_CENTERMARKSYMBOL_1
 70
     0
 10
0.0
 20
0.0
 30
0.0
  3
SW_CENTERMARKSYMBOL_1
  1

  0
LINE
  5
313
330
310
100
AcDbEntity
  8
TEXTOS_PORTUGUES
 62
     0
100
AcDbLine
 10
0.0
 20
0.0
 30
0.0
 11
0.0
 21
2.5
 31
0.0
  0
LINE
  5
314
330
310
100
AcDbEntity
  8
TEXTOS_PORTUGUES
 62
     0
100
AcDbLine
 10
0.0
 20
0.0
 30
0.0
 11
-2.5
 21
0.0
 31
0.0
  0
LINE
  5
315
330
310
100
AcDbEntity
  8
TEXTOS_PORTUGUES
 62
     0
100
AcDbLine
 10
0.0
 20
0.0
 30
0.0
 11
0.0
 21
-2.5
 31
0.0
  0
LINE
  5
316
330
310
100
AcDbEntity
  8
TEXTOS_PORTUGUES
 62
     0
100
AcDbLine
 10
0.0
 20
0.0
 30
0.0
 11
2.5
 21
0.0
 31
0.0
  0
LINE
  5
317
330
310
100
AcDbEntity
  8
TEXTOS_PORTUGUES
 62
     0
100
AcDbLine
 10
0.0
 20
2.5
 30
0.0
 11
0.0
 21
4.75
 31
0.0
  0
LINE
  5
318
330
310
100
AcDbEntity
  8
TEXTOS_PORTUGUES
 62
     0
100
AcDbLine
 10
-2.5
 20
0.0
 30
0.0
 11
-4.75
 21
0.0
 31
0.0
  0
LINE
  5
319
330
310
100
AcDbEntity
  8
TEXTOS_PORTUGUES
 62
     0
100
AcDbLine
 10
0.0
 20
-2.5
 30
0.0
 11
0.0
 21
-4.75
 31
0.0
  0
LINE
  5
31A
330
310
100
AcDbEntity
  8
TEXTOS_PORTUGUES
 62
     0
100
AcDbLine
 10
2.5
 20
0.0
 30
0.0
 11
4.75
 21
0.0
 31
0.0
  0
ENDBLK
  5
312
330
310
100
AcDbEntity
  8
0
100
AcDbBlockEnd
  0
BLOCK
  5
31D
330
31C
100
AcDbEntity
  8
0
100
AcDbBlockBegin
  2
SW_CENTERMARKSYMBOL_2
 70
     0
 10
0.0
 20
0.0
 30
0.0
  3
SW_CENTERMARKSYMBOL_2
  1

  0
LINE
  5
31F
330
31C
100
AcDbEntity
  8
TEXTOS_PORTUGUES
 62
     0
100
AcDbLine
 10
0.0
 20
0.0
 30
0.0
 11
0.0
 21
2.5
 31
0.0
  0
LINE
  5
320
330
31C
100
AcDbEntity
  8
TEXTOS_PORTUGUES
 62
     0
100
AcDbLine
 10
0.0
 20
0.0
 30
0.0
 11
-2.5
 21
0.0
 31
0.0
  0
LINE
  5
321
330
31C
100
AcDbEntity
  8
TEXTOS_PORTUGUES
 62
     0
100
AcDbLine
 10
0.0
 20
0.0
 30
0.0
 11
0.0
 21
-2.5
 31
0.0
  0
LINE
  5
322
330
31C
100
AcDbEntity
  8
TEXTOS_PORTUGUES
 62
     0
100
AcDbLine
 10
0.0
 20
0.0
 30
0.0
 11
2.5
 21
0.0
 31
0.0
  0
LINE
  5
323
330
31C
100
AcDbEntity
  8
TEXTOS_PORTUGUES
 62
     0
100
AcDbLine
 10
0.0
 20
2.5
 30
0.0
 11
0.0
 21
4.75
 31
0.0
  0
LINE
  5
324
330
31C
100
AcDbEntity
  8
TEXTOS_PORTUGUES
 62
     0
100
AcDbLine
 10
-2.5
 20
0.0
 30
0.0
 11
-4.75
 21
0.0
 31
0.0
  0
LINE
  5
325
330
31C
100
AcDbEntity
  8
TEXTOS_PORTUGUES
 62
     0
100
AcDbLine
 10
0.0
 20
-2.5
 30
0.0
 11
0.0
 21
-4.75
 31
0.0
  0
LINE
  5
326
330
31C
100
AcDbEntity
  8
TEXTOS_PORTUGUES
 62
     0
100
AcDbLine
 10
2.5
 20
0.0
 30
0.0
 11
4.75
 21
0.0
 31
0.0
  0
ENDBLK
  5
31E
330
31C
100
AcDbEntity
  8
0
100
AcDbBlockEnd
  0
BLOCK
  5
37B
330
37A
100
AcDbEntity
  8
0
100
AcDbBlockBegin
  2
_D_4
 70
     0
 10
0.0
 20
0.0
 30
0.0
  3
_D_4
  1

  0
SOLID
  5
37D
330
37A
100
AcDbEntity
  8
TEXTOS_PORTUGUES
100
AcDbTrace
 10
102.7561240472
 20
135.7822378064
 30
0.0
 11
102.4061240472
 21
133.7822378064
 31
0.0
 12
103.1061240472
 22
133.7822378064
 32
0.0
 13
103.1061240472
 23
133.7822378064
 33
0.0
  0
SOLID
  5
37E
330
37A
100
AcDbEntity
  8
TEXTOS_PORTUGUES
100
AcDbTrace
 10
102.7561240472
 20
100.7822378064
 30
0.0
 11
103.1061240472
 21
102.7822378064
 31
0.0
 12
102.4061240472
 22
102.7822378064
 32
0.0
 13
102.4061240472
 23
102.7822378064
 33
0.0
  0
LINE
  5
37F
330
37A
100
AcDbEntity
  8
TEXTOS_PORTUGUES
100
AcDbLine
 10
113.3153973296
 20
135.7822378064
 30
0.0
 11
101.7561240472
 21
135.7822378064
 31
0.0
  0
LINE
  5
380
330
37A
100
AcDbEntity
  8
TEXTOS_PORTUGUES
100
AcDbLine
 10
113.3153973296
 20
100.7822378064
 30
0.0
 11
101.7561240472
 21
100.7822378064
 31
0.0
  0
LINE
  5
381
330
37A
100
AcDbEntity
  8
TEXTOS_PORTUGUES
100
AcDbLine
 10
102.7561240472
 20
135.7822378064
 30
0.0
 11
102.7561240472
 21
100.7822378064
 31
0.0
  0
MTEXT
  5
382
330
37A
100
AcDbEntity
  8
TEXTOS_PORTUGUES
100
AcDbMText
 10
97.5998530881
 20
115.3266823562
 30
0.0
 40
4.0
 41
0.0
 71
     1
 72
     1
  1
35
  7
SLDTEXTSTYLE1
 11
-7.044195017643634E-15
 21
1.0
 31
0.0
 73
     1
 44
1.0
  0
ENDBLK
  5
37C
330
37A
100
AcDbEntity
  8
0
100
AcDbBlockEnd
  0
BLOCK
  5
385
330
384
100
AcDbEntity
  8
0
100
AcDbBlockBegin
  2
_D_5
 70
     0
 10
0.0
 20
0.0
 30
0.0
  3
_D_5
  1

  0
SOLID
  5
387
330
384
100
AcDbEntity
  8
TEXTOS_PORTUGUES
100
AcDbTrace
 10
116.3153973296
 20
150.2462055247
 30
0.0
 11
118.3153973296
 21
149.8962055247
 31
0.0
 12
118.3153973296
 22
150.5962055247
 32
0.0
 13
118.3153973296
 23
150.5962055247
 33
0.0
  0
SOLID
  5
388
330
384
100
AcDbEntity
  8
TEXTOS_PORTUGUES
100
AcDbTrace
 10
131.5153973296
 20
150.2462055247
 30
0.0
 11
129.5153973296
 21
150.5962055247
 31
0.0
 12
129.5153973296
 22
149.8962055247
 32
0.0
 13
129.5153973296
 23
149.8962055247
 33
0.0
  0
LINE
  5
389
330
384
100
AcDbEntity
  8
TEXTOS_PORTUGUES
100
AcDbLine
 10
116.3153973296
 20
144.2822378064
 30
0.0
 11
116.3153973296
 21
151.2462055247
 31
0.0
  0
LINE
  5
38A
330
384
100
AcDbEntity
  8
TEXTOS_PORTUGUES
100
AcDbLine
 10
131.5153973296
 20
144.2822378064
 30
0.0
 11
131.5153973296
 21
151.2462055247
 31
0.0
  0
LINE
  5
38B
330
384
100
AcDbEntity
  8
TEXTOS_PORTUGUES
100
AcDbLine
 10
116.3153973296
 20
150.2462055247
 30
0.0
 11
131.5153973296
 21
150.2462055247
 31
0.0
  0
MTEXT
  5
38C
330
384
100
AcDbEntity
  8
TEXTOS_PORTUGUES
100
AcDbMText
 10
118.7431754082
 20
155.4024764838
 30
0.0
 40
4.0
 41
0.0
 71
     1
 72
     1
  1
15,2
  7
SLDTEXTSTYLE1
 73
     1
 44
1.0
  0
ENDBLK
  5
386
330
384
100
AcDbEntity
  8
0
100
AcDbBlockEnd
  0
BLOCK
  5
38F
330
38E
100
AcDbEntity
  8
0
100
AcDbBlockBegin
  2
_D_6
 70
     0
 10
0.0
 20
0.0
 30
0.0
  3
_D_6
  1

  0
SOLID
  5
391
330
38E
100
AcDbEntity
  8
TEXTOS_PORTUGUES
100
AcDbTrace
 10
110.2273253022
 20
121.7822378064
 30
0.0
 11
109.8773253022
 21
119.7822378064
 31
0.0
 12
110.5773253022
 22
119.7822378064
 32
0.0
 13
110.5773253022
 23
119.7822378064
 33
0.0
  0
SOLID
  5
392
330
38E
100
AcDbEntity
  8
TEXTOS_PORTUGUES
100
AcDbTrace
 10
110.2273253022
 20
114.7822378064
 30
0.0
 11
110.5773253022
 21
116.7822378064
 31
0.0
 12
109.8773253022
 22
116.7822378064
 32
0.0
 13
109.8773253022
 23
116.7822378064
 33
0.0
  0
LINE
  5
393
330
38E
100
AcDbEntity
  8
TEXTOS_PORTUGUES
100
AcDbLine
 10
115.3153973296
 20
121.7822378064
 30
0.0
 11
109.2273253022
 21
121.7822378064
 31
0.0
  0
LINE
  5
394
330
38E
100
AcDbEntity
  8
TEXTOS_PORTUGUES
100
AcDbLine
 10
115.3153973296
 20
114.7822378064
 30
0.0
 11
109.2273253022
 21
114.7822378064
 31
0.0
  0
LINE
  5
395
330
38E
100
AcDbEntity
  8
TEXTOS_PORTUGUES
100
AcDbLine
 10
110.2273253022
 20
121.7822378064
 30
0.0
 11
110.2273253022
 21
114.7822378064
 31
0.0
  0
MTEXT
  5
396
330
38E
100
AcDbEntity
  8
TEXTOS_PORTUGUES
100
AcDbMText
 10
105.0710543431
 20
116.8044600813
 30
0.0
 40
4.0
 41
0.0
 71
     1
 72
     1
  1
7
  7
SLDTEXTSTYLE1
 11
-6.156016597943509E-15
 21
1.0
 31
0.0
 73
     1
 44
1.0
  0
ENDBLK
  5
390
330
38E
100
AcDbEntity
  8
0
100
AcDbBlockEnd
  0
BLOCK
  5
3C3
330
3C2
100
AcDbEntity
  8
0
100
AcDbBlockBegin
  2
_D_7
 70
     0
 10
0.0
 20
0.0
 30
0.0
  3
_D_7
  1

  0
SOLID
  5
3C5
330
3C2
100
AcDbEntity
  8
TEXTOS_PORTUGUES
100
AcDbTrace
 10
125.4153973296
 20
38.4822690566
 30
0.0
 11
127.4153973296
 21
38.1322690566
 31
0.0
 12
127.4153973296
 22
38.8322690566
 32
0.0
 13
127.4153973296
 23
38.8322690566
 33
0.0
  0
SOLID
  5
3C6
330
3C2
100
AcDbEntity
  8
TEXTOS_PORTUGUES
100
AcDbTrace
 10
122.4153973296
 20
38.4822690566
 30
0.0
 11
120.4153973296
 21
38.8322690566
 31
0.0
 12
120.4153973296
 22
38.1322690566
 32
0.0
 13
120.4153973296
 23
38.1322690566
 33
0.0
  0
LINE
  5
3C7
330
3C2
100
AcDbEntity
  8
TEXTOS_PORTUGUES
100
AcDbLine
 10
125.4153973296
 20
47.065514543
 30
0.0
 11
125.4153973296
 21
37.4822690566
 31
0.0
  0
LINE
  5
3C8
330
3C2
100
AcDbEntity
  8
TEXTOS_PORTUGUES
100
AcDbLine
 10
122.4153973296
 20
47.065514543
 30
0.0
 11
122.4153973296
 21
37.4822690566
 31
0.0
  0
LINE
  5
3C9
330
3C2
100
AcDbEntity
  8
TEXTOS_PORTUGUES
100
AcDbLine
 10
125.4153973296
 20
38.4822690566
 30
0.0
 11
131.6323819342
 21
38.4822690566
 31
0.0
  0
LINE
  5
3CA
330
3C2
100
AcDbEntity
  8
TEXTOS_PORTUGUES
100
AcDbLine
 10
125.4153973296
 20
38.4822690566
 30
0.0
 11
122.4153973296
 21
38.4822690566
 31
0.0
  0
LINE
  5
3CB
330
3C2
100
AcDbEntity
  8
TEXTOS_PORTUGUES
100
AcDbLine
 10
122.4153973296
 20
38.4822690566
 30
0.0
 11
119.4153973296
 21
38.4822690566
 31
0.0
  0
MTEXT
  5
3CC
330
3C2
100
AcDbEntity
  8
TEXTOS_PORTUGUES
100
AcDbMText
 10
128.676826484
 20
43.6385400157
 30
0.0
 40
4.0
 41
0.0
 71
     1
 72
     1
  1
3
  7
SLDTEXTSTYLE1
 73
     1
 44
1.0
  0
ENDBLK
  5
3C4
330
3C2
100
AcDbEntity
  8
0
100
AcDbBlockEnd
  0
BLOCK
  5
3CF
330
3CE
100
AcDbEntity
  8
0
100
AcDbBlockBegin
  2
_D_8
 70
     0
 10
0.0
 20
0.0
 30
0.0
  3
_D_8
  1

  0
SOLID
  5
3D1
330
3CE
100
AcDbEntity
  8
TEXTOS_PORTUGUES
100
AcDbTrace
 10
143.2469883895
 20
58.065514543
 30
0.0
 11
142.8969883895
 21
56.065514543
 31
0.0
 12
143.5969883895
 22
56.065514543
 32
0.0
 13
143.5969883895
 23
56.065514543
 33
0.0
  0
SOLID
  5
3D2
330
3CE
100
AcDbEntity
  8
TEXTOS_PORTUGUES
100
AcDbTrace
 10
143.2469883895
 20
50.865514543
 30
0.0
 11
143.5969883895
 21
52.865514543
 31
0.0
 12
142.8969883895
 22
52.865514543
 32
0.0
 13
142.8969883895
 23
52.865514543
 33
0.0
  0
LINE
  5
3D3
330
3CE
100
AcDbEntity
  8
TEXTOS_PORTUGUES
100
AcDbLine
 10
132.5153973296
 20
58.065514543
 30
0.0
 11
144.2469883895
 21
58.065514543
 31
0.0
  0
LINE
  5
3D4
330
3CE
100
AcDbEntity
  8
TEXTOS_PORTUGUES
100
AcDbLine
 10
132.5153973296
 20
50.865514543
 30
0.0
 11
144.2469883895
 21
50.865514543
 31
0.0
  0
LINE
  5
3D5
330
3CE
100
AcDbEntity
  8
TEXTOS_PORTUGUES
100
AcDbLine
 10
143.2469883895
 20
58.065514543
 30
0.0
 11
143.2469883895
 21
50.865514543
 31
0.0
  0
MTEXT
  5
3D6
330
3CE
100
AcDbEntity
  8
TEXTOS_PORTUGUES
100
AcDbMText
 10
138.0907174304
 20
50.7710703467
 30
0.0
 40
4.0
 41
0.0
 71
     1
 72
     1
  1
7,2
  7
SLDTEXTSTYLE1
 11
-3.491481338843133E-15
 21
1.0
 31
0.0
 73
     1
 44
1.0
  0
ENDBLK
  5
3D0
330
3CE
100
AcDbEntity
  8
0
100
AcDbBlockEnd
  0
BLOCK
  5
459
330
458
100
AcDbEntity
  8
0
100
AcDbBlockBegin
  2
SW_NOTE_2
 70
     0
 10
0.0
 20
0.0
 30
0.0
  3
SW_NOTE_2
  1

  0
MTEXT
  5
45B
330
458
100
AcDbEntity
  8
TEXTOS_PORTUGUES
 62
     0
100
AcDbMText
 10
0.0
 20
4.0927900738
 30
0.0
 40
3.175
 41
0.0
 71
     1
 72
     1
  1
\LSUBTÍTULO
  7
SLDTEXTSTYLE0
 73
     1
 44
1.0
  0
MTEXT
  5
45C
330
458
100
AcDbEntity
  8
TEXTOS_PORTUGUES
 62
     0
100
AcDbMText
 10
25.399999693
 20
4.0927900738
 30
0.0
 40
3.175
 41
0.0
 71
     1
 72
     1
  1
3
  7
SLDTEXTSTYLE0
 73
     1
 44
1.0
  0
ENDBLK
  5
45A
330
458
100
AcDbEntity
  8
0
100
AcDbBlockEnd
  0
BLOCK
  5
465
330
464
100
AcDbEntity
  8
0
100
AcDbBlockBegin
  2
SW_NOTE_3
 70
     0
 10
0.0
 20
0.0
 30
0.0
  3
SW_NOTE_3
  1

  0
MTEXT
  5
467
330
464
100
AcDbEntity
  8
LAYOUT_
 62
     0
100
AcDbMText
 10
0.0
 20
4.7749217527
 30
0.0
 40
3.7041666667
 41
0.0
 71
     1
 72
     1
  1
LAYERS RELACIONADOS AS TIPOLOGIAS:
  7
SLDTEXTSTYLE0
 73
     1
 44
1.0
  0
MTEXT
  5
468
330
464
100
AcDbEntity
  8
LAYOUT_
 62
     0
100
AcDbMText
 10
9.9999997765
 20
-5.1028559057
 30
0.0
 40
3.7041666667
 41
0.0
 71
     1
 72
     1
  1
JANELA E PORTA DE CORRER
  7
SLDTEXTSTYLE0
 73
     1
 44
1.0
  0
MTEXT
  5
469
330
464
100
AcDbEntity
  8
LAYOUT_
 62
     0
100
AcDbMText
 10
0.0
 20
-5.1028559057
 30
0.0
 40
3.7041666667
 41
0.0
 71
     1
 72
     1
  1
1.
  7
SLDTEXTSTYLE0
 73
     1
 44
1.0
  0
MTEXT
  5
46A
330
464
100
AcDbEntity
  8
LAYOUT_
 62
     0
100
AcDbMText
 10
9.9999997765
 20
-10.0417447349
 30
0.0
 40
3.7041666667
 41
0.0
 71
     1
 72
     1
  1
JANELA DE CORRER
  7
SLDTEXTSTYLE0
 73
     1
 44
1.0
  0
MTEXT
  5
46B
330
464
100
AcDbEntity
  8
LAYOUT_
 62
     0
100
AcDbMText
 10
0.0
 20
-10.0417447349
 30
0.0
 40
3.7041666667
 41
0.0
 71
     1
 72
     1
  1
2.
  7
SLDTEXTSTYLE0
 73
     1
 44
1.0
  0
MTEXT
  5
46C
330
464
100
AcDbEntity
  8
LAYOUT_
 62
     0
100
AcDbMText
 10
9.9999997765
 20
-14.9806335641
 30
0.0
 40
3.7041666667
 41
0.0
 71
     1
 72
     1
  1
PORTA DE CORRER
  7
SLDTEXTSTYLE0
 73
     1
 44
1.0
  0
MTEXT
  5
46D
330
464
100
AcDbEntity
  8
LAYOUT_
 62
     0
100
AcDbMText
 10
0.0
 20
-14.9806335641
 30
0.0
 40
3.7041666667
 41
0.0
 71
     1
 72
     1
  1
3.
  7
SLDTEXTSTYLE0
 73
     1
 44
1.0
  0
MTEXT
  5
46E
330
464
100
AcDbEntity
  8
LAYOUT_
 62
     0
100
AcDbMText
 10
9.9999997765
 20
-19.9195223933
 30
0.0
 40
3.7041666667
 41
0.0
 71
     1
 72
     1
  1
MAXIM-AR
  7
SLDTEXTSTYLE0
 73
     1
 44
1.0
  0
MTEXT
  5
46F
330
464
100
AcDbEntity
  8
LAYOUT_
 62
     0
100
AcDbMText
 10
0.0
 20
-19.9195223933
 30
0.0
 40
3.7041666667
 41
0.0
 71
     1
 72
     1
  1
4.
  7
SLDTEXTSTYLE0
 73
     1
 44
1.0
  0
MTEXT
  5
470
330
464
100
AcDbEntity
  8
LAYOUT_
 62
     0
100
AcDbMText
 10
9.9999997765
 20
-24.8584112225
 30
0.0
 40
3.7041666667
 41
0.0
 71
     1
 72
     1
  1
PERSIANAS
  7
SLDTEXTSTYLE0
 73
     1
 44
1.0
  0
MTEXT
  5
471
330
464
100
AcDbEntity
  8
LAYOUT_
 62
     0
100
AcDbMText
 10
0.0
 20
-24.8584112225
 30
0.0
 40
3.7041666667
 41
0.0
 71
     1
 72
     1
  1
5.
  7
SLDTEXTSTYLE0
 73
     1
 44
1.0
  0
MTEXT
  5
472
330
464
100
AcDbEntity
  8
LAYOUT_
 62
     0
100
AcDbMText
 10
9.9999997765
 20
-29.7973000517
 30
0.0
 40
3.7041666667
 41
0.0
 71
     1
 72
     1
  1
PORTA DE GIRO
  7
SLDTEXTSTYLE0
 73
     1
 44
1.0
  0
MTEXT
  5
473
330
464
100
AcDbEntity
  8
LAYOUT_
 62
     0
100
AcDbMText
 10
0.0
 20
-29.7973000517
 30
0.0
 40
3.7041666667
 41
0.0
 71
     1
 72
     1
  1
6.
  7
SLDTEXTSTYLE0
 73
     1
 44
1.0
  0
MTEXT
  5
474
330
464
100
AcDbEntity
  8
LAYOUT_
 62
     0
100
AcDbMText
 10
0.0
 20
-39.6750777101
 30
0.0
 40
3.7041666667
 41
0.0
 71
     1
 72
     1
  1
**OBS:
  7
SLDTEXTSTYLE0
 73
     1
 44
1.0
  0
MTEXT
  5
475
330
464
100
AcDbEntity
  8
LAYOUT_
 62
     0
100
AcDbMText
 10
0.0
 20
-44.6139665393
 30
0.0
 40
3.7041666667
 41
0.0
 71
     1
 72
     1
  1
- PARA CATÁLOGOS EM PORTUGUES
  7
SLDTEXTSTYLE0
 73
     1
 44
1.0
  0
MTEXT
  5
476
330
464
100
AcDbEntity
  8
LAYOUT_
 62
     0
100
AcDbMText
 10
19.999999553
 20
-49.5528553685
 30
0.0
 40
3.7041666667
 41
0.0
 71
     1
 72
     1
  1
LAYER: TEXTOS EM PORTUGUES
  7
SLDTEXTSTYLE0
 73
     1
 44
1.0
  0
MTEXT
  5
477
330
464
100
AcDbEntity
  8
LAYOUT_
 62
     0
100
AcDbMText
 10
10.0
 20
-49.5528553685
 30
0.0
 40
3.7041666667
 41
0.0
 71
     1
 72
     1
  1
%%d
  7
SLDTEXTSTYLE0
 73
     1
 44
1.0
  0
MTEXT
  5
478
330
464
100
AcDbEntity
  8
LAYOUT_
 62
     0
100
AcDbMText
 10
0.0
 20
-59.4306330269
 30
0.0
 40
3.7041666667
 41
0.0
 71
     1
 72
     1
  1
- PARA CATÁLOGOS EM ESPANHOL
  7
SLDTEXTSTYLE0
 73
     1
 44
1.0
  0
MTEXT
  5
479
330
464
100
AcDbEntity
  8
LAYOUT_
 62
     0
100
AcDbMText
 10
19.999999553
 20
-64.3695218561
 30
0.0
 40
3.7041666667
 41
0.0
 71
     1
 72
     1
  1
LAYER: TEXTOS EM ESPANHOL
  7
SLDTEXTSTYLE0
 73
     1
 44
1.0
  0
MTEXT
  5
47A
330
464
100
AcDbEntity
  8
LAYOUT_
 62
     0
100
AcDbMText
 10
10.0
 20
-64.3695218561
 30
0.0
 40
3.7041666667
 41
0.0
 71
     1
 72
     1
  1
%%d
  7
SLDTEXTSTYLE0
 73
     1
 44
1.0
  0
ENDBLK
  5
466
330
464
100
AcDbEntity
  8
0
100
AcDbBlockEnd
  0
BLOCK
  5
500
330
4FF
100
AcDbEntity
  8
0
100
AcDbBlockBegin
  2
SW_NOTE_4
 70
     0
 10
0.0
 20
0.0
 30
0.0
  3
SW_NOTE_4
  1

  0
MTEXT
  5
502
330
4FF
100
AcDbEntity
  8
TEXTOS_PORTUGUES
 62
     0
100
AcDbMText
 10
0.0
 20
4.0927900738
 30
0.0
 40
3.175
 41
0.0
 71
     1
 72
     1
  1
\LSUBTÍTULO
  7
SLDTEXTSTYLE0
 73
     1
 44
1.0
  0
MTEXT
  5
503
330
4FF
100
AcDbEntity
  8
TEXTOS_PORTUGUES
 62
     0
100
AcDbMText
 10
25.399999693
 20
4.0927900738
 30
0.0
 40
3.175
 41
0.0
 71
     1
 72
     1
  1
3
  7
SLDTEXTSTYLE0
 73
     1
 44
1.0
  0
ENDBLK
  5
501
330
4FF
100
AcDbEntity
  8
0
100
AcDbBlockEnd
  0
BLOCK
  5
50C
330
50B
100
AcDbEntity
  8
0
100
AcDbBlockBegin
  2
SW_NOTE_5
 70
     0
 10
0.0
 20
0.0
 30
0.0
  3
SW_NOTE_5
  1

  0
MTEXT
  5
50E
330
50B
100
AcDbEntity
  8
LAYOUT_
 62
     0
100
AcDbMText
 10
0.0
 20
4.7749217527
 30
0.0
 40
3.7041666667
 41
0.0
 71
     1
 72
     1
  1
LAYERS RELACIONADOS AS TIPOLOGIAS:
  7
SLDTEXTSTYLE0
 73
     1
 44
1.0
  0
MTEXT
  5
50F
330
50B
100
AcDbEntity
  8
LAYOUT_
 62
     0
100
AcDbMText
 10
9.9999997765
 20
-5.1028559057
 30
0.0
 40
3.7041666667
 41
0.0
 71
     1
 72
     1
  1
JANELA E PORTA DE CORRER
  7
SLDTEXTSTYLE0
 73
     1
 44
1.0
  0
MTEXT
  5
510
330
50B
100
AcDbEntity
  8
LAYOUT_
 62
     0
100
AcDbMText
 10
0.0
 20
-5.1028559057
 30
0.0
 40
3.7041666667
 41
0.0
 71
     1
 72
     1
  1
1.
  7
SLDTEXTSTYLE0
 73
     1
 44
1.0
  0
MTEXT
  5
511
330
50B
100
AcDbEntity
  8
LAYOUT_
 62
     0
100
AcDbMText
 10
9.9999997765
 20
-10.0417447349
 30
0.0
 40
3.7041666667
 41
0.0
 71
     1
 72
     1
  1
JANELA DE CORRER
  7
SLDTEXTSTYLE0
 73
     1
 44
1.0
  0
MTEXT
  5
512
330
50B
100
AcDbEntity
  8
LAYOUT_
 62
     0
100
AcDbMText
 10
0.0
 20
-10.0417447349
 30
0.0
 40
3.7041666667
 41
0.0
 71
     1
 72
     1
  1
2.
  7
SLDTEXTSTYLE0
 73
     1
 44
1.0
  0
MTEXT
  5
513
330
50B
100
AcDbEntity
  8
LAYOUT_
 62
     0
100
AcDbMText
 10
9.9999997765
 20
-14.9806335641
 30
0.0
 40
3.7041666667
 41
0.0
 71
     1
 72
     1
  1
PORTA DE CORRER
  7
SLDTEXTSTYLE0
 73
     1
 44
1.0
  0
MTEXT
  5
514
330
50B
100
AcDbEntity
  8
LAYOUT_
 62
     0
100
AcDbMText
 10
0.0
 20
-14.9806335641
 30
0.0
 40
3.7041666667
 41
0.0
 71
     1
 72
     1
  1
3.
  7
SLDTEXTSTYLE0
 73
     1
 44
1.0
  0
MTEXT
  5
515
330
50B
100
AcDbEntity
  8
LAYOUT_
 62
     0
100
AcDbMText
 10
9.9999997765
 20
-19.9195223933
 30
0.0
 40
3.7041666667
 41
0.0
 71
     1
 72
     1
  1
MAXIM-AR
  7
SLDTEXTSTYLE0
 73
     1
 44
1.0
  0
MTEXT
  5
516
330
50B
100
AcDbEntity
  8
LAYOUT_
 62
     0
100
AcDbMText
 10
0.0
 20
-19.9195223933
 30
0.0
 40
3.7041666667
 41
0.0
 71
     1
 72
     1
  1
4.
  7
SLDTEXTSTYLE0
 73
     1
 44
1.0
  0
MTEXT
  5
517
330
50B
100
AcDbEntity
  8
LAYOUT_
 62
     0
100
AcDbMText
 10
9.9999997765
 20
-24.8584112225
 30
0.0
 40
3.7041666667
 41
0.0
 71
     1
 72
     1
  1
PERSIANAS
  7
SLDTEXTSTYLE0
 73
     1
 44
1.0
  0
MTEXT
  5
518
330
50B
100
AcDbEntity
  8
LAYOUT_
 62
     0
100
AcDbMText
 10
0.0
 20
-24.8584112225
 30
0.0
 40
3.7041666667
 41
0.0
 71
     1
 72
     1
  1
5.
  7
SLDTEXTSTYLE0
 73
     1
 44
1.0
  0
MTEXT
  5
519
330
50B
100
AcDbEntity
  8
LAYOUT_
 62
     0
100
AcDbMText
 10
9.9999997765
 20
-29.7973000517
 30
0.0
 40
3.7041666667
 41
0.0
 71
     1
 72
     1
  1
PORTA DE GIRO
  7
SLDTEXTSTYLE0
 73
     1
 44
1.0
  0
MTEXT
  5
51A
330
50B
100
AcDbEntity
  8
LAYOUT_
 62
     0
100
AcDbMText
 10
0.0
 20
-29.7973000517
 30
0.0
 40
3.7041666667
 41
0.0
 71
     1
 72
     1
  1
6.
  7
SLDTEXTSTYLE0
 73
     1
 44
1.0
  0
MTEXT
  5
51B
330
50B
100
AcDbEntity
  8
LAYOUT_
 62
     0
100
AcDbMText
 10
0.0
 20
-39.6750777101
 30
0.0
 40
3.7041666667
 41
0.0
 71
     1
 72
     1
  1
**OBS:
  7
SLDTEXTSTYLE0
 73
     1
 44
1.0
  0
MTEXT
  5
51C
330
50B
100
AcDbEntity
  8
LAYOUT_
 62
     0
100
AcDbMText
 10
0.0
 20
-44.6139665393
 30
0.0
 40
3.7041666667
 41
0.0
 71
     1
 72
     1
  1
- PARA CATÁLOGOS EM PORTUGUES
  7
SLDTEXTSTYLE0
 73
     1
 44
1.0
  0
MTEXT
  5
51D
330
50B
100
AcDbEntity
  8
LAYOUT_
 62
     0
100
AcDbMText
 10
19.999999553
 20
-49.5528553685
 30
0.0
 40
3.7041666667
 41
0.0
 71
     1
 72
     1
  1
LAYER: TEXTOS EM PORTUGUES
  7
SLDTEXTSTYLE0
 73
     1
 44
1.0
  0
MTEXT
  5
51E
330
50B
100
AcDbEntity
  8
LAYOUT_
 62
     0
100
AcDbMText
 10
10.0
 20
-49.5528553685
 30
0.0
 40
3.7041666667
 41
0.0
 71
     1
 72
     1
  1
%%d
  7
SLDTEXTSTYLE0
 73
     1
 44
1.0
  0
MTEXT
  5
51F
330
50B
100
AcDbEntity
  8
LAYOUT_
 62
     0
100
AcDbMText
 10
0.0
 20
-59.4306330269
 30
0.0
 40
3.7041666667
 41
0.0
 71
     1
 72
     1
  1
- PARA CATÁLOGOS EM ESPANHOL
  7
SLDTEXTSTYLE0
 73
     1
 44
1.0
  0
MTEXT
  5
520
330
50B
100
AcDbEntity
  8
LAYOUT_
 62
     0
100
AcDbMText
 10
19.999999553
 20
-64.3695218561
 30
0.0
 40
3.7041666667
 41
0.0
 71
     1
 72
     1
  1
LAYER: TEXTOS EM ESPANHOL
  7
SLDTEXTSTYLE0
 73
     1
 44
1.0
  0
MTEXT
  5
521
330
50B
100
AcDbEntity
  8
LAYOUT_
 62
     0
100
AcDbMText
 10
10.0
 20
-64.3695218561
 30
0.0
 40
3.7041666667
 41
0.0
 71
     1
 72
     1
  1
%%d
  7
SLDTEXTSTYLE0
 73
     1
 44
1.0
  0
ENDBLK
  5
50D
330
50B
100
AcDbEntity
  8
0
100
AcDbBlockEnd
  0
BLOCK
  5
527
330
525
100
AcDbEntity
  8
0
100
AcDbBlockBegin
  2
*Paper_Space24
 70
     0
 10
0.0
 20
0.0
 30
0.0
  3
*Paper_Space24
  1

  0
HATCH
  5
529
330
525
100
AcDbEntity
  8
LAYOUT_
100
AcDbHatch
 10
0.0
 20
0.0
 30
0.0
210
0.0
220
0.0
230
1.0
  2
SOLID
 70
     1
 71
     0
 91
        1
 92
        0
 93
       12
 72
     2
 10
170.5130402307581
 20
19.12739629603989
 40
0.4456675237456963
 50
89.99999999974423
 51
179.5957936170848
 73
     0
 72
     1
 10
170.067383797235
 20
19.12425225707161
 11
170.8479788055123
 21
22.24706896226007
 72
     1
 10
170.8479788055123
 20
22.24706896226007
 11
169.8139393226297
 21
22.24706896226004
 72
     1
 10
169.8139393226297
 20
22.24706896226004
 11
168.9226042751383
 21
18.68172877229406
 72
     2
 10
169.8139393226298
 20
18.68172877229407
 40
0.8913350474914795
 50
180.0000000000017
 51
270.0000000000008
 73
     1
 72
     1
 10
169.8139393226298
 20
17.79039372480256
 11
172.5981604978237
 21
17.79039372480258
 72
     2
 10
172.5980078948977
 20
18.68172877229447
 40
0.8913350605542537
 50
270.0098094465608
 51
346.0052277622873
 73
     1
 72
     1
 10
173.462886165989
 20
18.46617421686658
 11
174.4082812168459
 21
22.2474050826257
 72
     1
 10
174.4082812168459
 20
22.2474050826257
 11
173.375027743704
 21
22.24740508262621
 72
     1
 10
173.375027743704
 20
22.24740508262621
 11
172.5403727320565
 21
18.90808636070918
 72
     2
 10
172.1518111063253
 20
19.12635088996369
 40
0.445667523745801
 50
29.32398295252708
 51
93.92517999700813
 73
     0
 72
     1
 10
172.1213034974225
 20
18.68172877229415
 11
170.5130402307601
 21
18.68172877229415
 97
        0
 75
     0
 76
     1
 98
        1
 10
0.0
 20
0.0
  0
HATCH
  5
52A
330
525
100
AcDbEntity
  8
LAYOUT_
100
AcDbHatch
 10
0.0
 20
0.0
 30
0.0
210
0.0
220
0.0
230
1.0
  2
SOLID
 70
     1
 71
     0
 91
        1
 92
        0
 93
        4
 72
     1
 10
179.4968722163075
 20
17.7903293156669
 11
180.5308243647744
 21
17.7903293156669
 72
     1
 10
180.5308243647744
 20
17.7903293156669
 11
181.3380563698657
 21
21.02144069642759
 72
     1
 10
181.3380563698657
 20
21.02144069642759
 11
180.3048028967254
 21
21.0214406964276
 72
     1
 10
180.3048028967254
 20
21.0214406964276
 11
179.4968722163075
 21
17.7903293156669
 97
        0
 75
     0
 76
     1
 98
        1
 10
0.0
 20
0.0
  0
HATCH
  5
52B
330
525
100
AcDbEntity
  8
LAYOUT_
100
AcDbHatch
 10
0.0
 20
0.0
 30
0.0
210
0.0
220
0.0
230
1.0
  2
SOLID
 70
     1
 71
     0
 91
        1
 92
        0
 93
        3
 72
     2
 10
180.1829862628089
 20
21.0547421387491
 40
1.266760894066317
 50
289.7476650131743
 51
347.0857716004965
 73
     0
 72
     1
 10
181.4177053570608
 20
21.33785328481299
 11
181.6450368413465
 21
22.24700455312437
 72
     1
 10
181.6450368413465
 20
22.24700455312437
 11
180.6109973584639
 21
22.24700455312437
 97
        0
 75
     0
 76
     1
 98
        1
 10
0.0
 20
0.0
  0
HATCH
  5
52C
330
525
100
AcDbEntity
  8
LAYOUT_
100
AcDbHatch
 10
0.0
 20
0.0
 30
0.0
210
0.0
220
0.0
230
1.0
  2
SOLID
 70
     1
 71
     0
 91
        1
 92
        0
 93
       16
 72
     1
 10
187.4905078243961
 20
21.74063865570438
 11
186.7100001505347
 21
18.62096598948408
 72
     2
 10
187.3585239179832
 20
18.45875966430492
 40
0.668501285618632
 50
165.9574885007146
 51
270.0458519450647
 73
     1
 72
     1
 10
187.3590588977184
 20
17.7902585927497
 11
190.2928839271504
 21
17.79025859274971
 72
     1
 10
190.2928839271504
 20
17.79025859274971
 11
190.488338349675
 21
18.57024226011634
 72
     1
 10
190.488338349675
 20
18.57024226011634
 11
188.1600028248734
 21
18.57024226011634
 72
     2
 10
188.1600028248735
 20
18.90449290292561
 40
0.3342506428092735
 50
90.00000000002923
 51
194.0410249999861
 73
     0
 72
     1
 10
187.8357388370931
 20
18.98558765273799
 11
188.0101456654137
 21
19.68400097576269
 72
     1
 10
188.0101456654137
 20
19.68400097576269
 11
190.7662451587252
 21
19.68400097576269
 72
     1
 10
190.7662451587252
 20
19.68400097576269
 11
190.9337525681987
 21
20.35254592858882
 72
     1
 10
190.9337525681987
 20
20.35254592858882
 11
188.1769543995616
 21
20.35254592858882
 72
     1
 10
188.1769543995616
 20
20.35254592858882
 11
188.3928450753792
 21
21.21392527146464
 72
     2
 10
188.7171158282875
 20
21.13285757736421
 40
0.3342506428093905
 50
194.0362444446529
 51
269.999999999991
 73
     0
 72
     1
 10
188.7171158282874
 20
21.46710822017361
 11
191.2121727528206
 21
21.46710822017361
 72
     1
 10
191.2121727528206
 20
21.46710822017361
 11
191.4070158344346
 21
22.24700455312453
 72
     1
 10
191.4070158344346
 20
22.24700455312453
 11
188.1390493302132
 21
22.24700455312453
 72
     2
 10
188.1390493302133
 20
21.57850326750584
 40
0.6685012856187086
 50
90.00000000000487
 51
165.9637555555539
 73
     1
 97
        0
 75
     0
 76
     1
 98
        1
 10
0.0
 20
0.0
  0
HATCH
  5
52D
330
525
100
AcDbEntity
  8
LAYOUT_
100
AcDbHatch
 10
0.0
 20
0.0
 30
0.0
210
0.0
220
0.0
230
1.0
  2
SOLID
 70
     1
 71
     0
 91
        1
 92
        0
 93
       16
 72
     2
 10
197.5785105597292
 20
18.90455206700181
 40
0.3342506428093934
 50
90.0
 51
194.0410249999755
 73
     0
 72
     1
 10
197.2542465719486
 20
18.98564681681415
 11
197.4286534002693
 21
19.68406013983883
 72
     1
 10
197.4286534002693
 20
19.68406013983883
 11
200.1847528935807
 21
19.68406013983885
 72
     1
 10
200.1847528935807
 20
19.68406013983885
 11
200.3522603030545
 21
20.35260509266541
 72
     1
 10
200.3522603030545
 20
20.35260509266541
 11
197.5954621344166
 21
20.35260509266539
 72
     1
 10
197.5954621344166
 20
20.35260509266539
 11
197.8113528102347
 21
21.21398443554289
 72
     2
 10
198.1356235631432
 20
21.13291674144371
 40
0.3342506428092739
 50
194.0362444444343
 51
270.0000000000008
 73
     0
 72
     1
 10
198.1356235631432
 20
21.46716738425296
 11
200.6306804876765
 21
21.467167384253
 72
     1
 10
200.6306804876765
 20
21.467167384253
 11
200.8255235692905
 21
22.24706371720393
 72
     1
 10
200.8255235692905
 20
22.24706371720393
 11
197.5575570650689
 21
22.2470637172039
 72
     2
 10
197.5575570650689
 20
21.57856243158543
 40
0.6685012856185218
 50
90.0
 51
165.9637555555665
 73
     1
 72
     1
 10
196.9090155592518
 20
21.74069781978379
 11
196.1285078853903
 21
18.62102515356356
 72
     2
 10
196.7770316528378
 20
18.45881882838061
 40
0.668501285618565
 50
165.9574885003799
 51
270.0458519451499
 73
     1
 72
     1
 10
196.777566632574
 20
17.79031775682553
 11
199.7113916620061
 21
17.79031775682555
 72
     1
 10
199.7113916620061
 20
17.79031775682555
 11
199.9068460845305
 21
18.57030142419241
 72
     1
 10
199.9068460845305
 20
18.57030142419241
 11
197.5785105597292
 21
18.5703014241924
 97
        0
 75
     0
 76
     1
 98
        1
 10
0.0
 20
0.0
  0
HATCH
  5
52E
330
525
100
AcDbEntity
  8
LAYOUT_
100
AcDbHatch
 10
0.0
 20
0.0
 30
0.0
210
0.0
220
0.0
230
1.0
  2
SOLID
 70
     1
 71
     0
 91
        1
 92
        0
 93
       14
 72
     1
 10
175.0168192367113
 20
17.79055454930106
 11
173.9828670882443
 21
17.79055454930106
 72
     1
 10
173.9828670882443
 20
17.79055454930106
 11
175.076643311523
 21
22.16260273786385
 72
     2
 10
175.1847354369723
 20
22.13558767218786
 40
0.1114168809365144
 50
194.0322694450046
 51
270.0000000001031
 73
     0
 72
     1
 10
175.1847354369725
 20
22.24700455312433
 11
177.3525503055629
 21
22.24700455312435
 72
     2
 10
177.172710349574
 20
20.02071224671071
 40
2.233544233581842
 50
274.6183266272648
 51
373.3085399948901
 73
     0
 72
     2
 10
177.172710349574
 20
20.02071224671071
 40
2.233544233581867
 50
13.30853999488929
 51
86.95123031227389
 73
     0
 72
     1
 10
177.2915035489283
 20
17.7903293156529
 11
175.9365974224543
 21
17.7903293156529
 72
     1
 10
175.9365974224543
 20
17.7903293156529
 11
176.1314405040694
 21
18.5703129830234
 72
     1
 10
176.1314405040694
 20
18.5703129830234
 11
177.0133434346557
 21
18.5703129830234
 72
     2
 10
177.0127774411057
 20
19.94122160845794
 40
1.370908742272628
 50
270.0236551431669
 51
345.8635575517509
 73
     1
 72
     1
 10
178.3421707757872
 20
19.60640204310367
 11
178.3540194683802
 21
19.65341965431127
 72
     2
 10
176.9378270462958
 20
20.0075385479399
 40
1.459794905866569
 50
345.961061110989
 51
450.0000000000008
 73
     1
 72
     1
 10
176.9378270462958
 20
21.46733345380644
 11
175.9361012972535
 21
21.46733345380636
 72
     1
 10
175.9361012972535
 20
21.46733345380636
 11
175.0168192367113
 21
17.79055454930106
 97
        0
 75
     0
 76
     1
 98
        1
 10
0.0
 20
0.0
  0
HATCH
  5
52F
330
525
100
AcDbEntity
  8
LAYOUT_
100
AcDbHatch
 10
0.0
 20
0.0
 30
0.0
210
0.0
220
0.0
230
1.0
  2
SOLID
 70
     1
 71
     0
 91
        1
 92
        0
 93
       12
 72
     2
 10
185.167061423616
 20
18.45860636448581
 40
0.6685012856186326
 50
207.1838119432031
 51
269.9475909935572
 73
     1
 72
     1
 10
185.1664499390774
 20
17.79010535853265
 11
185.8133359567896
 21
17.79010535853265
 72
     1
 10
185.8133359567896
 20
17.79010535853265
 11
186.9274610989458
 21
22.24678059598929
 72
     1
 10
186.9274610989458
 20
22.24678059598929
 11
185.893508950479
 21
22.24678059598929
 72
     1
 10
185.893508950479
 20
22.24678059598929
 11
185.1416469649948
 21
19.2385466443094
 72
     1
 10
185.1416469649948
 20
19.2385466443094
 11
183.7835967995534
 21
21.88390609840656
 72
     2
 10
183.188934643576
 20
21.57850326750574
 40
0.6685012856187489
 50
27.1838388889056
 51
90.0
 73
     1
 72
     1
 10
183.188934643576
 20
22.24700455312446
 11
182.3339307130508
 21
22.24700455312446
 72
     1
 10
182.3339307130508
 20
22.24700455312446
 11
181.2197182364786
 21
17.79032931566692
 72
     1
 10
181.2197182364786
 20
17.79032931566692
 11
182.2536703849455
 21
17.79032931566693
 72
     1
 10
182.2536703849455
 20
17.79032931566693
 11
183.0736532147413
 21
21.07174531991914
 72
     1
 10
183.0736532147413
 20
21.07174531991914
 11
184.5723991240105
 21
18.15320381324946
 97
        0
 75
     0
 76
     1
 98
        1
 10
0.0
 20
0.0
  0
HATCH
  5
530
330
525
100
AcDbEntity
  8
LAYOUT_
100
AcDbHatch
 10
0.0
 20
0.0
 30
0.0
210
0.0
220
0.0
230
1.0
  2
SOLID
 70
     1
 71
     0
 91
        1
 92
        0
 93
       12
 72
     2
 10
193.2539640594348
 20
21.35569133923711
 40
0.1114168809364868
 50
90.0
 51
228.0365750000344
 73
     1
 72
     1
 10
193.1794644845312
 20
21.27284488670711
 11
195.1232665766341
 21
19.52458455154431
 72
     2
 10
194.4567603820072
 20
18.78333446879962
 40
0.9968360911629796
 50
311.9607722222112
 51
450.0000000000269
 73
     0
 72
     1
 10
194.4567603820067
 20
17.78649837763665
 11
190.9856540266717
 21
17.78649837763663
 72
     1
 10
190.9856540266717
 20
17.78649837763663
 11
191.1805844427014
 21
18.56648204500324
 72
     1
 10
191.1805844427014
 20
18.56648204500324
 11
194.3982463234316
 21
18.56648204500327
 72
     2
 10
194.3809850766869
 20
18.67655370674425
 40
0.1114168809364247
 50
278.9124394812695
 51
411.3264264756569
 73
     1
 72
     1
 10
194.4506075505736
 20
18.76353894967366
 11
192.168821269385
 21
20.81563571735025
 72
     2
 10
192.7177321051163
 20
21.42610296534083
 40
0.8209588092300139
 50
131.9607722223978
 51
270.6764861111357
 73
     0
 72
     1
 10
192.727424866673
 20
22.24700455312453
 11
196.3456897126041
 21
22.24700455312455
 72
     1
 10
196.3456897126041
 20
22.24700455312455
 11
196.1508466309901
 21
21.46710822017361
 72
     1
 10
196.1508466309901
 20
21.46710822017361
 11
193.2539640594348
 21
21.46710822017358
 97
        0
 75
     0
 76
     1
 98
        1
 10
0.0
 20
0.0
  0
LINE
  5
531
330
525
100
AcDbEntity
  8
LAYOUT_
370
    30
100
AcDbLine
 10
9.6393342483
 20
8.8593134707
 30
0.0
 11
9.6393342483
 21
284.8855092333
 31
0.0
  0
LINE
  5
532
330
525
100
AcDbEntity
  8
LAYOUT_
370
    30
100
AcDbLine
 10
197.9839330998
 20
273.8855092333
 30
0.0
 11
93.5495543863
 21
273.8855092333
 31
0.0
  0
LINE
  5
533
330
525
100
AcDbEntity
  8
LAYOUT_
370
    30
100
AcDbLine
 10
90.5495543863
 20
276.8855092333
 30
0.0
 11
90.5495543863
 21
284.8855092333
 31
0.0
  0
LINE
  5
534
330
525
100
AcDbEntity
  8
LAYOUT_
370
    30
100
AcDbLine
 10
87.5495543863
 20
287.8855092333
 30
0.0
 11
12.6393342483
 21
287.8855092333
 31
0.0
  0
LINE
  5
535
330
525
100
AcDbEntity
  8
LAYOUT_
 62
     5
370
    30
100
AcDbLine
 10
179.4968722163
 20
17.7903293157
 30
0.0
 11
180.3048028967
 21
21.0214406964
 31
0.0
  0
LINE
  5
536
330
525
100
AcDbEntity
  8
LAYOUT_
 62
     5
370
    30
100
AcDbLine
 10
180.3048028967
 20
21.0214406964
 30
0.0
 11
181.3380563699
 21
21.0214406964
 31
0.0
  0
LINE
  5
537
330
525
100
AcDbEntity
  8
LAYOUT_
 62
     5
370
    30
100
AcDbLine
 10
181.3380563699
 20
21.0214406964
 30
0.0
 11
180.5308243648
 21
17.7903293157
 31
0.0
  0
LINE
  5
538
330
525
100
AcDbEntity
  8
LAYOUT_
 62
     5
370
    30
100
AcDbLine
 10
180.5308243648
 20
17.7903293157
 30
0.0
 11
179.4968722163
 21
17.7903293157
 31
0.0
  0
LINE
  5
539
330
525
100
AcDbEntity
  8
LAYOUT_
  6
Continuous
 62
     5
370
    30
100
AcDbLine
 10
170.0673837972
 20
19.1242522571
 30
0.0
 11
170.8479788055
 21
22.2470689623
 31
0.0
  0
LINE
  5
53A
330
525
100
AcDbEntity
  8
LAYOUT_
  6
Continuous
370
    30
100
AcDbLine
 10
170.8479788055
 20
22.2470689623
 30
0.0
 11
169.8139393226
 21
22.2470689623
 31
0.0
  0
LINE
  5
53B
330
525
100
AcDbEntity
  8
LAYOUT_
  6
Continuous
 62
     5
370
    30
100
AcDbLine
 10
169.8139393226
 20
22.2470689623
 30
0.0
 11
168.9226042751
 21
18.6817287723
 31
0.0
  0
LINE
  5
53C
330
525
100
AcDbEntity
  8
LAYOUT_
  6
Continuous
 62
     5
370
    30
100
AcDbLine
 10
169.8139393226
 20
17.7903937248
 30
0.0
 11
172.5981604978
 21
17.7903937248
 31
0.0
  0
LINE
  5
53D
330
525
100
AcDbEntity
  8
LAYOUT_
  6
Continuous
 62
     5
370
    30
100
AcDbLine
 10
173.462886166
 20
18.4661742169
 30
0.0
 11
174.4082812168
 21
22.2474050826
 31
0.0
  0
LINE
  5
53E
330
525
100
AcDbEntity
  8
LAYOUT_
  6
Continuous
 62
     5
370
    30
100
AcDbLine
 10
174.4082812168
 20
22.2474050826
 30
0.0
 11
173.3750277437
 21
22.2474050826
 31
0.0
  0
LINE
  5
53F
330
525
100
AcDbEntity
  8
LAYOUT_
  6
Continuous
 62
     5
370
    30
100
AcDbLine
 10
173.3750277437
 20
22.2474050826
 30
0.0
 11
172.5403727321
 21
18.9080863607
 31
0.0
  0
LINE
  5
540
330
525
100
AcDbEntity
  8
LAYOUT_
370
    30
100
AcDbLine
 10
196.3456897126
 20
22.2470045531
 30
0.0
 11
196.150846631
 21
21.4671082202
 31
0.0
  0
LINE
  5
541
330
525
100
AcDbEntity
  8
LAYOUT_
  6
Continuous
 62
     5
370
    30
100
AcDbLine
 10
197.5785105597
 20
18.5703014242
 30
0.0
 11
199.9068460845
 21
18.5703014242
 31
0.0
  0
LINE
  5
542
330
525
100
AcDbEntity
  8
LAYOUT_
  6
Continuous
 62
     5
370
    30
100
AcDbLine
 10
172.1213034974
 20
18.6817287723
 30
0.0
 11
170.5130402308
 21
18.6817287723
 31
0.0
  0
LINE
  5
543
330
525
100
AcDbEntity
  8
LAYOUT_
  6
Continuous
 62
     5
370
    30
100
AcDbLine
 10
175.184735437
 20
22.2470045531
 30
0.0
 11
177.3525503056
 21
22.2470045531
 31
0.0
  0
LINE
  5
544
330
525
100
AcDbEntity
  8
LAYOUT_
  6
Continuous
 62
     5
370
    30
100
AcDbLine
 10
177.2915035489
 20
17.7903293157
 30
0.0
 11
175.9365974225
 21
17.7903293157
 31
0.0
  0
LINE
  5
545
330
525
100
AcDbEntity
  8
LAYOUT_
  6
Continuous
 62
     5
370
    30
100
AcDbLine
 10
175.9365974225
 20
17.7903293157
 30
0.0
 11
176.1314405041
 21
18.570312983
 31
0.0
  0
LINE
  5
546
330
525
100
AcDbEntity
  8
LAYOUT_
  6
Continuous
 62
     5
370
    30
100
AcDbLine
 10
176.1314405041
 20
18.570312983
 30
0.0
 11
177.0133434347
 21
18.570312983
 31
0.0
  0
LINE
  5
547
330
525
100
AcDbEntity
  8
LAYOUT_
  6
Continuous
 62
     5
370
    30
100
AcDbLine
 10
178.3421707758
 20
19.6064020431
 30
0.0
 11
178.3540194684
 21
19.6534196543
 31
0.0
  0
LINE
  5
548
330
525
100
AcDbEntity
  8
LAYOUT_
  6
Continuous
 62
     5
370
    30
100
AcDbLine
 10
176.9378270463
 20
21.4673334538
 30
0.0
 11
175.9361012973
 21
21.4673334538
 31
0.0
  0
LINE
  5
549
330
525
100
AcDbEntity
  8
LAYOUT_
  6
Continuous
 62
     5
370
    30
100
AcDbLine
 10
175.9361012973
 20
21.4673334538
 30
0.0
 11
175.0168192367
 21
17.7905545493
 31
0.0
  0
LINE
  5
54A
330
525
100
AcDbEntity
  8
LAYOUT_
  6
Continuous
 62
     5
370
    30
100
AcDbLine
 10
175.0168192367
 20
17.7905545493
 30
0.0
 11
173.9828670882
 21
17.7905545493
 31
0.0
  0
LINE
  5
54B
330
525
100
AcDbEntity
  8
LAYOUT_
  6
Continuous
 62
     5
370
    30
100
AcDbLine
 10
173.9828670882
 20
17.7905545493
 30
0.0
 11
175.0766433115
 21
22.1626027379
 31
0.0
  0
LINE
  5
54C
330
525
100
AcDbEntity
  8
LAYOUT_
  6
Continuous
 62
     5
370
    30
100
AcDbLine
 10
200.8255235693
 20
22.2470637172
 30
0.0
 11
200.6306804877
 21
21.4671673843
 31
0.0
  0
LINE
  5
54D
330
525
100
AcDbEntity
  8
LAYOUT_
  6
Continuous
 62
     5
370
    30
100
AcDbLine
 10
200.1847528936
 20
19.6840601398
 30
0.0
 11
197.4286534003
 21
19.6840601398
 31
0.0
  0
LINE
  5
54E
330
525
100
AcDbEntity
  8
LAYOUT_
  6
Continuous
 62
     1
370
    30
100
AcDbLine
 10
180.6109973585
 20
22.2470045531
 30
0.0
 11
181.6450368413
 21
22.2470045531
 31
0.0
  0
LINE
  5
54F
330
525
100
AcDbEntity
  8
LAYOUT_
  6
Continuous
 62
     1
370
    30
100
AcDbLine
 10
181.6450368413
 20
22.2470045531
 30
0.0
 11
181.4177053571
 21
21.3378532848
 31
0.0
  0
LINE
  5
550
330
525
100
AcDbEntity
  8
LAYOUT_
  6
Continuous
 62
     5
370
    30
100
AcDbLine
 10
180.3048028967
 20
21.0214406964
 30
0.0
 11
181.3380563699
 21
21.0214406964
 31
0.0
  0
LINE
  5
551
330
525
100
AcDbEntity
  8
LAYOUT_
  6
Continuous
 62
     5
370
    30
100
AcDbLine
 10
181.3380563699
 20
21.0214406964
 30
0.0
 11
180.5308243648
 21
17.7903293157
 31
0.0
  0
LINE
  5
552
330
525
100
AcDbEntity
  8
LAYOUT_
  6
Continuous
 62
     5
370
    30
100
AcDbLine
 10
180.5308243648
 20
17.7903293157
 30
0.0
 11
179.4968722163
 21
17.7903293157
 31
0.0
  0
LINE
  5
553
330
525
100
AcDbEntity
  8
LAYOUT_
  6
Continuous
 62
     5
370
    30
100
AcDbLine
 10
179.4968722163
 20
17.7903293157
 30
0.0
 11
180.3048028967
 21
21.0214406964
 31
0.0
  0
LINE
  5
554
330
525
100
AcDbEntity
  8
LAYOUT_
  6
Continuous
 62
     5
370
    30
100
AcDbLine
 10
181.2197182365
 20
17.7903293157
 30
0.0
 11
182.3339307131
 21
22.2470045531
 31
0.0
  0
LINE
  5
555
330
525
100
AcDbEntity
  8
LAYOUT_
  6
Continuous
 62
     5
370
    30
100
AcDbLine
 10
182.3339307131
 20
22.2470045531
 30
0.0
 11
183.1889346436
 21
22.2470045531
 31
0.0
  0
LINE
  5
556
330
525
100
AcDbEntity
  8
LAYOUT_
  6
Continuous
 62
     5
370
    30
100
AcDbLine
 10
197.5954621344
 20
20.3526050927
 30
0.0
 11
200.3522603031
 21
20.3526050927
 31
0.0
  0
LINE
  5
557
330
525
100
AcDbEntity
  8
LAYOUT_
  6
Continuous
 62
     5
370
    30
100
AcDbLine
 10
183.7835967996
 20
21.8839060984
 30
0.0
 11
185.141646965
 21
19.2385466443
 31
0.0
  0
LINE
  5
558
330
525
100
AcDbEntity
  8
LAYOUT_
  6
Continuous
 62
     5
370
    30
100
AcDbLine
 10
185.141646965
 20
19.2385466443
 30
0.0
 11
185.8935089505
 21
22.246780596
 31
0.0
  0
LINE
  5
559
330
525
100
AcDbEntity
  8
LAYOUT_
  6
Continuous
 62
     5
370
    30
100
AcDbLine
 10
185.8935089505
 20
22.246780596
 30
0.0
 11
186.9274610989
 21
22.246780596
 31
0.0
  0
LINE
  5
55A
330
525
100
AcDbEntity
  8
LAYOUT_
  6
Continuous
 62
     5
370
    30
100
AcDbLine
 10
186.9274610989
 20
22.246780596
 30
0.0
 11
185.8133359568
 21
17.7901053585
 31
0.0
  0
LINE
  5
55B
330
525
100
AcDbEntity
  8
LAYOUT_
  6
Continuous
 62
     5
370
    30
100
AcDbLine
 10
185.8133359568
 20
17.7901053585
 30
0.0
 11
185.1664499391
 21
17.7901053585
 31
0.0
  0
LINE
  5
55C
330
525
100
AcDbEntity
  8
LAYOUT_
  6
Continuous
 62
     5
370
    30
100
AcDbLine
 10
196.1285078854
 20
18.6210251536
 30
0.0
 11
196.9090155593
 21
21.7406978198
 31
0.0
  0
LINE
  5
55D
330
525
100
AcDbEntity
  8
LAYOUT_
  6
Continuous
 62
     5
370
    30
100
AcDbLine
 10
184.572399124
 20
18.1532038132
 30
0.0
 11
183.0736532147
 21
21.0717453199
 31
0.0
  0
LINE
  5
55E
330
525
100
AcDbEntity
  8
LAYOUT_
  6
Continuous
 62
     5
370
    30
100
AcDbLine
 10
183.0736532147
 20
21.0717453199
 30
0.0
 11
182.2536703849
 21
17.7903293157
 31
0.0
  0
LINE
  5
55F
330
525
100
AcDbEntity
  8
LAYOUT_
  6
Continuous
370
    30
100
AcDbLine
 10
199.9839330998
 20
290.0554081804
 30
0.0
 11
10.6393342483
 21
290.0554081804
 31
0.0
  0
LINE
  5
560
330
525
100
AcDbEntity
  8
0
  6
Continuous
 62
   179
370
    30
100
AcDbLine
 10
7.6393342483
 20
287.0554081804
 30
0.0
 11
7.6393342483
 21
10.0292124178
 31
0.0
  0
LINE
  5
561
330
525
100
AcDbEntity
  8
0
  6
Continuous
 62
   179
370
    30
100
AcDbLine
 10
10.6393342483
 20
7.0292124178
 30
0.0
 11
165.000198038
 21
7.0292124178
 31
0.0
  0
LINE
  5
562
330
525
100
AcDbEntity
  8
0
  6
Continuous
 62
   179
370
    30
100
AcDbLine
 10
168.0002007161
 20
10.029215096
 30
0.0
 11
168.0002007161
 21
11.9169709142
 31
0.0
  0
LINE
  5
563
330
525
100
AcDbEntity
  8
0
  6
Continuous
 62
   179
370
    30
100
AcDbLine
 10
171.0002007161
 20
14.9169709142
 30
0.0
 11
200.2151368976
 21
14.9169709142
 31
0.0
  0
LINE
  5
564
330
525
100
AcDbEntity
  8
0
  6
Continuous
 62
   179
370
    30
100
AcDbLine
 10
202.9839330998
 20
17.9080509255
 30
0.0
 11
202.9839330998
 21
287.0554081804
 31
0.0
  0
LINE
  5
565
330
525
100
AcDbEntity
  8
LAYOUT_
  6
Continuous
 62
     5
370
    30
100
AcDbLine
 10
182.2536703849
 20
17.7903293157
 30
0.0
 11
181.2197182365
 21
17.7903293157
 31
0.0
  0
LINE
  5
566
330
525
100
AcDbEntity
  8
LAYOUT_
  6
Continuous
 62
     5
370
    30
100
AcDbLine
 10
188.1390493302
 20
22.2470045531
 30
0.0
 11
191.4070158344
 21
22.2470045531
 31
0.0
  0
LINE
  5
567
330
525
100
AcDbEntity
  8
LAYOUT_
  6
Continuous
 62
     5
370
    30
100
AcDbLine
 10
191.4070158344
 20
22.2470045531
 30
0.0
 11
191.2121727528
 21
21.4671082202
 31
0.0
  0
LINE
  5
568
330
525
100
AcDbEntity
  8
0
  6
Continuous
 62
   179
370
    30
100
AcDbLine
 10
200.9839330998
 20
270.8855092333
 30
0.0
 11
200.9839330998
 21
28.3658790023
 31
0.0
  0
LINE
  5
569
330
525
100
AcDbEntity
  8
LAYOUT_
  6
Continuous
 62
     5
370
    30
100
AcDbLine
 10
191.2121727528
 20
21.4671082202
 30
0.0
 11
188.7171158283
 21
21.4671082202
 31
0.0
  0
LINE
  5
56A
330
525
100
AcDbEntity
  8
0
  6
Continuous
 62
   179
370
    30
100
AcDbLine
 10
165.9839087496
 20
22.3658790023
 30
0.0
 11
165.9839087496
 21
12.029215096
 31
0.0
  0
LINE
  5
56B
330
525
100
AcDbEntity
  8
0
  6
Continuous
 62
   179
370
    30
100
AcDbLine
 10
162.9887208729
 20
8.8593134707
 30
0.0
 11
9.6393342483
 21
8.8593134707
 31
0.0
  0
LINE
  5
56C
330
525
100
AcDbEntity
  8
LAYOUT_
  6
Continuous
 62
     5
370
    30
100
AcDbLine
 10
197.8113528102
 20
21.2139844355
 30
0.0
 11
197.5954621344
 21
20.3526050927
 31
0.0
  0
LINE
  5
56D
330
525
100
AcDbEntity
  8
LAYOUT_
370
    30
100
AcDbLine
 10
168.9839087496
 20
25.3658790023
 30
0.0
 11
197.9839330998
 21
25.3658790023
 31
0.0
  0
LINE
  5
56E
330
525
100
AcDbEntity
  8
LAYOUT_
  6
Continuous
 62
     5
370
    30
100
AcDbLine
 10
188.3928450754
 20
21.2139252715
 30
0.0
 11
188.1769543996
 21
20.3525459286
 31
0.0
  0
LINE
  5
56F
330
525
100
AcDbEntity
  8
LAYOUT_
  6
Continuous
 62
     5
370
    30
100
AcDbLine
 10
188.1769543996
 20
20.3525459286
 30
0.0
 11
190.9337525682
 21
20.3525459286
 31
0.0
  0
LINE
  5
570
330
525
100
AcDbEntity
  8
LAYOUT_
  6
Continuous
 62
     5
370
    30
100
AcDbLine
 10
190.9337525682
 20
20.3525459286
 30
0.0
 11
190.7662451587
 21
19.6840009758
 31
0.0
  0
LINE
  5
571
330
525
100
AcDbEntity
  8
LAYOUT_
  6
Continuous
 62
     5
370
    30
100
AcDbLine
 10
190.7662451587
 20
19.6840009758
 30
0.0
 11
188.0101456654
 21
19.6840009758
 31
0.0
  0
LINE
  5
572
330
525
100
AcDbEntity
  8
LAYOUT_
  6
Continuous
 62
     5
370
    30
100
AcDbLine
 10
188.0101456654
 20
19.6840009758
 30
0.0
 11
187.8357388371
 21
18.9855876527
 31
0.0
  0
LINE
  5
573
330
525
100
AcDbEntity
  8
LAYOUT_
  6
Continuous
 62
     5
370
    30
100
AcDbLine
 10
199.711391662
 20
17.7903177568
 30
0.0
 11
196.7775666326
 21
17.7903177568
 31
0.0
  0
LINE
  5
574
330
525
100
AcDbEntity
  8
LAYOUT_
  6
Continuous
 62
     5
370
    30
100
AcDbLine
 10
188.1600028249
 20
18.5702422601
 30
0.0
 11
190.4883383497
 21
18.5702422601
 31
0.0
  0
LINE
  5
575
330
525
100
AcDbEntity
  8
LAYOUT_
  6
Continuous
 62
     5
370
    30
100
AcDbLine
 10
190.4883383497
 20
18.5702422601
 30
0.0
 11
190.2928839272
 21
17.7902585927
 31
0.0
  0
LINE
  5
576
330
525
100
AcDbEntity
  8
LAYOUT_
  6
Continuous
 62
     5
370
    30
100
AcDbLine
 10
190.2928839272
 20
17.7902585927
 30
0.0
 11
187.3590588977
 21
17.7902585927
 31
0.0
  0
LINE
  5
577
330
525
100
AcDbEntity
  8
LAYOUT_
  6
Continuous
 62
     5
370
    30
100
AcDbLine
 10
199.9068460845
 20
18.5703014242
 30
0.0
 11
199.711391662
 21
17.7903177568
 31
0.0
  0
LINE
  5
578
330
525
100
AcDbEntity
  8
LAYOUT_
  6
Continuous
 62
     5
370
    30
100
AcDbLine
 10
186.7100001505
 20
18.6209659895
 30
0.0
 11
187.4905078244
 21
21.7406386557
 31
0.0
  0
LINE
  5
579
330
525
100
AcDbEntity
  8
LAYOUT_
  6
Continuous
 62
     5
370
    30
100
AcDbLine
 10
193.2539640594
 20
21.4671082202
 30
0.0
 11
196.150846631
 21
21.4671082202
 31
0.0
  0
LINE
  5
57A
330
525
100
AcDbEntity
  8
LAYOUT_
  6
Continuous
 62
     5
370
    30
100
AcDbLine
 10
197.4286534003
 20
19.6840601398
 30
0.0
 11
197.2542465719
 21
18.9856468168
 31
0.0
  0
LINE
  5
57B
330
525
100
AcDbEntity
  8
LAYOUT_
  6
Continuous
 62
     5
370
    30
100
AcDbLine
 10
196.3456897126
 20
22.2470045531
 30
0.0
 11
192.7274248667
 21
22.2470045531
 31
0.0
  0
LINE
  5
57C
330
525
100
AcDbEntity
  8
LAYOUT_
  6
Continuous
 62
     5
370
    30
100
AcDbLine
 10
200.3522603031
 20
20.3526050927
 30
0.0
 11
200.1847528936
 21
19.6840601398
 31
0.0
  0
LINE
  5
57D
330
525
100
AcDbEntity
  8
LAYOUT_
  6
Continuous
 62
     5
370
    30
100
AcDbLine
 10
200.6306804877
 20
21.4671673843
 30
0.0
 11
198.1356235631
 21
21.4671673843
 31
0.0
  0
LINE
  5
57E
330
525
100
AcDbEntity
  8
LAYOUT_
  6
Continuous
 62
     5
370
    30
100
AcDbLine
 10
192.1688212694
 20
20.8156357174
 30
0.0
 11
194.4506075506
 21
18.7635389497
 31
0.0
  0
LINE
  5
57F
330
525
100
AcDbEntity
  8
LAYOUT_
  6
Continuous
 62
     5
370
    30
100
AcDbLine
 10
197.5575570651
 20
22.2470637172
 30
0.0
 11
200.8255235693
 21
22.2470637172
 31
0.0
  0
LINE
  5
580
330
525
100
AcDbEntity
  8
LAYOUT_
  6
Continuous
 62
     5
370
    30
100
AcDbLine
 10
194.3982463234
 20
18.566482045
 30
0.0
 11
191.1805844427
 21
18.566482045
 31
0.0
  0
LINE
  5
581
330
525
100
AcDbEntity
  8
LAYOUT_
  6
Continuous
 62
     5
370
    30
100
AcDbLine
 10
191.1805844427
 20
18.566482045
 30
0.0
 11
190.9856540267
 21
17.7864983776
 31
0.0
  0
LINE
  5
582
330
525
100
AcDbEntity
  8
LAYOUT_
  6
Continuous
 62
     5
370
    30
100
AcDbLine
 10
190.9856540267
 20
17.7864983776
 30
0.0
 11
194.456760382
 21
17.7864983776
 31
0.0
  0
LINE
  5
583
330
525
100
AcDbEntity
  8
LAYOUT_
  6
Continuous
 62
     5
370
    30
100
AcDbLine
 10
195.1232665766
 20
19.5245845515
 30
0.0
 11
193.1794644845
 21
21.2728448867
 31
0.0
  0
ARC
  5
584
330
525
100
AcDbEntity
  8
LAYOUT_
370
    30
100
AcDbCircle
 10
93.5495543863
 20
276.8855092333
 30
0.0
 40
3.000000000000014
100
AcDbArc
 50
180.0
 51
270.0
  0
ARC
  5
585
330
525
100
AcDbEntity
  8
LAYOUT_
370
    30
100
AcDbCircle
 10
87.5495543863
 20
284.8855092333
 30
0.0
 40
3.0
100
AcDbArc
 50
0.0
 51
90.0
  0
ARC
  5
586
330
525
100
AcDbEntity
  8
LAYOUT_
370
    30
100
AcDbCircle
 10
12.6393342483
 20
284.8855092333
 30
0.0
 40
3.000000000000004
100
AcDbArc
 50
90.0
 51
180.0
  0
ARC
  5
587
330
525
100
AcDbEntity
  8
LAYOUT_
  6
Continuous
 62
     5
370
    30
100
AcDbCircle
 10
169.8139393226
 20
18.6817287723
 30
0.0
 40
0.8913350474915127
100
AcDbArc
 50
180.0
 51
270.0
  0
ARC
  5
588
330
525
100
AcDbEntity
  8
LAYOUT_
  6
Continuous
 62
     5
370
    30
100
AcDbCircle
 10
172.5980078949
 20
18.6817287723
 30
0.0
 40
0.891335060555241
100
AcDbArc
 50
270.0098094466
 51
346.0052277623
  0
ARC
  5
589
330
525
100
AcDbEntity
  8
LAYOUT_
  6
Continuous
 62
     5
370
    30
100
AcDbCircle
 10
172.1518111063
 20
19.12635089
 30
0.0
 40
0.445667523746016
100
AcDbArc
 50
266.074820003
 51
330.6760170475
  0
ARC
  5
58A
330
525
100
AcDbEntity
  8
0
  6
Continuous
 62
   179
370
    30
100
AcDbCircle
 10
165.000198038
 20
10.029215096
 30
0.0
 40
3.000002678143693
100
AcDbArc
 50
270.0
 51
0.0
  0
ARC
  5
58B
330
525
100
AcDbEntity
  8
LAYOUT_
370
    30
100
AcDbCircle
 10
171.0002007161
 20
11.9169709142
 30
0.0
 40
3.000000000000028
100
AcDbArc
 50
90.0
 51
180.0
  0
ARC
  5
58C
330
525
100
AcDbEntity
  8
0
  6
Continuous
 62
   179
370
    30
100
AcDbCircle
 10
199.9839304216
 20
17.9080509255
 30
0.0
 40
3.000002678143705
100
AcDbArc
 50
274.4200974644
 51
0.0
  0
ARC
  5
58D
330
525
100
AcDbEntity
  8
LAYOUT_
370
    30
100
AcDbCircle
 10
197.9839330998
 20
270.8855092333
 30
0.0
 40
2.999999999999943
100
AcDbArc
 50
0.0
 51
90.0
  0
ARC
  5
58E
330
525
100
AcDbEntity
  8
LAYOUT_
  6
Continuous
 62
     5
370
    30
100
AcDbCircle
 10
170.5130402308
 20
19.127396296
 30
0.0
 40
0.4456675237457368
100
AcDbArc
 50
180.4042063829
 51
270.0000000003
  0
ARC
  5
58F
330
525
100
AcDbEntity
  8
LAYOUT_
  6
Continuous
 62
     5
370
    30
100
AcDbCircle
 10
177.1727103496
 20
20.0207122467
 30
0.0
 40
2.233544233581845
100
AcDbArc
 50
346.6914600051
 51
85.3816733727
  0
ARC
  5
590
330
525
100
AcDbEntity
  8
LAYOUT_
370
    30
100
AcDbCircle
 10
199.9839330998
 20
287.0554081804
 30
0.0
 40
3.0
100
AcDbArc
 50
0.0
 51
90.0
  0
ARC
  5
591
330
525
100
AcDbEntity
  8
LAYOUT_
  6
Continuous
370
    30
100
AcDbCircle
 10
197.9839330998
 20
28.3658790023
 30
0.0
 40
3.000000000000028
100
AcDbArc
 50
270.0
 51
0.0
  0
ARC
  5
592
330
525
100
AcDbEntity
  8
LAYOUT_
370
    30
100
AcDbCircle
 10
168.9839087496
 20
22.3658790023
 30
0.0
 40
3.000000000000007
100
AcDbArc
 50
90.0
 51
180.0
  0
ARC
  5
593
330
525
100
AcDbEntity
  8
0
  6
Continuous
 62
   179
370
    30
100
AcDbCircle
 10
162.9887208729
 20
11.8593161489
 30
0.0
 40
3.000002678143741
100
AcDbArc
 50
270.0
 51
3.2465649992
  0
ARC
  5
594
330
525
100
AcDbEntity
  8
LAYOUT_
  6
Continuous
 62
     5
370
    30
100
AcDbCircle
 10
177.1727103496
 20
20.0207122467
 30
0.0
 40
2.233544233581874
100
AcDbArc
 50
273.0487696877
 51
346.6914600051
  0
ARC
  5
595
330
525
100
AcDbEntity
  8
LAYOUT_
  6
Continuous
 62
     5
370
    30
100
AcDbCircle
 10
177.0127774411
 20
19.9412216085
 30
0.0
 40
1.370908742272629
100
AcDbArc
 50
270.0236551432
 51
345.8635575518
  0
ARC
  5
596
330
525
100
AcDbEntity
  8
LAYOUT_
370
    30
100
AcDbCircle
 10
10.6393342483
 20
10.0292124178
 30
0.0
 40
2.999999999999999
100
AcDbArc
 50
180.0
 51
270.0
  0
ARC
  5
597
330
525
100
AcDbEntity
  8
LAYOUT_
  6
Continuous
 62
     5
370
    30
100
AcDbCircle
 10
176.9378270463
 20
20.0075385479
 30
0.0
 40
1.459794905866598
100
AcDbArc
 50
345.961061111
 51
90.0
  0
ARC
  5
598
330
525
100
AcDbEntity
  8
LAYOUT_
370
    30
100
AcDbCircle
 10
10.6393342483
 20
287.0554081804
 30
0.0
 40
3.000000000000057
100
AcDbArc
 50
90.0
 51
180.0
  0
ARC
  5
599
330
525
100
AcDbEntity
  8
LAYOUT_
  6
Continuous
 62
     5
370
    30
100
AcDbCircle
 10
175.184735437
 20
22.1355876722
 30
0.0
 40
0.1114168809365383
100
AcDbArc
 50
89.9999999999
 51
165.967730555
  0
ARC
  5
59A
330
525
100
AcDbEntity
  8
LAYOUT_
  6
Continuous
 62
     1
370
    30
100
AcDbCircle
 10
180.1829862628
 20
21.0547421387
 30
0.0
 40
1.266760894066332
100
AcDbArc
 50
12.9142283995
 51
70.2523349868
  0
ARC
  5
59B
330
525
100
AcDbEntity
  8
LAYOUT_
  6
Continuous
 62
     5
370
    30
100
AcDbCircle
 10
183.1889346436
 20
21.5785032675
 30
0.0
 40
0.668501285618757
100
AcDbArc
 50
27.1838388889
 51
90.0
  0
ARC
  5
59C
330
525
100
AcDbEntity
  8
LAYOUT_
  6
Continuous
 62
     5
370
    30
100
AcDbCircle
 10
185.1670614236
 20
18.4586063645
 30
0.0
 40
0.6685012856186513
100
AcDbArc
 50
207.1838119432
 51
269.9475909936
  0
ARC
  5
59D
330
525
100
AcDbEntity
  8
LAYOUT_
  6
Continuous
 62
     5
370
    30
100
AcDbCircle
 10
188.1390493302
 20
21.5785032675
 30
0.0
 40
0.6685012856187369
100
AcDbArc
 50
90.0
 51
165.9637555556
  0
ARC
  5
59E
330
525
100
AcDbEntity
  8
LAYOUT_
  6
Continuous
 62
     5
370
    30
100
AcDbCircle
 10
188.7171158283
 20
21.1328575774
 30
0.0
 40
0.3342506428094048
100
AcDbArc
 50
90.0
 51
165.9637555553
  0
ARC
  5
59F
330
525
100
AcDbEntity
  8
LAYOUT_
  6
Continuous
 62
     5
370
    30
100
AcDbCircle
 10
188.1600028249
 20
18.9044929029
 30
0.0
 40
0.334250642809277
100
AcDbArc
 50
165.958975
 51
270.0
  0
ARC
  5
5A0
330
525
100
AcDbEntity
  8
LAYOUT_
  6
Continuous
 62
     5
370
    30
100
AcDbCircle
 10
187.358523918
 20
18.4587596643
 30
0.0
 40
0.6685012856186544
100
AcDbArc
 50
165.9574885007
 51
270.0458519451
  0
ARC
  5
5A1
330
525
100
AcDbEntity
  8
LAYOUT_
  6
Continuous
 62
     5
370
    30
100
AcDbCircle
 10
192.7177321051
 20
21.4261029653
 30
0.0
 40
0.8209588092300357
100
AcDbArc
 50
89.3235138889
 51
228.0392277776
  0
ARC
  5
5A2
330
525
100
AcDbEntity
  8
LAYOUT_
  6
Continuous
 62
     5
370
    30
100
AcDbCircle
 10
194.3809850767
 20
18.6765537067
 30
0.0
 40
0.1114168809364326
100
AcDbArc
 50
278.9124394813
 51
51.3264264757
  0
ARC
  5
5A3
330
525
100
AcDbEntity
  8
LAYOUT_
  6
Continuous
 62
     5
370
    30
100
AcDbCircle
 10
194.456760382
 20
18.7833344688
 30
0.0
 40
0.9968360911629807
100
AcDbArc
 50
270.0
 51
48.0392277778
  0
ARC
  5
5A4
330
525
100
AcDbEntity
  8
LAYOUT_
  6
Continuous
 62
     5
370
    30
100
AcDbCircle
 10
193.2539640594
 20
21.3556913392
 30
0.0
 40
0.1114168809364989
100
AcDbArc
 50
90.0
 51
228.036575
  0
ARC
  5
5A5
330
525
100
AcDbEntity
  8
LAYOUT_
  6
Continuous
 62
     5
370
    30
100
AcDbCircle
 10
198.1356235631
 20
21.1329167414
 30
0.0
 40
0.3342506428093059
100
AcDbArc
 50
90.0
 51
165.9637555556
  0
ARC
  5
5A6
330
525
100
AcDbEntity
  8
LAYOUT_
  6
Continuous
 62
     5
370
    30
100
AcDbCircle
 10
196.7770316528
 20
18.4588188284
 30
0.0
 40
0.6685012856186068
100
AcDbArc
 50
165.9574885004
 51
270.0458519451
  0
ARC
  5
5A7
330
525
100
AcDbEntity
  8
LAYOUT_
  6
Continuous
 62
     5
370
    30
100
AcDbCircle
 10
197.5575570651
 20
21.5785624316
 30
0.0
 40
0.6685012856185826
100
AcDbArc
 50
90.0
 51
165.9637555556
  0
ARC
  5
5A8
330
525
100
AcDbEntity
  8
LAYOUT_
  6
Continuous
 62
     5
370
    30
100
AcDbCircle
 10
197.5785105597
 20
18.904552067
 30
0.0
 40
0.3342506428094048
100
AcDbArc
 50
165.958975
 51
270.0
  0
MTEXT
  5
5A9
330
525
100
AcDbEntity
  8
TEXTOS_PORTUGUES
 62
     7
100
AcDbMText
 10
-31.3785705823
 20
227.0201084644
 30
0.0
 40
2.6458333333
 41
0.0
 71
     1
 72
     1
  1
SUBTÍTULO 1
  7
SLDTEXTSTYLE0
 73
     1
 44
1.0
  0
INSERT
  5
5AF
330
525
100
AcDbEntity
  8
TEXTOS_PORTUGUES
 62
     7
100
AcDbBlockReference
  2
SW_NOTE_6
 10
-33.8872127342
 20
230.3579695403
 30
0.0
  0
MTEXT
  5
5B0
330
525
100
AcDbEntity
  8
TEXTOS_PORTUGUES
 62
     7
100
AcDbMText
 10
-29.3598981681
 20
240.9087183263
 30
0.0
 40
2.38125
 41
0.0
 71
     1
 72
     1
  1
Textos/Notas
  7
SLDTEXTSTYLE0
 73
     1
 44
1.0
  0
MTEXT
  5
5B1
330
525
100
AcDbEntity
  8
TEXTOS_PORTUGUES
 62
     7
100
AcDbMText
 10
21.3752015824
 20
282.9678300134
 30
0.0
 40
3.175
 41
0.0
 71
     1
 72
     1
  1
\LINSTRUÇÃO DE MONTAGEM
  7
SLDTEXTSTYLE0
 73
     1
 44
1.0
  0
MTEXT
  5
5B2
330
525
100
AcDbEntity
  8
LAYOUT_
 62
     7
100
AcDbMText
 10
5.6133829609
 20
55.758651613
 30
0.0
 40
1.8520833333
 41
0.0
 71
     2
 72
     1
  1
Reservamos o direito de alteração sem aviso prévio
  7
SLDTEXTSTYLE0
 11
-3.269436733918102E-15
 21
1.0
 31
0.0
 73
     1
 44
1.0
  0
MTEXT
  5
5B3
330
525
100
AcDbEntity
  8
TEXTOS_PORTUGUES
 62
     7
100
AcDbMText
 10
165.3141722366
 20
28.8434067723
 30
0.0
 40
2.1166666667
 41
0.0
 71
     1
 72
     1
  1
*Todas as medidas em mm.
  7
SLDTEXTSTYLE0
 73
     1
 44
1.0
  0
MTEXT
  5
5B4
330
525
100
AcDbEntity
  8
LAYOUT_
 62
     7
100
AcDbMText
 10
189.7438185528
 20
11.5572210479
 30
0.0
 40
2.5
 41
0.0
 71
     1
 72
     1
  1
4/4
  7
SLDTEXTSTYLE0
 73
     1
 44
1.0
  0
MTEXT
  5
5B5
330
525
100
AcDbEntity
  8
TEXTOS_PORTUGUES
 62
     7
100
AcDbMText
 10
174.5856658711
 20
11.5572210479
 30
0.0
 40
2.5
 41
0.0
 71
     1
 72
     1
  1
FOLHA:
  7
SLDTEXTSTYLE0
 73
     1
 44
1.0
  0
INSERT
  5
5CD
330
525
100
AcDbEntity
  8
LAYOUT_
 62
     7
100
AcDbBlockReference
  2
SW_NOTE_7
 10
222.9302142857
 20
283.8511825994
 30
0.0
  0
MTEXT
  5
5CE
330
525
100
AcDbEntity
  8
TEXTOS_PORTUGUES
100
AcDbMText
 10
147.1791831691
 20
287.9178607695
 30
0.0
 40
5.2916666667
 41
0.0
 71
     2
 72
     1
  1
PIVO BASCULANTE MASTER
  7
SLDTEXTSTYLE0
 73
     1
 44
1.0
  0
MTEXT
  5
5CF
330
525
100
AcDbEntity
  8
TEXTOS_PORTUGUES
100
AcDbMText
 10
146.6769525348
 20
281.3632687115
 30
0.0
 40
5.2916666667
 41
0.0
 71
     2
 72
     1
  1
PIV-7580
  7
SLDTEXTSTYLE0
 73
     1
 44
1.0
  0
ENDBLK
  5
528
330
525
100
AcDbEntity
  8
0
100
AcDbBlockEnd
  0
BLOCK
  5
5AB
330
5AA
100
AcDbEntity
  8
0
100
AcDbBlockBegin
  2
SW_NOTE_6
 70
     0
 10
0.0
 20
0.0
 30
0.0
  3
SW_NOTE_6
  1

  0
MTEXT
  5
5AD
330
5AA
100
AcDbEntity
  8
TEXTOS_PORTUGUES
 62
     0
100
AcDbMText
 10
0.0
 20
4.0927900738
 30
0.0
 40
3.175
 41
0.0
 71
     1
 72
     1
  1
\LSUBTÍTULO
  7
SLDTEXTSTYLE0
 73
     1
 44
1.0
  0
MTEXT
  5
5AE
330
5AA
100
AcDbEntity
  8
TEXTOS_PORTUGUES
 62
     0
100
AcDbMText
 10
25.399999693
 20
4.0927900738
 30
0.0
 40
3.175
 41
0.0
 71
     1
 72
     1
  1
3
  7
SLDTEXTSTYLE0
 73
     1
 44
1.0
  0
ENDBLK
  5
5AC
330
5AA
100
AcDbEntity
  8
0
100
AcDbBlockEnd
  0
BLOCK
  5
5B7
330
5B6
100
AcDbEntity
  8
0
100
AcDbBlockBegin
  2
SW_NOTE_7
 70
     0
 10
0.0
 20
0.0
 30
0.0
  3
SW_NOTE_7
  1

  0
MTEXT
  5
5B9
330
5B6
100
AcDbEntity
  8
LAYOUT_
 62
     0
100
AcDbMText
 10
0.0
 20
4.7749217527
 30
0.0
 40
3.7041666667
 41
0.0
 71
     1
 72
     1
  1
LAYERS RELACIONADOS AS TIPOLOGIAS:
  7
SLDTEXTSTYLE0
 73
     1
 44
1.0
  0
MTEXT
  5
5BA
330
5B6
100
AcDbEntity
  8
LAYOUT_
 62
     0
100
AcDbMText
 10
9.9999997765
 20
-5.1028559057
 30
0.0
 40
3.7041666667
 41
0.0
 71
     1
 72
     1
  1
JANELA E PORTA DE CORRER
  7
SLDTEXTSTYLE0
 73
     1
 44
1.0
  0
MTEXT
  5
5BB
330
5B6
100
AcDbEntity
  8
LAYOUT_
 62
     0
100
AcDbMText
 10
0.0
 20
-5.1028559057
 30
0.0
 40
3.7041666667
 41
0.0
 71
     1
 72
     1
  1
1.
  7
SLDTEXTSTYLE0
 73
     1
 44
1.0
  0
MTEXT
  5
5BC
330
5B6
100
AcDbEntity
  8
LAYOUT_
 62
     0
100
AcDbMText
 10
9.9999997765
 20
-10.0417447349
 30
0.0
 40
3.7041666667
 41
0.0
 71
     1
 72
     1
  1
JANELA DE CORRER
  7
SLDTEXTSTYLE0
 73
     1
 44
1.0
  0
MTEXT
  5
5BD
330
5B6
100
AcDbEntity
  8
LAYOUT_
 62
     0
100
AcDbMText
 10
0.0
 20
-10.0417447349
 30
0.0
 40
3.7041666667
 41
0.0
 71
     1
 72
     1
  1
2.
  7
SLDTEXTSTYLE0
 73
     1
 44
1.0
  0
MTEXT
  5
5BE
330
5B6
100
AcDbEntity
  8
LAYOUT_
 62
     0
100
AcDbMText
 10
9.9999997765
 20
-14.9806335641
 30
0.0
 40
3.7041666667
 41
0.0
 71
     1
 72
     1
  1
PORTA DE CORRER
  7
SLDTEXTSTYLE0
 73
     1
 44
1.0
  0
MTEXT
  5
5BF
330
5B6
100
AcDbEntity
  8
LAYOUT_
 62
     0
100
AcDbMText
 10
0.0
 20
-14.9806335641
 30
0.0
 40
3.7041666667
 41
0.0
 71
     1
 72
     1
  1
3.
  7
SLDTEXTSTYLE0
 73
     1
 44
1.0
  0
MTEXT
  5
5C0
330
5B6
100
AcDbEntity
  8
LAYOUT_
 62
     0
100
AcDbMText
 10
9.9999997765
 20
-19.9195223933
 30
0.0
 40
3.7041666667
 41
0.0
 71
     1
 72
     1
  1
MAXIM-AR
  7
SLDTEXTSTYLE0
 73
     1
 44
1.0
  0
MTEXT
  5
5C1
330
5B6
100
AcDbEntity
  8
LAYOUT_
 62
     0
100
AcDbMText
 10
0.0
 20
-19.9195223933
 30
0.0
 40
3.7041666667
 41
0.0
 71
     1
 72
     1
  1
4.
  7
SLDTEXTSTYLE0
 73
     1
 44
1.0
  0
MTEXT
  5
5C2
330
5B6
100
AcDbEntity
  8
LAYOUT_
 62
     0
100
AcDbMText
 10
9.9999997765
 20
-24.8584112225
 30
0.0
 40
3.7041666667
 41
0.0
 71
     1
 72
     1
  1
PERSIANAS
  7
SLDTEXTSTYLE0
 73
     1
 44
1.0
  0
MTEXT
  5
5C3
330
5B6
100
AcDbEntity
  8
LAYOUT_
 62
     0
100
AcDbMText
 10
0.0
 20
-24.8584112225
 30
0.0
 40
3.7041666667
 41
0.0
 71
     1
 72
     1
  1
5.
  7
SLDTEXTSTYLE0
 73
     1
 44
1.0
  0
MTEXT
  5
5C4
330
5B6
100
AcDbEntity
  8
LAYOUT_
 62
     0
100
AcDbMText
 10
9.9999997765
 20
-29.7973000517
 30
0.0
 40
3.7041666667
 41
0.0
 71
     1
 72
     1
  1
PORTA DE GIRO
  7
SLDTEXTSTYLE0
 73
     1
 44
1.0
  0
MTEXT
  5
5C5
330
5B6
100
AcDbEntity
  8
LAYOUT_
 62
     0
100
AcDbMText
 10
0.0
 20
-29.7973000517
 30
0.0
 40
3.7041666667
 41
0.0
 71
     1
 72
     1
  1
6.
  7
SLDTEXTSTYLE0
 73
     1
 44
1.0
  0
MTEXT
  5
5C6
330
5B6
100
AcDbEntity
  8
LAYOUT_
 62
     0
100
AcDbMText
 10
0.0
 20
-39.6750777101
 30
0.0
 40
3.7041666667
 41
0.0
 71
     1
 72
     1
  1
**OBS:
  7
SLDTEXTSTYLE0
 73
     1
 44
1.0
  0
MTEXT
  5
5C7
330
5B6
100
AcDbEntity
  8
LAYOUT_
 62
     0
100
AcDbMText
 10
0.0
 20
-44.6139665393
 30
0.0
 40
3.7041666667
 41
0.0
 71
     1
 72
     1
  1
- PARA CATÁLOGOS EM PORTUGUES
  7
SLDTEXTSTYLE0
 73
     1
 44
1.0
  0
MTEXT
  5
5C8
330
5B6
100
AcDbEntity
  8
LAYOUT_
 62
     0
100
AcDbMText
 10
19.999999553
 20
-49.5528553685
 30
0.0
 40
3.7041666667
 41
0.0
 71
     1
 72
     1
  1
LAYER: TEXTOS EM PORTUGUES
  7
SLDTEXTSTYLE0
 73
     1
 44
1.0
  0
MTEXT
  5
5C9
330
5B6
100
AcDbEntity
  8
LAYOUT_
 62
     0
100
AcDbMText
 10
10.0
 20
-49.5528553685
 30
0.0
 40
3.7041666667
 41
0.0
 71
     1
 72
     1
  1
%%d
  7
SLDTEXTSTYLE0
 73
     1
 44
1.0
  0
MTEXT
  5
5CA
330
5B6
100
AcDbEntity
  8
LAYOUT_
 62
     0
100
AcDbMText
 10
0.0
 20
-59.4306330269
 30
0.0
 40
3.7041666667
 41
0.0
 71
     1
 72
     1
  1
- PARA CATÁLOGOS EM ESPANHOL
  7
SLDTEXTSTYLE0
 73
     1
 44
1.0
  0
MTEXT
  5
5CB
330
5B6
100
AcDbEntity
  8
LAYOUT_
 62
     0
100
AcDbMText
 10
19.999999553
 20
-64.3695218561
 30
0.0
 40
3.7041666667
 41
0.0
 71
     1
 72
     1
  1
LAYER: TEXTOS EM ESPANHOL
  7
SLDTEXTSTYLE0
 73
     1
 44
1.0
  0
MTEXT
  5
5CC
330
5B6
100
AcDbEntity
  8
LAYOUT_
 62
     0
100
AcDbMText
 10
10.0
 20
-64.3695218561
 30
0.0
 40
3.7041666667
 41
0.0
 71
     1
 72
     1
  1
%%d
  7
SLDTEXTSTYLE0
 73
     1
 44
1.0
  0
ENDBLK
  5
5B8
330
5B6
100
AcDbEntity
  8
0
100
AcDbBlockEnd
  0
ENDSEC
  0
SECTION
  2
ENTITIES
  0
HATCH
  5
99
330
1F
100
AcDbEntity
  8
LAYOUT_
100
AcDbHatch
 10
0.0
 20
0.0
 30
0.0
210
0.0
220
0.0
230
1.0
  2
SOLID
 70
     1
 71
     0
 91
        1
 92
        0
 93
       12
 72
     2
 10
170.3373746936321
 20
19.10824233573566
 40
0.4456675237456963
 50
89.99999999974423
 51
179.5957936170852
 73
     0
 72
     1
 10
169.891718260109
 20
19.10509829676738
 11
170.6723132683864
 21
22.22791500195585
 72
     1
 10
170.6723132683864
 20
22.22791500195585
 11
169.6382737855038
 21
22.22791500195581
 72
     1
 10
169.6382737855038
 20
22.22791500195581
 11
168.7469387380123
 21
18.66257481198982
 72
     2
 10
169.6382737855038
 20
18.66257481198984
 40
0.8913350474914795
 50
180.000000000002
 51
270.0000000000008
 73
     1
 72
     1
 10
169.6382737855038
 20
17.77123976449833
 11
172.4224949606978
 21
17.77123976449835
 72
     2
 10
172.4223423577718
 20
18.66257481199024
 40
0.891335060554661
 50
270.0098094465608
 51
346.0052277612433
 73
     1
 72
     1
 10
173.2872206288599
 20
18.44702025654639
 11
174.2326156797199
 21
22.22825112232146
 72
     1
 10
174.2326156797199
 20
22.22825112232146
 11
173.1993622065781
 21
22.22825112232198
 72
     1
 10
173.1993622065781
 20
22.22825112232198
 11
172.3647071949305
 21
18.88893240040495
 72
     2
 10
171.9761455691994
 20
19.10719692965946
 40
0.445667523745801
 50
29.32398295252847
 51
93.92517999700813
 73
     0
 72
     1
 10
171.9456379602966
 20
18.66257481198992
 11
170.3373746936341
 21
18.66257481198992
 97
        0
 75
     0
 76
     1
 98
        1
 10
0.0
 20
0.0
  0
HATCH
  5
9A
330
1F
100
AcDbEntity
  8
LAYOUT_
100
AcDbHatch
 10
0.0
 20
0.0
 30
0.0
210
0.0
220
0.0
230
1.0
  2
SOLID
 70
     1
 71
     0
 91
        1
 92
        0
 93
        4
 72
     1
 10
179.3212066791816
 20
17.77117535536267
 11
180.3551588276485
 21
17.77117535536267
 72
     1
 10
180.3551588276485
 20
17.77117535536267
 11
181.1623908327398
 21
21.00228673612336
 72
     1
 10
181.1623908327398
 20
21.00228673612336
 11
180.1291373595994
 21
21.00228673612337
 72
     1
 10
180.1291373595994
 20
21.00228673612337
 11
179.3212066791816
 21
17.77117535536267
 97
        0
 75
     0
 76
     1
 98
        1
 10
0.0
 20
0.0
  0
HATCH
  5
9B
330
1F
100
AcDbEntity
  8
LAYOUT_
100
AcDbHatch
 10
0.0
 20
0.0
 30
0.0
210
0.0
220
0.0
230
1.0
  2
SOLID
 70
     1
 71
     0
 91
        1
 92
        0
 93
        3
 72
     2
 10
180.007320725683
 20
21.03558817844487
 40
1.266760894066317
 50
289.7476650131743
 51
347.0857716004964
 73
     0
 72
     1
 10
181.2420398199348
 20
21.31869932450877
 11
181.4693713042206
 21
22.22785059282014
 72
     1
 10
181.4693713042206
 20
22.22785059282014
 11
180.435331821338
 21
22.22785059282014
 97
        0
 75
     0
 76
     1
 98
        1
 10
0.0
 20
0.0
  0
HATCH
  5
9C
330
1F
100
AcDbEntity
  8
LAYOUT_
100
AcDbHatch
 10
0.0
 20
0.0
 30
0.0
210
0.0
220
0.0
230
1.0
  2
SOLID
 70
     1
 71
     0
 91
        1
 92
        0
 93
       16
 72
     1
 10
187.3148422872701
 20
21.72148469540015
 11
186.5343346134087
 21
18.60181202917985
 72
     2
 10
187.1828583808573
 20
18.43960570400069
 40
0.668501285618632
 50
165.9574885007148
 51
270.0458519450622
 73
     1
 72
     1
 10
187.1833933605924
 20
17.77110463244547
 11
190.1172183900245
 21
17.77110463244547
 72
     1
 10
190.1172183900245
 20
17.77110463244547
 11
190.312672812549
 21
18.55108829981211
 72
     1
 10
190.312672812549
 20
18.55108829981211
 11
187.9843372877475
 21
18.55108829981211
 72
     2
 10
187.9843372877476
 20
18.88533894262138
 40
0.3342506428092735
 50
90.00000000002436
 51
194.0410249999856
 73
     0
 72
     1
 10
187.6600732999672
 20
18.96643369243375
 11
187.8344801282877
 21
19.66484701545846
 72
     1
 10
187.8344801282877
 20
19.66484701545846
 11
190.5905796215992
 21
19.66484701545845
 72
     1
 10
190.5905796215992
 20
19.66484701545845
 11
190.7580870310728
 21
20.33339196828459
 72
     1
 10
190.7580870310728
 20
20.33339196828459
 11
188.0012888624356
 21
20.33339196828459
 72
     1
 10
188.0012888624356
 20
20.33339196828459
 11
188.2171795382532
 21
21.19477131116041
 72
     2
 10
188.5414502911615
 20
21.11370361705998
 40
0.3342506428093905
 50
194.0362444446517
 51
269.999999999991
 73
     0
 72
     1
 10
188.5414502911615
 20
21.44795425986938
 11
191.0365072156947
 21
21.44795425986938
 72
     1
 10
191.0365072156947
 20
21.44795425986938
 11
191.2313502973086
 21
22.2278505928203
 72
     1
 10
191.2313502973086
 20
22.2278505928203
 11
187.9633837930872
 21
22.2278505928203
 72
     2
 10
187.9633837930873
 20
21.55934930720161
 40
0.6685012856187086
 50
90.00000000000487
 51
165.9637555555544
 73
     1
 97
        0
 75
     0
 76
     1
 98
        1
 10
0.0
 20
0.0
  0
HATCH
  5
9D
330
1F
100
AcDbEntity
  8
LAYOUT_
100
AcDbHatch
 10
0.0
 20
0.0
 30
0.0
210
0.0
220
0.0
230
1.0
  2
SOLID
 70
     1
 71
     0
 91
        1
 92
        0
 93
       16
 72
     2
 10
197.4028450226033
 20
18.88539810669758
 40
0.3342506428093934
 50
90.0
 51
194.0410249999737
 73
     0
 72
     1
 10
197.0785810348227
 20
18.96649285650992
 11
197.2529878631434
 21
19.6649061795346
 72
     1
 10
197.2529878631434
 20
19.6649061795346
 11
200.0090873564548
 21
19.66490617953462
 72
     1
 10
200.0090873564548
 20
19.66490617953462
 11
200.1765947659286
 21
20.33345113236118
 72
     1
 10
200.1765947659286
 20
20.33345113236118
 11
197.4197965972907
 21
20.33345113236116
 72
     1
 10
197.4197965972907
 20
20.33345113236116
 11
197.6356872731088
 21
21.19483047523866
 72
     2
 10
197.9599580260173
 20
21.11376278113948
 40
0.3342506428092739
 50
194.0362444444355
 51
270.0000000000008
 73
     0
 72
     1
 10
197.9599580260173
 20
21.44801342394874
 11
200.4550149505506
 21
21.44801342394875
 72
     1
 10
200.4550149505506
 20
21.44801342394875
 11
200.6498580321646
 21
22.2279097568997
 72
     1
 10
200.6498580321646
 20
22.2279097568997
 11
197.3818915279429
 21
22.22790975689967
 72
     2
 10
197.3818915279429
 20
21.5594084712812
 40
0.6685012856185218
 50
90.0
 51
165.963755555566
 73
     1
 72
     1
 10
196.7333500221259
 20
21.72154385947956
 11
195.9528423482643
 21
18.60187119325934
 72
     2
 10
196.6013661157119
 20
18.43966486807639
 40
0.668501285618565
 50
165.9574885003799
 51
270.0458519451475
 73
     1
 72
     1
 10
196.6019010954481
 20
17.7711637965213
 11
199.5357261248801
 21
17.77116379652132
 72
     1
 10
199.5357261248801
 20
17.77116379652132
 11
199.7311805474046
 21
18.55114746388818
 72
     1
 10
199.7311805474046
 20
18.55114746388818
 11
197.4028450226033
 21
18.55114746388817
 97
        0
 75
     0
 76
     1
 98
        1
 10
0.0
 20
0.0
  0
HATCH
  5
9E
330
1F
100
AcDbEntity
  8
LAYOUT_
100
AcDbHatch
 10
0.0
 20
0.0
 30
0.0
210
0.0
220
0.0
230
1.0
  2
SOLID
 70
     1
 71
     0
 91
        1
 92
        0
 93
       14
 72
     1
 10
174.8411536995854
 20
17.77140058899683
 11
173.8072015511183
 21
17.77140058899683
 72
     1
 10
173.8072015511183
 20
17.77140058899683
 11
174.9009777743971
 21
22.14344877755962
 72
     2
 10
175.0090698998464
 20
22.11643371188363
 40
0.1114168809365144
 50
194.0322694450011
 51
270.0000000000885
 73
     0
 72
     1
 10
175.0090698998466
 20
22.2278505928201
 11
177.176884768437
 21
22.22785059282013
 72
     2
 10
176.9970448124139
 20
20.00155828640922
 40
2.233544233581865
 50
274.6183266281441
 51
373.308539994884
 73
     0
 72
     2
 10
176.9970448124139
 20
20.00155828640922
 40
2.233544233581892
 50
13.3085399948832
 51
86.95123031138024
 73
     0
 72
     1
 10
177.1158380118029
 20
17.77117535535325
 11
175.7609318853289
 21
17.77117535535325
 72
     1
 10
175.7609318853289
 20
17.77117535535325
 11
175.9557749669441
 21
18.55115902272382
 72
     1
 10
175.9557749669441
 20
18.55115902272382
 11
176.837677897531
 21
18.55115902272392
 72
     2
 10
176.837111903981
 20
19.92206764815846
 40
1.370908742272628
 50
270.0236551431669
 51
345.8635575517512
 73
     1
 72
     1
 10
178.1665052386625
 20
19.58724808280419
 11
178.1783539312542
 21
19.63426569400704
 72
     2
 10
176.7621615091699
 20
19.98838458763567
 40
1.459794905866569
 50
345.961061110989
 51
450.0000000000008
 73
     1
 72
     1
 10
176.7621615091699
 20
21.44817949350221
 11
175.7604357601275
 21
21.44817949350213
 72
     1
 10
175.7604357601275
 20
21.44817949350213
 11
174.8411536995854
 21
17.77140058899683
 97
        0
 75
     0
 76
     1
 98
        1
 10
0.0
 20
0.0
  0
HATCH
  5
9F
330
1F
100
AcDbEntity
  8
LAYOUT_
100
AcDbHatch
 10
0.0
 20
0.0
 30
0.0
210
0.0
220
0.0
230
1.0
  2
SOLID
 70
     1
 71
     0
 91
        1
 92
        0
 93
       12
 72
     2
 10
184.9913958864901
 20
18.43945240418158
 40
0.6685012856186326
 50
207.1838119432031
 51
269.9475909935572
 73
     1
 72
     1
 10
184.9907844019515
 20
17.77095139822842
 11
185.6376704196637
 21
17.77095139822842
 72
     1
 10
185.6376704196637
 20
17.77095139822842
 11
186.7517955618199
 21
22.22762663568506
 72
     1
 10
186.7517955618199
 20
22.22762663568506
 11
185.7178434133531
 21
22.22762663568506
 72
     1
 10
185.7178434133531
 20
22.22762663568506
 11
184.9659814278689
 21
19.21939268400517
 72
     1
 10
184.9659814278689
 20
19.21939268400517
 11
183.6079312624275
 21
21.86475213810233
 72
     2
 10
183.0132691064501
 20
21.55934930720151
 40
0.6685012856187489
 50
27.18383888890449
 51
90.0
 73
     1
 72
     1
 10
183.0132691064501
 20
22.22785059282024
 11
182.1582651759249
 21
22.22785059282024
 72
     1
 10
182.1582651759249
 20
22.22785059282024
 11
181.0440526993526
 21
17.77117535536269
 72
     1
 10
181.0440526993526
 20
17.77117535536269
 11
182.0780048478195
 21
17.7711753553627
 72
     1
 10
182.0780048478195
 20
17.7711753553627
 11
182.8979876776154
 21
21.05259135961491
 72
     1
 10
182.8979876776154
 20
21.05259135961491
 11
184.3967335868846
 21
18.13404985294523
 97
        0
 75
     0
 76
     1
 98
        1
 10
0.0
 20
0.0
  0
HATCH
  5
A0
330
1F
100
AcDbEntity
  8
LAYOUT_
100
AcDbHatch
 10
0.0
 20
0.0
 30
0.0
210
0.0
220
0.0
230
1.0
  2
SOLID
 70
     1
 71
     0
 91
        1
 92
        0
 93
       12
 72
     2
 10
193.0782985223088
 20
21.33653737893288
 40
0.1114168809364868
 50
90.0
 51
228.0365750000344
 73
     1
 72
     1
 10
193.0037989474053
 20
21.25369092640288
 11
194.9476010395082
 21
19.50543059124008
 72
     2
 10
194.2810948448812
 20
18.76418050849539
 40
0.9968360911629796
 50
311.9607722222125
 51
450.0000000000269
 73
     0
 72
     1
 10
194.2810948448808
 20
17.76734441733242
 11
190.8099884895458
 21
17.7673444173324
 72
     1
 10
190.8099884895458
 20
17.7673444173324
 11
191.0049189055755
 21
18.54732808469901
 72
     1
 10
191.0049189055755
 20
18.54732808469901
 11
194.2225807863056
 21
18.54732808469904
 72
     2
 10
194.2053195395609
 20
18.65739974644002
 40
0.1114168809364247
 50
278.9124394812699
 51
411.3264264756569
 73
     1
 72
     1
 10
194.2749420134477
 20
18.74438498936943
 11
191.9931557322591
 21
20.79648175704602
 72
     2
 10
192.5420665679903
 20
21.4069490050366
 40
0.8209588092300139
 50
131.9607722223978
 51
270.6764861111357
 73
     0
 72
     1
 10
192.5517593295471
 20
22.2278505928203
 11
196.1700241754781
 21
22.22785059282032
 72
     1
 10
196.1700241754781
 20
22.22785059282032
 11
195.9751810938641
 21
21.44795425986938
 72
     1
 10
195.9751810938641
 20
21.44795425986938
 11
193.0782985223088
 21
21.44795425986935
 97
        0
 75
     0
 76
     1
 98
        1
 10
0.0
 20
0.0
  0
LINE
  5
A1
330
1F
100
AcDbEntity
  8
LAYOUT_
 62
     5
370
    30
100
AcDbLine
 10
179.3212066792
 20
17.7711753554
 30
0.0
 11
180.1291373596
 21
21.0022867361
 31
0.0
  0
LINE
  5
A2
330
1F
100
AcDbEntity
  8
LAYOUT_
 62
     5
370
    30
100
AcDbLine
 10
180.1291373596
 20
21.0022867361
 30
0.0
 11
181.1623908327
 21
21.0022867361
 31
0.0
  0
LINE
  5
A3
330
1F
100
AcDbEntity
  8
LAYOUT_
 62
     5
370
    30
100
AcDbLine
 10
181.1623908327
 20
21.0022867361
 30
0.0
 11
180.3551588276
 21
17.7711753554
 31
0.0
  0
LINE
  5
A4
330
1F
100
AcDbEntity
  8
LAYOUT_
 62
     5
370
    30
100
AcDbLine
 10
180.3551588276
 20
17.7711753554
 30
0.0
 11
179.3212066792
 21
17.7711753554
 31
0.0
  0
LINE
  5
A5
330
1F
100
AcDbEntity
  8
LAYOUT_
  6
Continuous
 62
     5
370
    30
100
AcDbLine
 10
169.8917182601
 20
19.1050982968
 30
0.0
 11
170.6723132684
 21
22.227915002
 31
0.0
  0
LINE
  5
A6
330
1F
100
AcDbEntity
  8
LAYOUT_
  6
Continuous
 62
     5
370
    30
100
AcDbLine
 10
170.6723132684
 20
22.227915002
 30
0.0
 11
169.6382737855
 21
22.227915002
 31
0.0
  0
LINE
  5
A7
330
1F
100
AcDbEntity
  8
LAYOUT_
  6
Continuous
 62
     5
370
    30
100
AcDbLine
 10
169.6382737855
 20
22.227915002
 30
0.0
 11
168.746938738
 21
18.662574812
 31
0.0
  0
LINE
  5
A8
330
1F
100
AcDbEntity
  8
LAYOUT_
  6
Continuous
 62
     5
370
    30
100
AcDbLine
 10
169.6382737855
 20
17.7712397645
 30
0.0
 11
172.4224949607
 21
17.7712397645
 31
0.0
  0
LINE
  5
A9
330
1F
100
AcDbEntity
  8
LAYOUT_
  6
Continuous
 62
     5
370
    30
100
AcDbLine
 10
173.2872206289
 20
18.4470202565
 30
0.0
 11
174.2326156797
 21
22.2282511223
 31
0.0
  0
LINE
  5
AA
330
1F
100
AcDbEntity
  8
LAYOUT_
  6
Continuous
 62
     5
370
    30
100
AcDbLine
 10
174.2326156797
 20
22.2282511223
 30
0.0
 11
173.1993622066
 21
22.2282511223
 31
0.0
  0
LINE
  5
AB
330
1F
100
AcDbEntity
  8
LAYOUT_
  6
Continuous
 62
     5
370
    30
100
AcDbLine
 10
173.1993622066
 20
22.2282511223
 30
0.0
 11
172.3647071949
 21
18.8889324004
 31
0.0
  0
LINE
  5
AC
330
1F
100
AcDbEntity
  8
LAYOUT_
370
    30
100
AcDbLine
 10
196.1700241755
 20
22.2278505928
 30
0.0
 11
195.9751810939
 21
21.4479542599
 31
0.0
  0
LINE
  5
AD
330
1F
100
AcDbEntity
  8
LAYOUT_
  6
Continuous
 62
     5
370
    30
100
AcDbLine
 10
197.4028450226
 20
18.5511474639
 30
0.0
 11
199.7311805474
 21
18.5511474639
 31
0.0
  0
LINE
  5
AE
330
1F
100
AcDbEntity
  8
LAYOUT_
  6
Continuous
 62
     5
370
    30
100
AcDbLine
 10
171.9456379603
 20
18.662574812
 30
0.0
 11
170.3373746936
 21
18.662574812
 31
0.0
  0
LINE
  5
AF
330
1F
100
AcDbEntity
  8
LAYOUT_
  6
Continuous
 62
     5
370
    30
100
AcDbLine
 10
175.0090698998
 20
22.2278505928
 30
0.0
 11
177.1768847684
 21
22.2278505928
 31
0.0
  0
LINE
  5
B0
330
1F
100
AcDbEntity
  8
LAYOUT_
  6
Continuous
 62
     5
370
    30
100
AcDbLine
 10
177.1158380118
 20
17.7711753554
 30
0.0
 11
175.7609318853
 21
17.7711753554
 31
0.0
  0
LINE
  5
B1
330
1F
100
AcDbEntity
  8
LAYOUT_
  6
Continuous
 62
     5
370
    30
100
AcDbLine
 10
175.7609318853
 20
17.7711753554
 30
0.0
 11
175.9557749669
 21
18.5511590227
 31
0.0
  0
LINE
  5
B2
330
1F
100
AcDbEntity
  8
LAYOUT_
  6
Continuous
 62
     5
370
    30
100
AcDbLine
 10
175.9557749669
 20
18.5511590227
 30
0.0
 11
176.8376778975
 21
18.5511590227
 31
0.0
  0
LINE
  5
B3
330
1F
100
AcDbEntity
  8
LAYOUT_
  6
Continuous
 62
     5
370
    30
100
AcDbLine
 10
178.1665052387
 20
19.5872480828
 30
0.0
 11
178.1783539313
 21
19.634265694
 31
0.0
  0
LINE
  5
B4
330
1F
100
AcDbEntity
  8
LAYOUT_
  6
Continuous
 62
     5
370
    30
100
AcDbLine
 10
176.7621615092
 20
21.4481794935
 30
0.0
 11
175.7604357601
 21
21.4481794935
 31
0.0
  0
LINE
  5
B5
330
1F
100
AcDbEntity
  8
LAYOUT_
  6
Continuous
 62
     5
370
    30
100
AcDbLine
 10
175.7604357601
 20
21.4481794935
 30
0.0
 11
174.8411536996
 21
17.771400589
 31
0.0
  0
LINE
  5
B6
330
1F
100
AcDbEntity
  8
LAYOUT_
  6
Continuous
 62
     5
370
    30
100
AcDbLine
 10
174.8411536996
 20
17.771400589
 30
0.0
 11
173.8072015511
 21
17.771400589
 31
0.0
  0
LINE
  5
B7
330
1F
100
AcDbEntity
  8
LAYOUT_
  6
Continuous
 62
     5
370
    30
100
AcDbLine
 10
173.8072015511
 20
17.771400589
 30
0.0
 11
174.9009777744
 21
22.1434487776
 31
0.0
  0
LINE
  5
B8
330
1F
100
AcDbEntity
  8
LAYOUT_
  6
Continuous
 62
     5
370
    30
100
AcDbLine
 10
200.6498580322
 20
22.2279097569
 30
0.0
 11
200.4550149506
 21
21.4480134239
 31
0.0
  0
LINE
  5
B9
330
1F
100
AcDbEntity
  8
LAYOUT_
  6
Continuous
 62
     5
370
    30
100
AcDbLine
 10
200.0090873565
 20
19.6649061795
 30
0.0
 11
197.2529878631
 21
19.6649061795
 31
0.0
  0
LINE
  5
BA
330
1F
100
AcDbEntity
  8
LAYOUT_
  6
Continuous
 62
     1
370
    30
100
AcDbLine
 10
180.4353318213
 20
22.2278505928
 30
0.0
 11
181.4693713042
 21
22.2278505928
 31
0.0
  0
LINE
  5
BB
330
1F
100
AcDbEntity
  8
LAYOUT_
  6
Continuous
 62
   179
370
    30
100
AcDbLine
 10
199.9839087496
 20
290.0434620836
 30
0.0
 11
10.6330084959
 21
290.0434620836
 31
0.0
  0
LINE
  5
BC
330
1F
100
AcDbEntity
  8
LAYOUT_
  6
Continuous
 62
   179
370
    30
100
AcDbLine
 10
7.6330084959
 20
287.0434620836
 30
0.0
 11
7.6330084959
 21
10.0576655272
 31
0.0
  0
LINE
  5
BD
330
1F
100
AcDbEntity
  8
LAYOUT_
  6
Continuous
 62
   179
370
    30
100
AcDbLine
 10
10.6330084959
 20
7.0576655272
 30
0.0
 11
165.000198038
 21
7.0576655272
 31
0.0
  0
LINE
  5
BE
330
1F
100
AcDbEntity
  8
LAYOUT_
  6
Continuous
 62
   179
370
    30
100
AcDbLine
 10
167.9839087496
 20
9.7454399905
 30
0.0
 11
167.9839087496
 21
11.9454240236
 31
0.0
  0
LINE
  5
BF
330
1F
100
AcDbEntity
  8
LAYOUT_
  6
Continuous
 62
   179
370
    30
100
AcDbLine
 10
170.9839087496
 20
14.9454240236
 30
0.0
 11
200.1988449311
 21
14.9454240236
 31
0.0
  0
LINE
  5
C0
330
1F
100
AcDbEntity
  8
LAYOUT_
  6
Continuous
 62
   179
370
    30
100
AcDbLine
 10
202.9839087496
 20
17.9377170165
 30
0.0
 11
202.9839087496
 21
287.0434620836
 31
0.0
  0
LINE
  5
C1
330
1F
100
AcDbEntity
  8
LAYOUT_
370
    30
100
AcDbLine
 10
12.6330084959
 20
193.0434620836
 30
0.0
 11
89.9839060715
 21
193.0434620836
 31
0.0
  0
LINE
  5
C2
330
1F
100
AcDbEntity
  8
LAYOUT_
370
    30
100
AcDbLine
 10
92.9839087496
 20
271.0434594055
 30
0.0
 11
92.9839087496
 21
196.0434647618
 31
0.0
  0
LINE
  5
C3
330
1F
100
AcDbEntity
  8
LAYOUT_
  6
Continuous
 62
   179
370
    30
100
AcDbLine
 10
95.9839114278
 20
274.0434620836
 30
0.0
 11
197.9839087496
 21
274.0434620836
 31
0.0
  0
LINE
  5
C4
330
1F
100
AcDbEntity
  8
LAYOUT_
  6
Continuous
 62
   179
370
    30
100
AcDbLine
 10
200.9839087496
 20
271.0434620836
 30
0.0
 11
200.9839087496
 21
28.3943322098
 31
0.0
  0
LINE
  5
C5
330
1F
100
AcDbEntity
  8
LAYOUT_
370
    30
100
AcDbLine
 10
12.6330084959
 20
25.3943322098
 30
0.0
 11
61.9839060715
 21
25.3943322098
 31
0.0
  0
LINE
  5
C6
330
1F
100
AcDbEntity
  8
LAYOUT_
  6
Continuous
 62
   179
370
    30
100
AcDbLine
 10
165.9839087496
 20
22.3943322098
 30
0.0
 11
165.9839087496
 21
12.0576682054
 31
0.0
  0
LINE
  5
C7
330
1F
100
AcDbEntity
  8
LAYOUT_
  6
Continuous
 62
   179
370
    30
100
AcDbLine
 10
162.9887208729
 20
8.8877665801
 30
0.0
 11
67.9839114278
 21
8.8877665801
 31
0.0
  0
LINE
  5
C8
330
1F
100
AcDbEntity
  8
LAYOUT_
  6
Continuous
 62
   179
370
    30
100
AcDbLine
 10
64.9839087496
 20
11.8877692583
 30
0.0
 11
64.9839087496
 21
22.3943295316
 31
0.0
  0
LINE
  5
C9
330
1F
100
AcDbEntity
  8
LAYOUT_
370
    30
100
AcDbLine
 10
168.9839087496
 20
25.3943322098
 30
0.0
 11
197.9839087496
 21
25.3943322098
 31
0.0
  0
LINE
  5
CA
330
1F
100
AcDbEntity
  8
LAYOUT_
  6
Continuous
 62
   179
370
    30
100
AcDbLine
 10
9.6330084959
 20
28.3943322098
 30
0.0
 11
9.6330084959
 21
190.0434620836
 31
0.0
  0
LINE
  5
CB
330
1F
100
AcDbEntity
  8
LAYOUT_
  6
Continuous
 62
     1
370
    30
100
AcDbLine
 10
181.4693713042
 20
22.2278505928
 30
0.0
 11
181.2420398199
 21
21.3186993245
 31
0.0
  0
LINE
  5
CC
330
1F
100
AcDbEntity
  8
LAYOUT_
  6
Continuous
 62
     5
370
    30
100
AcDbLine
 10
180.1291373596
 20
21.0022867361
 30
0.0
 11
181.1623908327
 21
21.0022867361
 31
0.0
  0
LINE
  5
CD
330
1F
100
AcDbEntity
  8
LAYOUT_
  6
Continuous
 62
     5
370
    30
100
AcDbLine
 10
181.1623908327
 20
21.0022867361
 30
0.0
 11
180.3551588276
 21
17.7711753554
 31
0.0
  0
LINE
  5
CE
330
1F
100
AcDbEntity
  8
LAYOUT_
  6
Continuous
 62
     5
370
    30
100
AcDbLine
 10
180.3551588276
 20
17.7711753554
 30
0.0
 11
179.3212066792
 21
17.7711753554
 31
0.0
  0
LINE
  5
CF
330
1F
100
AcDbEntity
  8
LAYOUT_
  6
Continuous
 62
     5
370
    30
100
AcDbLine
 10
179.3212066792
 20
17.7711753554
 30
0.0
 11
180.1291373596
 21
21.0022867361
 31
0.0
  0
LINE
  5
D0
330
1F
100
AcDbEntity
  8
LAYOUT_
  6
Continuous
 62
     5
370
    30
100
AcDbLine
 10
181.0440526994
 20
17.7711753554
 30
0.0
 11
182.1582651759
 21
22.2278505928
 31
0.0
  0
LINE
  5
D1
330
1F
100
AcDbEntity
  8
LAYOUT_
  6
Continuous
 62
     5
370
    30
100
AcDbLine
 10
182.1582651759
 20
22.2278505928
 30
0.0
 11
183.0132691065
 21
22.2278505928
 31
0.0
  0
LINE
  5
D2
330
1F
100
AcDbEntity
  8
LAYOUT_
  6
Continuous
 62
     5
370
    30
100
AcDbLine
 10
197.4197965973
 20
20.3334511324
 30
0.0
 11
200.1765947659
 21
20.3334511324
 31
0.0
  0
LINE
  5
D3
330
1F
100
AcDbEntity
  8
LAYOUT_
  6
Continuous
 62
     5
370
    30
100
AcDbLine
 10
183.6079312624
 20
21.8647521381
 30
0.0
 11
184.9659814279
 21
19.219392684
 31
0.0
  0
LINE
  5
D4
330
1F
100
AcDbEntity
  8
LAYOUT_
  6
Continuous
 62
     5
370
    30
100
AcDbLine
 10
184.9659814279
 20
19.219392684
 30
0.0
 11
185.7178434134
 21
22.2276266357
 31
0.0
  0
LINE
  5
D5
330
1F
100
AcDbEntity
  8
LAYOUT_
  6
Continuous
 62
     5
370
    30
100
AcDbLine
 10
185.7178434134
 20
22.2276266357
 30
0.0
 11
186.7517955618
 21
22.2276266357
 31
0.0
  0
LINE
  5
D6
330
1F
100
AcDbEntity
  8
LAYOUT_
  6
Continuous
 62
     5
370
    30
100
AcDbLine
 10
186.7517955618
 20
22.2276266357
 30
0.0
 11
185.6376704197
 21
17.7709513982
 31
0.0
  0
LINE
  5
D7
330
1F
100
AcDbEntity
  8
LAYOUT_
  6
Continuous
 62
     5
370
    30
100
AcDbLine
 10
185.6376704197
 20
17.7709513982
 30
0.0
 11
184.990784402
 21
17.7709513982
 31
0.0
  0
LINE
  5
D8
330
1F
100
AcDbEntity
  8
LAYOUT_
  6
Continuous
 62
     5
370
    30
100
AcDbLine
 10
195.9528423483
 20
18.6018711933
 30
0.0
 11
196.7333500221
 21
21.7215438595
 31
0.0
  0
LINE
  5
D9
330
1F
100
AcDbEntity
  8
LAYOUT_
  6
Continuous
 62
     5
370
    30
100
AcDbLine
 10
184.3967335869
 20
18.1340498529
 30
0.0
 11
182.8979876776
 21
21.0525913596
 31
0.0
  0
LINE
  5
DA
330
1F
100
AcDbEntity
  8
LAYOUT_
  6
Continuous
 62
     5
370
    30
100
AcDbLine
 10
182.8979876776
 20
21.0525913596
 30
0.0
 11
182.0780048478
 21
17.7711753554
 31
0.0
  0
LINE
  5
DB
330
1F
100
AcDbEntity
  8
LAYOUT_
  6
Continuous
 62
     5
370
    30
100
AcDbLine
 10
182.0780048478
 20
17.7711753554
 30
0.0
 11
181.0440526994
 21
17.7711753554
 31
0.0
  0
LINE
  5
DC
330
1F
100
AcDbEntity
  8
LAYOUT_
  6
Continuous
 62
     5
370
    30
100
AcDbLine
 10
187.9633837931
 20
22.2278505928
 30
0.0
 11
191.2313502973
 21
22.2278505928
 31
0.0
  0
LINE
  5
DD
330
1F
100
AcDbEntity
  8
LAYOUT_
  6
Continuous
 62
     5
370
    30
100
AcDbLine
 10
191.2313502973
 20
22.2278505928
 30
0.0
 11
191.0365072157
 21
21.4479542599
 31
0.0
  0
LINE
  5
DE
330
1F
100
AcDbEntity
  8
LAYOUT_
  6
Continuous
 62
     5
370
    30
100
AcDbLine
 10
191.0365072157
 20
21.4479542599
 30
0.0
 11
188.5414502912
 21
21.4479542599
 31
0.0
  0
LINE
  5
DF
330
1F
100
AcDbEntity
  8
LAYOUT_
  6
Continuous
 62
     5
370
    30
100
AcDbLine
 10
197.6356872731
 20
21.1948304752
 30
0.0
 11
197.4197965973
 21
20.3334511324
 31
0.0
  0
LINE
  5
E0
330
1F
100
AcDbEntity
  8
LAYOUT_
  6
Continuous
 62
     5
370
    30
100
AcDbLine
 10
188.2171795383
 20
21.1947713112
 30
0.0
 11
188.0012888624
 21
20.3333919683
 31
0.0
  0
LINE
  5
E1
330
1F
100
AcDbEntity
  8
LAYOUT_
  6
Continuous
 62
     5
370
    30
100
AcDbLine
 10
188.0012888624
 20
20.3333919683
 30
0.0
 11
190.7580870311
 21
20.3333919683
 31
0.0
  0
LINE
  5
E2
330
1F
100
AcDbEntity
  8
LAYOUT_
  6
Continuous
 62
     5
370
    30
100
AcDbLine
 10
190.7580870311
 20
20.3333919683
 30
0.0
 11
190.5905796216
 21
19.6648470155
 31
0.0
  0
LINE
  5
E3
330
1F
100
AcDbEntity
  8
LAYOUT_
  6
Continuous
 62
     5
370
    30
100
AcDbLine
 10
190.5905796216
 20
19.6648470155
 30
0.0
 11
187.8344801283
 21
19.6648470155
 31
0.0
  0
LINE
  5
E4
330
1F
100
AcDbEntity
  8
LAYOUT_
  6
Continuous
 62
     5
370
    30
100
AcDbLine
 10
187.8344801283
 20
19.6648470155
 30
0.0
 11
187.6600733
 21
18.9664336924
 31
0.0
  0
LINE
  5
E5
330
1F
100
AcDbEntity
  8
LAYOUT_
  6
Continuous
 62
     5
370
    30
100
AcDbLine
 10
199.5357261249
 20
17.7711637965
 30
0.0
 11
196.6019010954
 21
17.7711637965
 31
0.0
  0
LINE
  5
E6
330
1F
100
AcDbEntity
  8
LAYOUT_
  6
Continuous
 62
     5
370
    30
100
AcDbLine
 10
187.9843372877
 20
18.5510882998
 30
0.0
 11
190.3126728125
 21
18.5510882998
 31
0.0
  0
LINE
  5
E7
330
1F
100
AcDbEntity
  8
LAYOUT_
  6
Continuous
 62
     5
370
    30
100
AcDbLine
 10
190.3126728125
 20
18.5510882998
 30
0.0
 11
190.11721839
 21
17.7711046324
 31
0.0
  0
LINE
  5
E8
330
1F
100
AcDbEntity
  8
LAYOUT_
  6
Continuous
 62
     5
370
    30
100
AcDbLine
 10
190.11721839
 20
17.7711046324
 30
0.0
 11
187.1833933606
 21
17.7711046324
 31
0.0
  0
LINE
  5
E9
330
1F
100
AcDbEntity
  8
LAYOUT_
  6
Continuous
 62
     5
370
    30
100
AcDbLine
 10
199.7311805474
 20
18.5511474639
 30
0.0
 11
199.5357261249
 21
17.7711637965
 31
0.0
  0
LINE
  5
EA
330
1F
100
AcDbEntity
  8
LAYOUT_
  6
Continuous
 62
     5
370
    30
100
AcDbLine
 10
186.5343346134
 20
18.6018120292
 30
0.0
 11
187.3148422873
 21
21.7214846954
 31
0.0
  0
LINE
  5
EB
330
1F
100
AcDbEntity
  8
LAYOUT_
  6
Continuous
 62
     5
370
    30
100
AcDbLine
 10
193.0782985223
 20
21.4479542599
 30
0.0
 11
195.9751810939
 21
21.4479542599
 31
0.0
  0
LINE
  5
EC
330
1F
100
AcDbEntity
  8
LAYOUT_
  6
Continuous
 62
     5
370
    30
100
AcDbLine
 10
197.2529878631
 20
19.6649061795
 30
0.0
 11
197.0785810348
 21
18.9664928565
 31
0.0
  0
LINE
  5
ED
330
1F
100
AcDbEntity
  8
LAYOUT_
  6
Continuous
 62
     5
370
    30
100
AcDbLine
 10
196.1700241755
 20
22.2278505928
 30
0.0
 11
192.5517593295
 21
22.2278505928
 31
0.0
  0
LINE
  5
EE
330
1F
100
AcDbEntity
  8
LAYOUT_
  6
Continuous
 62
     5
370
    30
100
AcDbLine
 10
200.1765947659
 20
20.3334511324
 30
0.0
 11
200.0090873565
 21
19.6649061795
 31
0.0
  0
LINE
  5
EF
330
1F
100
AcDbEntity
  8
LAYOUT_
  6
Continuous
 62
     5
370
    30
100
AcDbLine
 10
200.4550149506
 20
21.4480134239
 30
0.0
 11
197.959958026
 21
21.4480134239
 31
0.0
  0
LINE
  5
F0
330
1F
100
AcDbEntity
  8
LAYOUT_
  6
Continuous
 62
     5
370
    30
100
AcDbLine
 10
191.9931557323
 20
20.796481757
 30
0.0
 11
194.2749420134
 21
18.7443849894
 31
0.0
  0
LINE
  5
F1
330
1F
100
AcDbEntity
  8
LAYOUT_
  6
Continuous
 62
     5
370
    30
100
AcDbLine
 10
197.3818915279
 20
22.2279097569
 30
0.0
 11
200.6498580322
 21
22.2279097569
 31
0.0
  0
LINE
  5
F2
330
1F
100
AcDbEntity
  8
LAYOUT_
  6
Continuous
 62
     5
370
    30
100
AcDbLine
 10
194.2225807863
 20
18.5473280847
 30
0.0
 11
191.0049189056
 21
18.5473280847
 31
0.0
  0
LINE
  5
F3
330
1F
100
AcDbEntity
  8
LAYOUT_
  6
Continuous
 62
     5
370
    30
100
AcDbLine
 10
191.0049189056
 20
18.5473280847
 30
0.0
 11
190.8099884895
 21
17.7673444173
 31
0.0
  0
LINE
  5
F4
330
1F
100
AcDbEntity
  8
LAYOUT_
  6
Continuous
 62
     5
370
    30
100
AcDbLine
 10
190.8099884895
 20
17.7673444173
 30
0.0
 11
194.2810948449
 21
17.7673444173
 31
0.0
  0
LINE
  5
F5
330
1F
100
AcDbEntity
  8
LAYOUT_
  6
Continuous
 62
     5
370
    30
100
AcDbLine
 10
194.9476010395
 20
19.5054305912
 30
0.0
 11
193.0037989474
 21
21.2536909264
 31
0.0
  0
LINE
  5
F6
330
1F
100
AcDbEntity
  8
7__JANELA_BASCULANTE
100
AcDbLine
 10
47.8870072539
 20
57.5800504449
 30
0.0
 11
47.8870072539
 21
49.4464647205
 31
0.0
  0
LINE
  5
F7
330
1F
100
AcDbEntity
  8
7__JANELA_BASCULANTE
100
AcDbLine
 10
35.5084331531
 20
48.4464647205
 30
0.0
 11
45.8870072539
 21
48.4464647205
 31
0.0
  0
LINE
  5
F8
330
1F
100
AcDbEntity
  8
7__JANELA_BASCULANTE
100
AcDbLine
 10
35.5084331531
 20
48.4464647205
 30
0.0
 11
35.5084331531
 21
43.3128789961
 31
0.0
  0
LINE
  5
F9
330
1F
100
AcDbEntity
  8
7__JANELA_BASCULANTE
100
AcDbLine
 10
35.5084331531
 20
43.3128789961
 30
0.0
 11
45.8870072539
 21
43.3128789961
 31
0.0
  0
LINE
  5
FA
330
1F
100
AcDbEntity
  8
7__JANELA_BASCULANTE
100
AcDbLine
 10
45.8870072539
 20
48.4464647205
 30
0.0
 11
45.8870072539
 21
43.3128789961
 31
0.0
  0
LINE
  5
FB
330
1F
100
AcDbEntity
  8
7__JANELA_BASCULANTE
100
AcDbLine
 10
46.8870072539
 20
49.4464647205
 30
0.0
 11
46.8870072539
 21
42.3128789961
 31
0.0
  0
LINE
  5
FC
330
1F
100
AcDbEntity
  8
7__JANELA_BASCULANTE
100
AcDbLine
 10
33.5084331531
 20
57.5800504449
 30
0.0
 11
47.8870072539
 21
57.5800504449
 31
0.0
  0
LINE
  5
FD
330
1F
100
AcDbEntity
  8
7__JANELA_BASCULANTE
100
AcDbLine
 10
34.5084331531
 20
49.4464647205
 30
0.0
 11
34.5084331531
 21
42.3128789961
 31
0.0
  0
LINE
  5
FE
330
1F
100
AcDbEntity
  8
7__JANELA_BASCULANTE
100
AcDbLine
 10
35.5084331531
 20
36.1792932717
 30
0.0
 11
45.8870072539
 21
36.1792932717
 31
0.0
  0
LINE
  5
FF
330
1F
100
AcDbEntity
  8
7__JANELA_BASCULANTE
100
AcDbLine
 10
34.5084331531
 20
42.3128789961
 30
0.0
 11
34.5084331531
 21
35.1792932717
 31
0.0
  0
LINE
  5
100
330
1F
100
AcDbEntity
  8
7__JANELA_BASCULANTE
100
AcDbLine
 10
33.5084331531
 20
57.5800504449
 30
0.0
 11
33.5084331531
 21
49.4464647205
 31
0.0
  0
LINE
  5
101
330
1F
100
AcDbEntity
  8
7__JANELA_BASCULANTE
100
AcDbLine
 10
45.8870072539
 20
41.3128789961
 30
0.0
 11
45.8870072539
 21
36.1792932717
 31
0.0
  0
LINE
  5
102
330
1F
100
AcDbEntity
  8
7__JANELA_BASCULANTE
100
AcDbLine
 10
35.5084331531
 20
41.3128789961
 30
0.0
 11
45.8870072539
 21
41.3128789961
 31
0.0
  0
LINE
  5
103
330
1F
100
AcDbEntity
  8
7__JANELA_BASCULANTE
100
AcDbLine
 10
34.5084331531
 20
42.3128789961
 30
0.0
 11
46.8870072539
 21
42.3128789961
 31
0.0
  0
LINE
  5
104
330
1F
100
AcDbEntity
  8
7__JANELA_BASCULANTE
100
AcDbLine
 10
35.5084331531
 20
41.3128789961
 30
0.0
 11
35.5084331531
 21
36.1792932717
 31
0.0
  0
LINE
  5
105
330
1F
100
AcDbEntity
  8
7__JANELA_BASCULANTE
100
AcDbLine
 10
46.8870072539
 20
42.3128789961
 30
0.0
 11
46.8870072539
 21
35.1792932717
 31
0.0
  0
LINE
  5
106
330
1F
100
AcDbEntity
  8
7__JANELA_BASCULANTE
100
AcDbLine
 10
34.5084331531
 20
56.5800504449
 30
0.0
 11
34.5084331531
 21
49.4464647205
 31
0.0
  0
LINE
  5
107
330
1F
100
AcDbEntity
  8
7__JANELA_BASCULANTE
100
AcDbLine
 10
34.5084331531
 20
49.4464647205
 30
0.0
 11
46.8870072539
 21
49.4464647205
 31
0.0
  0
LINE
  5
108
330
1F
100
AcDbEntity
  8
7__JANELA_BASCULANTE
100
AcDbLine
 10
46.8870072539
 20
56.5800504449
 30
0.0
 11
46.8870072539
 21
49.4464647205
 31
0.0
  0
LINE
  5
109
330
1F
100
AcDbEntity
  8
7__JANELA_BASCULANTE
100
AcDbLine
 10
34.5084331531
 20
56.5800504449
 30
0.0
 11
46.8870072539
 21
56.5800504449
 31
0.0
  0
LINE
  5
10A
330
1F
100
AcDbEntity
  8
7__JANELA_BASCULANTE
100
AcDbLine
 10
34.5084331531
 20
35.1792932717
 30
0.0
 11
34.5084331531
 21
28.0457075472
 31
0.0
  0
LINE
  5
10B
330
1F
100
AcDbEntity
  8
7__JANELA_BASCULANTE
100
AcDbLine
 10
34.5084331531
 20
35.1792932717
 30
0.0
 11
46.8870072539
 21
35.1792932717
 31
0.0
  0
LINE
  5
10C
330
1F
100
AcDbEntity
  8
7__JANELA_BASCULANTE
100
AcDbLine
 10
34.5084331531
 20
28.0457075472
 30
0.0
 11
46.8870072539
 21
28.0457075472
 31
0.0
  0
LINE
  5
10D
330
1F
100
AcDbEntity
  8
7__JANELA_BASCULANTE
100
AcDbLine
 10
46.8870072539
 20
35.1792932717
 30
0.0
 11
46.8870072539
 21
28.0457075472
 31
0.0
  0
LINE
  5
10E
330
1F
100
AcDbEntity
  8
7__JANELA_BASCULANTE
100
AcDbLine
 10
33.5084331531
 20
35.1792932717
 30
0.0
 11
33.5084331531
 21
27.0457075472
 31
0.0
  0
LINE
  5
10F
330
1F
100
AcDbEntity
  8
7__JANELA_BASCULANTE
100
AcDbLine
 10
33.5084331531
 20
27.0457075472
 30
0.0
 11
47.8870072539
 21
27.0457075472
 31
0.0
  0
LINE
  5
110
330
1F
100
AcDbEntity
  8
7__JANELA_BASCULANTE
100
AcDbLine
 10
47.8870072539
 20
35.1792932717
 30
0.0
 11
47.8870072539
 21
27.0457075472
 31
0.0
  0
LINE
  5
111
330
1F
100
AcDbEntity
  8
7__JANELA_BASCULANTE
100
AcDbLine
 10
47.8870072539
 20
35.1792932717
 30
0.0
 11
47.8870072539
 21
49.4464647205
 31
0.0
  0
LINE
  5
112
330
1F
100
AcDbEntity
  8
7__JANELA_BASCULANTE
100
AcDbLine
 10
33.5084331531
 20
49.4464647205
 30
0.0
 11
33.5084331531
 21
35.1792932717
 31
0.0
  0
LINE
  5
113
330
1F
100
AcDbEntity
  8
7__JANELA_BASCULANTE
  6
HIDDEN
100
AcDbLine
 10
34.5084331531
 20
45.8796718583
 30
0.0
 11
40.6977202035
 21
49.4464647205
 31
0.0
  0
LINE
  5
114
330
1F
100
AcDbEntity
  8
7__JANELA_BASCULANTE
  6
HIDDEN
100
AcDbLine
 10
40.6977202035
 20
49.4464647205
 30
0.0
 11
46.8870072539
 21
45.8796718583
 31
0.0
  0
LINE
  5
115
330
1F
100
AcDbEntity
  8
7__JANELA_BASCULANTE
  6
HIDDEN
100
AcDbLine
 10
46.8870072539
 20
45.8796718583
 30
0.0
 11
40.6977202035
 21
42.3128789961
 31
0.0
  0
LINE
  5
116
330
1F
100
AcDbEntity
  8
7__JANELA_BASCULANTE
  6
HIDDEN
100
AcDbLine
 10
40.6977202035
 20
42.3128789961
 30
0.0
 11
34.5084331531
 21
45.8796718583
 31
0.0
  0
LINE
  5
117
330
1F
100
AcDbEntity
  8
7__JANELA_BASCULANTE
  6
HIDDEN
100
AcDbLine
 10
34.5084331531
 20
38.7460861339
 30
0.0
 11
40.6977202035
 21
42.3128789961
 31
0.0
  0
LINE
  5
118
330
1F
100
AcDbEntity
  8
7__JANELA_BASCULANTE
  6
HIDDEN
100
AcDbLine
 10
40.6977202035
 20
42.3128789961
 30
0.0
 11
46.8870072539
 21
38.7460861339
 31
0.0
  0
LINE
  5
119
330
1F
100
AcDbEntity
  8
7__JANELA_BASCULANTE
  6
HIDDEN
100
AcDbLine
 10
46.8870072539
 20
38.7460861339
 30
0.0
 11
40.6977202035
 21
35.1792932717
 31
0.0
  0
LINE
  5
11A
330
1F
100
AcDbEntity
  8
7__JANELA_BASCULANTE
  6
HIDDEN
100
AcDbLine
 10
40.6977202035
 20
35.1792932717
 30
0.0
 11
34.5084331531
 21
38.7460861339
 31
0.0
  0
ARC
  5
11B
330
1F
100
AcDbEntity
  8
LAYOUT_
  6
Continuous
 62
     5
370
    30
100
AcDbCircle
 10
169.6382737855
 20
18.662574812
 30
0.0
 40
0.8913350474915127
100
AcDbArc
 50
180.0
 51
270.0
  0
ARC
  5
11C
330
1F
100
AcDbEntity
  8
LAYOUT_
  6
Continuous
 62
     5
370
    30
100
AcDbCircle
 10
172.4223423578
 20
18.662574812
 30
0.0
 40
0.891335060555241
100
AcDbArc
 50
270.0098094466
 51
346.0052277614
  0
ARC
  5
11D
330
1F
100
AcDbEntity
  8
LAYOUT_
  6
Continuous
 62
     5
370
    30
100
AcDbCircle
 10
171.9761455692
 20
19.1071969297
 30
0.0
 40
0.445667523746016
100
AcDbArc
 50
266.074820003
 51
330.6760170475
  0
ARC
  5
11E
330
1F
100
AcDbEntity
  8
LAYOUT_
  6
Continuous
 62
     5
370
    30
100
AcDbCircle
 10
170.3373746936
 20
19.1082423357
 30
0.0
 40
0.4456675237457404
100
AcDbArc
 50
180.4042063829
 51
270.0000000003
  0
ARC
  5
11F
330
1F
100
AcDbEntity
  8
LAYOUT_
  6
Continuous
 62
     5
370
    30
100
AcDbCircle
 10
176.9970448124
 20
20.0015582864
 30
0.0
 40
2.233544233581878
100
AcDbArc
 50
346.6914600051
 51
85.3816733719
  0
ARC
  5
120
330
1F
100
AcDbEntity
  8
LAYOUT_
  6
Continuous
 62
     5
370
    30
100
AcDbCircle
 10
176.9970448124
 20
20.0015582864
 30
0.0
 40
2.23354423358189
100
AcDbArc
 50
273.0487696886
 51
346.6914600051
  0
ARC
  5
121
330
1F
100
AcDbEntity
  8
LAYOUT_
  6
Continuous
 62
     5
370
    30
100
AcDbCircle
 10
176.837111904
 20
19.9220676482
 30
0.0
 40
1.370908742272637
100
AcDbArc
 50
270.0236551432
 51
345.8635575518
  0
ARC
  5
122
330
1F
100
AcDbEntity
  8
LAYOUT_
  6
Continuous
 62
     5
370
    30
100
AcDbCircle
 10
176.7621615092
 20
19.9883845876
 30
0.0
 40
1.459794905866598
100
AcDbArc
 50
345.961061111
 51
90.0
  0
ARC
  5
123
330
1F
100
AcDbEntity
  8
LAYOUT_
  6
Continuous
 62
     5
370
    30
100
AcDbCircle
 10
175.0090698998
 20
22.1164337119
 30
0.0
 40
0.1114168809365659
100
AcDbArc
 50
89.9999999999
 51
165.967730555
  0
ARC
  5
124
330
1F
100
AcDbEntity
  8
LAYOUT_
370
    30
100
AcDbCircle
 10
12.6330084959
 20
28.3943322098
 30
0.0
 40
2.999999999999998
100
AcDbArc
 50
180.0
 51
270.0
  0
ARC
  5
125
330
1F
100
AcDbEntity
  8
LAYOUT_
  6
Continuous
 62
   179
370
    30
100
AcDbCircle
 10
165.000198038
 20
10.0576682054
 30
0.0
 40
3.000002678143712
100
AcDbArc
 50
270.0
 51
354.0260676379
  0
ARC
  5
126
330
1F
100
AcDbEntity
  8
LAYOUT_
370
    30
100
AcDbCircle
 10
170.9839087496
 20
11.9454240236
 30
0.0
 40
3.0
100
AcDbArc
 50
90.0
 51
180.0
  0
ARC
  5
127
330
1F
100
AcDbEntity
  8
LAYOUT_
  6
Continuous
 62
   179
370
    30
100
AcDbCircle
 10
199.9839060715
 20
17.9377170165
 30
0.0
 40
3.000002678143716
100
AcDbArc
 50
274.1085462829
 51
0.0
  0
ARC
  5
128
330
1F
100
AcDbEntity
  8
LAYOUT_
370
    30
100
AcDbCircle
 10
197.9839087496
 20
271.0434620836
 30
0.0
 40
3.0
100
AcDbArc
 50
0.0
 51
90.0
  0
ARC
  5
129
330
1F
100
AcDbEntity
  8
LAYOUT_
  6
Continuous
 62
   179
370
    30
100
AcDbCircle
 10
89.9839060715
 20
196.0434647618
 30
0.0
 40
3.000002678143716
100
AcDbArc
 50
270.0
 51
0.0
  0
ARC
  5
12A
330
1F
100
AcDbEntity
  8
LAYOUT_
  6
Continuous
 62
   179
370
    30
100
AcDbCircle
 10
95.9839114278
 20
271.0434594055
 30
0.0
 40
3.000002678143701
100
AcDbArc
 50
90.0
 51
180.0
  0
ARC
  5
12B
330
1F
100
AcDbEntity
  8
LAYOUT_
370
    30
100
AcDbCircle
 10
199.9839087496
 20
287.0434620836
 30
0.0
 40
3.000000000000028
100
AcDbArc
 50
0.0
 51
90.0
  0
ARC
  5
12C
330
1F
100
AcDbEntity
  8
LAYOUT_
370
    30
100
AcDbCircle
 10
197.9839087496
 20
28.3943322098
 30
0.0
 40
3.000000000000028
100
AcDbArc
 50
270.0
 51
0.0
  0
ARC
  5
12D
330
1F
100
AcDbEntity
  8
LAYOUT_
370
    30
100
AcDbCircle
 10
168.9839087496
 20
22.3943322098
 30
0.0
 40
3.000000000000004
100
AcDbArc
 50
90.0
 51
180.0
  0
ARC
  5
12E
330
1F
100
AcDbEntity
  8
LAYOUT_
  6
Continuous
 62
   179
370
    30
100
AcDbCircle
 10
162.9887208729
 20
11.8877692583
 30
0.0
 40
3.000002678143741
100
AcDbArc
 50
270.0
 51
3.2465649992
  0
ARC
  5
12F
330
1F
100
AcDbEntity
  8
LAYOUT_
  6
Continuous
 62
   179
370
    30
100
AcDbCircle
 10
67.9839114278
 20
11.8877692583
 30
0.0
 40
3.000002678143773
100
AcDbArc
 50
180.0
 51
270.0
  0
ARC
  5
130
330
1F
100
AcDbEntity
  8
LAYOUT_
  6
Continuous
 62
   179
370
    30
100
AcDbCircle
 10
61.9839060715
 20
22.3943295316
 30
0.0
 40
3.00000267814378
100
AcDbArc
 50
360.0
 51
90.0
  0
ARC
  5
131
330
1F
100
AcDbEntity
  8
LAYOUT_
370
    30
100
AcDbCircle
 10
10.6330084959
 20
10.0576655272
 30
0.0
 40
3.0
100
AcDbArc
 50
180.0
 51
270.0
  0
ARC
  5
132
330
1F
100
AcDbEntity
  8
LAYOUT_
370
    30
100
AcDbCircle
 10
12.6330084959
 20
190.0434620836
 30
0.0
 40
3.0
100
AcDbArc
 50
90.0
 51
180.0
  0
ARC
  5
133
330
1F
100
AcDbEntity
  8
LAYOUT_
370
    30
100
AcDbCircle
 10
10.6330084959
 20
287.0434620836
 30
0.0
 40
3.0
100
AcDbArc
 50
90.0
 51
180.0
  0
ARC
  5
134
330
1F
100
AcDbEntity
  8
LAYOUT_
  6
Continuous
 62
     1
370
    30
100
AcDbCircle
 10
180.0073207257
 20
21.0355881784
 30
0.0
 40
1.266760894066332
100
AcDbArc
 50
12.9142283995
 51
70.2523349868
  0
ARC
  5
135
330
1F
100
AcDbEntity
  8
LAYOUT_
  6
Continuous
 62
     5
370
    30
100
AcDbCircle
 10
183.0132691065
 20
21.5593493072
 30
0.0
 40
0.6685012856187822
100
AcDbArc
 50
27.1838388889
 51
90.0
  0
ARC
  5
136
330
1F
100
AcDbEntity
  8
LAYOUT_
  6
Continuous
 62
     5
370
    30
100
AcDbCircle
 10
184.9913958865
 20
18.4394524042
 30
0.0
 40
0.6685012856186513
100
AcDbArc
 50
207.1838119432
 51
269.9475909936
  0
ARC
  5
137
330
1F
100
AcDbEntity
  8
LAYOUT_
  6
Continuous
 62
     5
370
    30
100
AcDbCircle
 10
187.9633837931
 20
21.5593493072
 30
0.0
 40
0.668501285618736
100
AcDbArc
 50
90.0
 51
165.9637555556
  0
ARC
  5
138
330
1F
100
AcDbEntity
  8
LAYOUT_
  6
Continuous
 62
     5
370
    30
100
AcDbCircle
 10
188.5414502912
 20
21.1137036171
 30
0.0
 40
0.3342506428094048
100
AcDbArc
 50
90.0
 51
165.9637555553
  0
ARC
  5
139
330
1F
100
AcDbEntity
  8
LAYOUT_
  6
Continuous
 62
     5
370
    30
100
AcDbCircle
 10
187.9843372877
 20
18.8853389426
 30
0.0
 40
0.334250642809277
100
AcDbArc
 50
165.958975
 51
270.0
  0
ARC
  5
13A
330
1F
100
AcDbEntity
  8
LAYOUT_
  6
Continuous
 62
     5
370
    30
100
AcDbCircle
 10
187.1828583809
 20
18.439605704
 30
0.0
 40
0.6685012856186544
100
AcDbArc
 50
165.9574885007
 51
270.0458519451
  0
ARC
  5
13B
330
1F
100
AcDbEntity
  8
LAYOUT_
  6
Continuous
 62
     5
370
    30
100
AcDbCircle
 10
192.542066568
 20
21.406949005
 30
0.0
 40
0.8209588092300357
100
AcDbArc
 50
89.3235138889
 51
228.0392277776
  0
ARC
  5
13C
330
1F
100
AcDbEntity
  8
LAYOUT_
  6
Continuous
 62
     5
370
    30
100
AcDbCircle
 10
194.2053195396
 20
18.6573997464
 30
0.0
 40
0.1114168809364291
100
AcDbArc
 50
278.9124394813
 51
51.3264264757
  0
ARC
  5
13D
330
1F
100
AcDbEntity
  8
LAYOUT_
  6
Continuous
 62
     5
370
    30
100
AcDbCircle
 10
194.2810948449
 20
18.7641805085
 30
0.0
 40
0.9968360911629996
100
AcDbArc
 50
270.0
 51
48.0392277778
  0
ARC
  5
13E
330
1F
100
AcDbEntity
  8
LAYOUT_
  6
Continuous
 62
     5
370
    30
100
AcDbCircle
 10
193.0782985223
 20
21.3365373789
 30
0.0
 40
0.1114168809364989
100
AcDbArc
 50
90.0
 51
228.036575
  0
ARC
  5
13F
330
1F
100
AcDbEntity
  8
LAYOUT_
  6
Continuous
 62
     5
370
    30
100
AcDbCircle
 10
197.959958026
 20
21.1137627811
 30
0.0
 40
0.3342506428092784
100
AcDbArc
 50
90.0
 51
165.9637555556
  0
ARC
  5
140
330
1F
100
AcDbEntity
  8
LAYOUT_
  6
Continuous
 62
     5
370
    30
100
AcDbCircle
 10
196.6013661157
 20
18.4396648681
 30
0.0
 40
0.6685012856186334
100
AcDbArc
 50
165.9574885004
 51
270.0458519451
  0
ARC
  5
141
330
1F
100
AcDbEntity
  8
LAYOUT_
  6
Continuous
 62
     5
370
    30
100
AcDbCircle
 10
197.3818915279
 20
21.5594084713
 30
0.0
 40
0.6685012856185817
100
AcDbArc
 50
90.0
 51
165.9637555556
  0
ARC
  5
142
330
1F
100
AcDbEntity
  8
LAYOUT_
  6
Continuous
 62
     5
370
    30
100
AcDbCircle
 10
197.4028450226
 20
18.8853981067
 30
0.0
 40
0.334250642809408
100
AcDbArc
 50
165.958975
 51
270.0
  0
MTEXT
  5
144
330
1F
100
AcDbEntity
  8
TEXTOS_PORTUGUES
 62
     7
100
AcDbMText
 10
135.8200470247
 20
267.1085761364
 30
0.0
 40
3.175
 41
0.0
 71
     1
 72
     1
  1
\LAPLICAÇÃO
  7
SLDTEXTSTYLE0
 73
     1
 44
1.0
  0
MTEXT
  5
145
330
1F
100
AcDbEntity
  8
TEXTOS_PORTUGUES
 62
     7
100
AcDbMText
 10
27.8322574819
 20
189.3207957668
 30
0.0
 40
3.175
 41
0.0
 71
     1
 72
     1
  1
\LCARACTERÍSTICAS
  7
SLDTEXTSTYLE0
 73
     1
 44
1.0
  0
MTEXT
  5
146
330
1F
100
AcDbEntity
  8
TEXTOS_PORTUGUES
 62
     7
100
AcDbMText
 10
135.7024545111
 20
189.3207957668
 30
0.0
 40
3.175
 41
0.0
 71
     1
 72
     1
  1
\LDIMENSÕES
  7
SLDTEXTSTYLE0
 73
     1
 44
1.0
  0
MTEXT
  5
147
330
1F
100
AcDbEntity
  8
TEXTOS_PORTUGUES
 62
     7
100
AcDbMText
 10
-27.3829855303
 20
233.6239613936
 30
0.0
 40
2.38125
 41
0.0
 71
     1
 72
     1
  1
Textos/Notas
  7
SLDTEXTSTYLE0
 73
     1
 44
1.0
  0
INSERT
  5
14D
330
1F
100
AcDbEntity
  8
TEXTOS_PORTUGUES
 62
     7
100
AcDbBlockReference
  2
SW_NOTE_0
 10
-31.9103000964
 20
224.6150476602
 30
0.0
  0
MTEXT
  5
14E
330
1F
100
AcDbEntity
  8
TEXTOS_PORTUGUES
 62
     7
100
AcDbMText
 10
-31.4203303586
 20
220.9983063779
 30
0.0
 40
2.6458333333
 41
0.0
 71
     1
 72
     1
  1
SUBTÍTULO 1
  7
SLDTEXTSTYLE0
 73
     1
 44
1.0
  0
MTEXT
  5
14F
330
1F
100
AcDbEntity
  8
TEXTOS_PORTUGUES
 62
     7
100
AcDbMText
 10
165.3572408251
 20
29.0772653386
 30
0.0
 40
2.1166666667
 41
0.0
 71
     1
 72
     1
  1
*Todas as medidas em mm.
  7
SLDTEXTSTYLE0
 73
     1
 44
1.0
  0
MTEXT
  5
150
330
1F
100
AcDbEntity
  8
TEXTOS_PORTUGUES
100
AcDbMText
 10
36.9669714123
 20
16.5017136698
 30
0.0
 40
4.7625
 41
0.0
 71
     2
 72
     1
  1
LINHA MASTER
  7
SLDTEXTSTYLE0
 73
     1
 44
1.0
  0
MTEXT
  5
151
330
1F
100
AcDbEntity
  8
TEXTOS_PORTUGUES
 62
     7
100
AcDbMText
 10
173.9180457735
 20
11.780852716
 30
0.0
 40
2.5
 41
0.0
 71
     1
 72
     1
  1
FOLHA:
  7
SLDTEXTSTYLE0
 73
     1
 44
1.0
  0
MTEXT
  5
152
330
1F
100
AcDbEntity
  8
LAYOUT_
 62
     7
100
AcDbMText
 10
188.8408254525
 20
11.780852716
 30
0.0
 40
2.5
 41
0.0
 71
     1
 72
     1
  1
1/4
  7
SLDTEXTSTYLE0
 73
     1
 44
1.0
  0
INSERT
  5
16C
330
1F
100
AcDbEntity
  8
LAYOUT_
 62
     7
100
AcDbBlockReference
  2
SW_NOTE_1
 10
225.788068163
 20
281.8362040996
 30
0.0
  0
MTEXT
  5
16D
330
1F
100
AcDbEntity
  8
TEXTOS_PORTUGUES
 62
     7
100
AcDbMText
 10
150.6083631195
 20
288.822866663
 30
0.0
 40
5.2916666667
 41
0.0
 71
     2
 72
     1
  1
PIVO BASCULANTE MASTER
  7
SLDTEXTSTYLE0
 73
     1
 44
1.0
  0
MTEXT
  5
16E
330
1F
100
AcDbEntity
  8
TEXTOS_PORTUGUES
 62
     7
100
AcDbMText
 10
150.1061324852
 20
281.8915645795
 30
0.0
 40
5.2916666667
 41
0.0
 71
     2
 72
     1
  1
PIV-7580
  7
SLDTEXTSTYLE0
 73
     1
 44
1.0
  0
MTEXT
  5
16F
330
1F
100
AcDbEntity
  8
DESENHO
100
AcDbMText
 10
5.5132603281
 20
31.5195464236
 30
0.0
 40
1.8520833333
 41
0.0
 71
     1
 72
     1
  1
Reservamos o direito de alterações sem aviso prévio.
  7
SLDTEXTSTYLE0
 11
-3.269436733918102E-15
 21
1.0
 31
0.0
 73
     1
 44
1.0
  0
MTEXT
  5
170
330
1F
100
AcDbEntity
  8
7__JANELA_BASCULANTE
100
AcDbMText
 10
18.8855823964
 20
21.9716616334
 30
0.0
 40
2.6458333333
 41
0.0
 71
     1
 72
     1
  1
JANELA BASCULANTE
  7
SLDTEXTSTYLE0
 73
     1
 44
1.0
  0
INSERT
  5
181
330
1F
100
AcDbEntity
  8
LAYOUT_
100
AcDbBlockReference
  2
SW_TABLEANNOTATION_0
 10
11.6128615116
 20
182.5815426504
 30
0.0
  0
INSERT
  5
193
330
1F
100
AcDbEntity
  8
LAYOUT_
100
AcDbBlockReference
  2
SW_TABLEANNOTATION_1
 10
11.5187312549
 20
163.3096311274
 30
0.0
  0
INSERT
  5
1A0
330
1F
100
AcDbEntity
  8
LAYOUT_
100
AcDbBlockReference
  2
SW_TABLEANNOTATION_2
 10
11.5660052005
 20
147.1953034414
 30
0.0
  0
INSERT
  5
1BB
330
1F
100
AcDbEntity
  8
LAYOUT_
100
AcDbBlockReference
  2
SW_TABLEANNOTATION_3
 10
11.6444382845
 20
133.4893650491
 30
0.0
  0
LINE
  5
1BC
330
1F
100
AcDbEntity
  8
0
  6
Continuous
 62
     7
370
    15
100
AcDbLine
 10
174.5226127844
 20
235.3020392642
 30
0.0
 11
174.5425188731
 21
233.1021293816
 31
0.0
  0
ARC
  5
1BD
330
1F
100
AcDbEntity
  8
0
  6
Continuous
 62
     7
370
    15
100
AcDbCircle
 10
174.2425304887
 20
233.0994149146
 30
0.0
 40
0.2999999999995354
100
AcDbArc
 50
270.5184324009
 51
0.5184324009
  0
LINE
  5
1BE
330
1F
100
AcDbEntity
  8
0
  6
Continuous
 62
     7
370
    15
100
AcDbLine
 10
174.2452444326
 20
232.7994271931
 30
0.0
 11
173.8452618759
 21
232.7958078989
 31
0.0
  0
ARC
  5
1BF
330
1F
100
AcDbEntity
  8
0
  6
Continuous
 62
     7
370
    15
100
AcDbCircle
 10
173.8425468631
 20
233.095795623
 30
0.0
 40
0.2999999999995352
100
AcDbArc
 50
180.5184324009
 51
270.5184324009
  0
LINE
  5
1C0
330
1F
100
AcDbEntity
  8
0
  6
Continuous
 62
     7
370
    15
100
AcDbLine
 10
173.5425596874
 20
233.0930811753
 30
0.0
 11
173.5362248313
 21
233.793052454
 31
0.0
  0
LINE
  5
1C1
330
1F
100
AcDbEntity
  8
0
  6
Continuous
 62
     7
370
    15
100
AcDbLine
 10
173.5362248313
 20
233.793052454
 30
0.0
 11
167.7142638531
 21
233.7403718433
 31
0.0
  0
ARC
  5
1C2
330
1F
100
AcDbEntity
  8
0
  6
Continuous
 62
     7
370
    15
100
AcDbCircle
 10
167.7170319355
 20
233.4403846729
 30
0.0
 40
0.2999999999999748
100
AcDbArc
 50
90.5286974021
 51
130.5227866961
  0
LINE
  5
1C3
330
1F
100
AcDbEntity
  8
0
  6
Continuous
 62
     7
370
    15
100
AcDbLine
 10
167.5221068602
 20
233.6684289206
 30
0.0
 11
162.6352486949
 21
229.4912953679
 31
0.0
  0
ARC
  5
1C4
330
1F
100
AcDbEntity
  8
0
  6
Continuous
 62
     7
370
    15
100
AcDbCircle
 10
162.8301738015
 20
229.263251162
 30
0.0
 40
0.299999999999213
100
AcDbArc
 50
130.5227866961
 51
180.5184324009
  0
LINE
  5
1C5
330
1F
100
AcDbEntity
  8
0
  6
Continuous
 62
     7
370
    15
100
AcDbLine
 10
162.5301861953
 20
229.2605366842
 30
0.0
 11
162.5425858241
 21
227.8901576814
 31
0.0
  0
ARC
  5
1C6
330
1F
100
AcDbEntity
  8
0
  6
Continuous
 62
     7
370
    15
100
AcDbCircle
 10
161.2426393023
 20
227.8783949465
 30
0.0
 40
1.300000007784395
100
AcDbArc
 50
274.1017541297
 51
0.5184324009
  0
ARC
  5
1C7
330
1F
100
AcDbEntity
  8
0
  6
Continuous
 62
     7
370
    15
100
AcDbCircle
 10
161.3570840729
 20
226.2824931891
 30
0.0
 40
0.3000000000011554
100
AcDbArc
 50
94.1017541297
 51
180.5184324009
  0
LINE
  5
1C8
330
1F
100
AcDbEntity
  8
0
  6
Continuous
 62
     7
370
    15
100
AcDbLine
 10
161.0570965152
 20
226.2797789466
 30
0.0
 11
161.0634295087
 21
225.5798583668
 31
0.0
  0
ARC
  5
1C9
330
1F
100
AcDbEntity
  8
0
  6
Continuous
 62
     7
370
    15
100
AcDbCircle
 10
161.0661886911
 20
225.2798709273
 30
0.0
 40
0.3000000000007575
100
AcDbArc
 50
0.5184324009
 51
90.5269447492
  0
ARC
  5
1CA
330
1F
100
AcDbEntity
  8
0
  6
Continuous
 62
     7
370
    15
100
AcDbCircle
 10
160.6662050655
 20
225.2762516357
 30
0.0
 40
0.6999999999997872
100
AcDbArc
 50
270.5184324009
 51
0.5184324009
  0
LINE
  5
1CB
330
1F
100
AcDbEntity
  8
0
  6
Continuous
 62
     7
370
    15
100
AcDbLine
 10
160.6725389887
 20
224.5762800616
 30
0.0
 11
160.3225083839
 21
224.5731130992
 31
0.0
  0
ARC
  5
1CC
330
1F
100
AcDbEntity
  8
0
  6
Continuous
 62
     7
370
    15
100
AcDbCircle
 10
160.3197941181
 20
224.8731007268
 30
0.0
 40
0.2999999999993081
100
AcDbArc
 50
180.5184324009
 51
270.5184324009
  0
LINE
  5
1CD
330
1F
100
AcDbEntity
  8
0
  6
Continuous
 62
     7
370
    15
100
AcDbLine
 10
160.0198061954
 20
224.8703861427
 30
0.0
 11
160.0071322922
 21
226.271060836
 31
0.0
  0
ARC
  5
1CE
330
1F
100
AcDbEntity
  8
0
  6
Continuous
 62
     7
370
    15
100
AcDbCircle
 10
161.3070790194
 20
226.2828235985
 30
0.0
 40
1.29999998089792
100
AcDbArc
 50
92.3072512947
 51
180.5184324009
  0
ARC
  5
1CF
330
1F
100
AcDbEntity
  8
0
  6
Continuous
 62
     7
370
    15
100
AcDbCircle
 10
161.2426111258
 20
227.8815242595
 30
0.0
 40
0.2999999959193695
100
AcDbArc
 50
272.3177059382
 51
0.5184324009
  0
LINE
  5
1D0
330
1F
100
AcDbEntity
  8
0
  6
Continuous
 62
     7
370
    15
100
AcDbLine
 10
161.5425986987
 20
227.8842386608
 30
0.0
 11
161.5302325975
 21
229.2508697887
 31
0.0
  0
ARC
  5
1D1
330
1F
100
AcDbEntity
  8
0
  6
Continuous
 62
     7
370
    15
100
AcDbCircle
 10
162.8301793971
 20
229.2626324909
 30
0.0
 40
1.300004246488955
100
AcDbArc
 50
130.4469460383
 51
180.5184324009
  0
LINE
  5
1D2
330
1F
100
AcDbEntity
  8
0
  6
Continuous
 62
     7
370
    15
100
AcDbLine
 10
161.9868097644
 20
230.2519449317
 30
0.0
 11
166.8735859733
 21
234.4296656833
 31
0.0
  0
ARC
  5
1D3
330
1F
100
AcDbEntity
  8
0
  6
Continuous
 62
     7
370
    15
100
AcDbCircle
 10
167.7183744886
 20
233.4415703974
 30
0.0
 40
1.300000000001538
100
AcDbArc
 50
90.5190254902
 51
130.5293396761
  0
LINE
  5
1D4
330
1F
100
AcDbEntity
  8
0
  6
Continuous
 62
     7
370
    15
100
AcDbLine
 10
167.706598137
 20
234.7415169519
 30
0.0
 11
173.5271667879
 21
234.7941851061
 31
0.0
  0
LINE
  5
1D5
330
1F
100
AcDbEntity
  8
0
  6
Continuous
 62
     7
370
    15
100
AcDbLine
 10
173.5271667879
 20
234.7941851061
 30
0.0
 11
173.5226535987
 21
235.2929621287
 31
0.0
  0
ARC
  5
1D6
330
1F
100
AcDbEntity
  8
0
  6
Continuous
 62
     7
370
    15
100
AcDbCircle
 10
161.1821342428
 20
238.5015026886
 30
0.0
 40
1.000000000000535
100
AcDbArc
 50
240.0041075099
 51
299.9972224764
  0
LINE
  5
1D7
330
1F
100
AcDbEntity
  8
0
  6
Continuous
 62
     7
370
    15
100
AcDbLine
 10
160.6821963381
 20
237.635441665
 30
0.0
 11
160.1321278889
 21
237.9529709746
 31
0.0
  0
ARC
  5
1D8
330
1F
100
AcDbEntity
  8
0
  6
Continuous
 62
     7
370
    15
100
AcDbCircle
 10
160.2821091079
 20
238.212789491
 30
0.0
 40
0.3000000000008578
100
AcDbArc
 50
180.5184324009
 51
240.0041075099
  0
ARC
  5
1D9
330
1F
100
AcDbEntity
  8
0
  6
Continuous
 62
     7
370
    15
100
AcDbCircle
 10
162.6665423259
 20
239.7208588827
 30
0.0
 40
0.2999999999996906
100
AcDbArc
 50
300.2591480139
 51
45.2558535975
  0
LINE
  5
1DA
330
1F
100
AcDbEntity
  8
0
  6
Continuous
 62
     7
370
    15
100
AcDbLine
 10
161.1787058231
 20
238.5055390936
 30
0.0
 11
162.8177162077
 21
239.4617321719
 31
0.0
  0
LINE
  5
1DB
330
1F
100
AcDbEntity
  8
0
  6
Continuous
 62
     7
370
    15
100
AcDbLine
 10
160.4267480601
 20
238.9351381738
 30
0.0
 11
161.1787058231
 21
238.5055390936
 31
0.0
  0
ARC
  5
1DC
330
1F
100
AcDbEntity
  8
0
  6
Continuous
 62
     7
370
    15
100
AcDbCircle
 10
160.2779299016
 20
238.6746517315
 30
0.0
 40
0.3000000000003746
100
AcDbArc
 50
60.2603316104
 51
180.5184324009
  0
LINE
  5
1DD
330
1F
100
AcDbEntity
  8
0
  6
Continuous
 62
     7
370
    15
100
AcDbLine
 10
159.9821211588
 20
238.2100751442
 30
0.0
 11
159.9779423144
 21
238.671937101
 31
0.0
  0
LINE
  5
1DE
330
1F
100
AcDbEntity
  8
0
  6
Continuous
 62
     7
370
    15
100
AcDbLine
 10
165.2789335515
 20
239.7118574758
 30
0.0
 11
161.6820921939
 21
237.6354528409
 31
0.0
  0
ARC
  5
1DF
330
1F
100
AcDbEntity
  8
0
  6
Continuous
 62
     7
370
    15
100
AcDbCircle
 10
165.4289206529
 20
239.452042789
 30
0.0
 40
0.3000000000001695
100
AcDbArc
 50
90.0
 51
119.9972224764
  0
LINE
  5
1E0
330
1F
100
AcDbEntity
  8
0
  6
Continuous
 62
     7
370
    15
100
AcDbLine
 10
168.98223253
 20
239.7520426479
 30
0.0
 11
165.4289202582
 21
239.7520426479
 31
0.0
  0
ARC
  5
1E1
330
1F
100
AcDbEntity
  8
0
  6
Continuous
 62
     7
370
    15
100
AcDbCircle
 10
169.2821435291
 20
239.7447450171
 30
0.0
 40
0.299999999999373
100
AcDbArc
 50
86.6958791474
 51
178.606090734
  0
ARC
  5
1E2
330
1F
100
AcDbEntity
  8
0
  6
Continuous
 62
     7
370
    15
100
AcDbCircle
 10
169.0227823074
 20
235.2522257153
 30
0.0
 40
4.799999768962768
100
AcDbArc
 50
68.3215692087
 51
86.6958791474
  0
ARC
  5
1E3
330
1F
100
AcDbEntity
  8
0
  6
Continuous
 62
     7
370
    15
100
AcDbCircle
 10
170.6850685041
 20
239.4339480961
 30
0.0
 40
0.3000000500680225
100
AcDbArc
 50
0.5184324009
 51
68.3215692087
  0
LINE
  5
1E4
330
1F
100
AcDbEntity
  8
0
  6
Continuous
 62
     7
370
    15
100
AcDbLine
 10
170.9862803858
 20
239.3013053392
 30
0.0
 11
170.9850566279
 21
239.4366623652
 31
0.0
  0
ARC
  5
1E5
330
1F
100
AcDbEntity
  8
0
  6
Continuous
 62
     7
370
    15
100
AcDbCircle
 10
169.0228375141
 20
235.2522451907
 30
0.0
 40
4.499999999999054
100
AcDbArc
 50
0.5184324009
 51
64.1306324409
  0
ARC
  5
1E6
330
1F
100
AcDbEntity
  8
0
  6
Continuous
 62
     7
370
    15
100
AcDbCircle
 10
162.7810289822
 20
240.4521544531
 30
0.0
 40
0.3000000000012781
100
AcDbArc
 50
91.5198147606
 51
225.2558535975
  0
LINE
  5
1E7
330
1F
100
AcDbEntity
  8
0
  6
Continuous
 62
     7
370
    15
100
AcDbLine
 10
162.8777250465
 20
239.9339360003
 30
0.0
 11
162.5698465671
 21
240.239076857
 31
0.0
  0
ARC
  5
1E8
330
1F
100
AcDbEntity
  8
0
  6
Continuous
 62
     7
370
    15
100
AcDbCircle
 10
169.0228372527
 20
235.2522740651
 30
0.0
 40
5.500000000000509
100
AcDbArc
 50
0.5184324009
 51
90.5184324009
  0
LINE
  5
1E9
330
1F
100
AcDbEntity
  8
0
  6
Continuous
 62
     7
370
    15
100
AcDbLine
 10
162.7730723288
 20
240.752049331
 30
0.0
 11
168.9730720412
 21
240.752049331
 31
0.0
  0
LINE
  5
1EA
330
1F
100
AcDbEntity
  8
0
  6
Continuous
 62
     7
370
    15
100
AcDbLine
 10
143.2852908786
 20
239.6020489563
 30
0.0
 11
141.5382303115
 21
239.6020489563
 31
0.0
  0
LINE
  5
1EB
330
1F
100
AcDbEntity
  8
0
  6
Continuous
 62
     7
370
    15
100
AcDbLine
 10
141.5382303115
 20
239.6020489563
 30
0.0
 11
141.5382303115
 21
241.1020487365
 31
0.0
  0
LINE
  5
1EC
330
1F
100
AcDbEntity
  8
0
  6
Continuous
 62
     7
370
    15
100
AcDbLine
 10
141.5382303115
 20
241.1020487365
 30
0.0
 11
144.9340736311
 21
241.1020487365
 31
0.0
  0
SPLINE
  5
1ED
330
1F
100
AcDbEntity
  8
0
  6
Continuous
 62
     7
370
    15
100
AcDbSpline
210
0.0
220
0.0
230
1.0
 70
     8
 71
     3
 72
    13
 73
     9
 74
     0
 42
0.000000001
 43
0.00000001
 40
0.0
 40
0.0
 40
0.0
 40
0.0
 40
0.071705225054033
 40
0.1739539098624176
 40
0.4015359533681256
 40
0.6661038875091716
 40
0.8800259109843532
 40
1.0
 40
1.0
 40
1.0
 40
1.0
 10
144.9340736310992
 20
241.1020487364931
 30
0.0
 10
144.9249707206789
 20
241.0990099165901
 30
0.0
 10
144.9028874365451
 20
241.0916378652074
 30
0.0
 10
144.6835601158301
 20
241.0099155207252
 30
0.0
 10
144.2926586469895
 20
240.8113441794043
 30
0.0
 10
143.8285470917109
 20
240.4350675250886
 30
0.0
 10
143.4808024777797
 20
239.9956648099971
 30
0.0
 10
143.3369715704382
 20
239.7060956712149
 30
0.0
 10
143.2852908786449
 20
239.6020489562852
 30
0.0
  0
LINE
  5
1EE
330
1F
100
AcDbEntity
  8
0
  6
Continuous
 62
     7
370
    15
100
AcDbLine
 10
141.5382303115
 20
224.5020489958
 30
0.0
 11
143.2852908786
 21
224.5020489958
 31
0.0
  0
SPLINE
  5
1EF
330
1F
100
AcDbEntity
  8
0
  6
Continuous
 62
     7
370
    15
100
AcDbSpline
210
0.0
220
0.0
230
1.0
 70
     8
 71
     3
 72
    13
 73
     9
 74
     0
 42
0.000000001
 43
0.00000001
 40
0.0
 40
0.0
 40
0.0
 40
0.0
 40
0.2051414845596086
 40
0.4613696094038612
 40
0.7234912529314264
 40
0.8393923849677459
 40
0.9356321210499534
 40
0.9999999999999999
 40
0.9999999999999999
 40
0.9999999999999999
 40
0.9999999999999999
 10
143.2852908786449
 20
224.5020489957733
 30
0.0
 10
143.3786772699431
 20
224.3261286982385
 30
0.0
 10
143.5887061822782
 20
223.9304784516094
 30
0.0
 10
144.047012949798
 20
223.4688448288306
 30
0.0
 10
144.4751939544598
 20
223.1946602005821
 30
0.0
 10
144.7646915102871
 20
223.0634485478118
 30
0.0
 10
144.9086529422257
 20
223.0105450654409
 30
0.0
 10
144.9268005019451
 20
223.0044796360434
 30
0.0
 10
144.9340736310992
 20
223.0020487499041
 30
0.0
  0
LINE
  5
1F0
330
1F
100
AcDbEntity
  8
0
  6
Continuous
 62
     7
370
    15
100
AcDbLine
 10
144.9340736311
 20
223.0020487499
 30
0.0
 11
141.5382303115
 21
223.0020487499
 31
0.0
  0
LINE
  5
1F1
330
1F
100
AcDbEntity
  8
0
  6
Continuous
 62
     7
370
    15
100
AcDbLine
 10
141.5382303115
 20
223.0020487499
 30
0.0
 11
141.5382303115
 21
224.5020489958
 31
0.0
  0
LINE
  5
1F2
330
1F
100
AcDbEntity
  8
0
  6
Continuous
 62
     7
370
    15
100
AcDbLine
 10
141.5382303115
 20
239.6020489563
 30
0.0
 11
141.5382303115
 21
224.5020489958
 31
0.0
  0
ARC
  5
1F3
330
1F
100
AcDbEntity
  8
0
  6
Continuous
 62
     7
370
    15
100
AcDbCircle
 10
145.8382305677
 20
238.4520489174
 30
0.0
 40
2.80000000000004
100
AcDbArc
 50
155.7502869869
 51
270.0
  0
LINE
  5
1F4
330
1F
100
AcDbEntity
  8
0
  6
Continuous
 62
     7
370
    15
100
AcDbLine
 10
149.1382306725
 20
235.6520489142
 30
0.0
 11
145.8382304575
 21
235.6520489142
 31
0.0
  0
LINE
  5
1F5
330
1F
100
AcDbEntity
  8
0
  6
Continuous
 62
     7
370
    15
100
AcDbLine
 10
145.8382304575
 20
228.452048805
 30
0.0
 11
149.1382306725
 21
228.452048805
 31
0.0
  0
ARC
  5
1F6
330
1F
100
AcDbEntity
  8
0
  6
Continuous
 62
     7
370
    15
100
AcDbCircle
 10
145.8382305677
 20
225.6520489174
 30
0.0
 40
2.800000000000011
100
AcDbArc
 50
90.0
 51
204.2497130131
  0
LINE
  5
1F7
330
1F
100
AcDbEntity
  8
0
  6
Continuous
 62
     7
370
    15
100
AcDbLine
 10
149.1382306725
 20
228.452048805
 30
0.0
 11
149.1382306725
 21
235.6520489142
 31
0.0
  0
LINE
  5
1F8
330
1F
100
AcDbEntity
  8
0
  6
Continuous
 62
     7
370
    15
100
AcDbLine
 10
139.7911697444
 20
224.5020489958
 30
0.0
 11
141.5382303115
 21
224.5020489958
 31
0.0
  0
LINE
  5
1F9
330
1F
100
AcDbEntity
  8
0
  6
Continuous
 62
     7
370
    15
100
AcDbLine
 10
141.5382303115
 20
223.0020487499
 30
0.0
 11
138.1423879232
 21
223.0020487499
 31
0.0
  0
SPLINE
  5
1FA
330
1F
100
AcDbEntity
  8
0
  6
Continuous
 62
     7
370
    15
100
AcDbSpline
210
0.0
220
0.0
230
1.0
 70
     8
 71
     3
 72
    13
 73
     9
 74
     0
 42
0.000000001
 43
0.00000001
 40
0.0
 40
0.0
 40
0.0
 40
0.0
 40
0.0717051664074968
 40
0.1739539167214764
 40
0.4015358575518086
 40
0.6661039793238789
 40
0.8800261971430193
 40
1.0
 40
1.0
 40
1.0
 40
1.0
 10
138.1423879232321
 20
223.0020487499041
 30
0.0
 10
138.1514904723644
 20
223.0050875154362
 30
0.0
 10
138.17357289896
 20
223.0124594412371
 30
0.0
 10
138.3929005401715
 20
223.0941837999425
 30
0.0
 10
138.783802408479
 20
223.2927524235815
 30
0.0
 10
139.2479130089771
 20
223.6690315117948
 30
0.0
 10
139.5956592309564
 20
224.1084329703872
 30
0.0
 10
139.7394894197953
 20
224.3980023969855
 30
0.0
 10
139.7911697443638
 20
224.5020489957733
 30
0.0
  0
ARC
  5
1FB
330
1F
100
AcDbEntity
  8
0
  6
Continuous
 62
     7
370
    15
100
AcDbCircle
 10
137.2382305677
 20
238.4520489174
 30
0.0
 40
2.800000000000011
100
AcDbArc
 50
270.0
 51
24.2497130131
  0
LINE
  5
1FC
330
1F
100
AcDbEntity
  8
0
  6
Continuous
 62
     7
370
    15
100
AcDbLine
 10
141.5382303115
 20
239.6020489563
 30
0.0
 11
139.7911697444
 21
239.6020489563
 31
0.0
  0
ARC
  5
1FD
330
1F
100
AcDbEntity
  8
0
  6
Continuous
 62
     7
370
    15
100
AcDbCircle
 10
137.2382305677
 20
225.6520489174
 30
0.0
 40
2.799999999999985
100
AcDbArc
 50
335.7502869869
 51
90.0
  0
LINE
  5
1FE
330
1F
100
AcDbEntity
  8
0
  6
Continuous
 62
     7
370
    15
100
AcDbLine
 10
133.9382311147
 20
228.452048805
 30
0.0
 11
137.2382310968
 21
228.452048805
 31
0.0
  0
LINE
  5
1FF
330
1F
100
AcDbEntity
  8
0
  6
Continuous
 62
     7
370
    15
100
AcDbLine
 10
133.9382311147
 20
235.6520489142
 30
0.0
 11
133.9382311147
 21
228.452048805
 31
0.0
  0
LINE
  5
200
330
1F
100
AcDbEntity
  8
0
  6
Continuous
 62
     7
370
    15
100
AcDbLine
 10
137.2382310968
 20
235.6520489142
 30
0.0
 11
133.9382311147
 21
235.6520489142
 31
0.0
  0
LINE
  5
201
330
1F
100
AcDbEntity
  8
0
  6
Continuous
 62
     7
370
    15
100
AcDbLine
 10
138.1423879232
 20
241.1020487365
 30
0.0
 11
141.5382303115
 21
241.1020487365
 31
0.0
  0
SPLINE
  5
202
330
1F
100
AcDbEntity
  8
0
  6
Continuous
 62
     7
370
    15
100
AcDbSpline
210
0.0
220
0.0
230
1.0
 70
     8
 71
     3
 72
    13
 73
     9
 74
     0
 42
0.000000001
 43
0.00000001
 40
0.0
 40
0.0
 40
0.0
 40
0.0
 40
0.2051414952370826
 40
0.4613698641425621
 40
0.7234914073365848
 40
0.8393923586057752
 40
0.9356321104846752
 40
1.0
 40
1.0
 40
1.0
 40
1.0
 10
139.7911697443638
 20
239.6020489562852
 30
0.0
 10
139.6977837611315
 20
239.7779694577918
 30
0.0
 10
139.4877556615173
 20
240.1736203610191
 30
0.0
 10
139.0294478716696
 20
240.6352535381764
 30
0.0
 10
138.6012661854684
 20
240.9094370171784
 30
0.0
 10
138.3117700911783
 20
241.040649039493
 30
0.0
 10
138.1678085904224
 20
241.0935524119645
 30
0.0
 10
138.1496610461823
 20
241.0996178477812
 30
0.0
 10
138.1423879232321
 20
241.1020487364931
 30
0.0
  0
ARC
  5
203
330
1F
100
AcDbEntity
  8
0
  6
Continuous
 62
     7
370
    15
100
AcDbCircle
 10
154.8846771474
 20
229.8284538536
 30
0.0
 40
0.3999999999959591
100
AcDbArc
 50
180.0
 51
235.4421341649
  0
LINE
  5
204
330
1F
100
AcDbEntity
  8
0
  6
Continuous
 62
     7
370
    15
100
AcDbLine
 10
154.4846772034
 20
230.6520489095
 30
0.0
 11
154.4846772034
 21
229.8284539305
 31
0.0
  0
ARC
  5
205
330
1F
100
AcDbEntity
  8
0
  6
Continuous
 62
     7
370
    15
100
AcDbCircle
 10
154.8846771474
 20
230.6520489171
 30
0.0
 40
0.4000000000008522
100
AcDbArc
 50
42.4307642827
 51
180.0
  0
ARC
  5
206
330
1F
100
AcDbEntity
  8
0
  6
Continuous
 62
     7
370
    15
100
AcDbCircle
 10
156.4162204868
 20
232.0520489169
 30
0.0
 40
1.67500000000003
100
AcDbArc
 50
222.4307642826
 51
252.6320200803
  0
LINE
  5
207
330
1F
100
AcDbEntity
  8
0
  6
Continuous
 62
     7
370
    15
100
AcDbLine
 10
155.9162205834
 20
230.152048944
 30
0.0
 11
155.9162205834
 21
230.4534166636
 31
0.0
  0
LINE
  5
208
330
1F
100
AcDbEntity
  8
0
  6
Continuous
 62
     7
370
    15
100
AcDbLine
 10
156.9162202817
 20
230.152048944
 30
0.0
 11
155.9162205834
 21
230.152048944
 31
0.0
  0
LINE
  5
209
330
1F
100
AcDbEntity
  8
0
  6
Continuous
 62
     7
370
    15
100
AcDbLine
 10
156.9162202817
 20
230.4534166636
 30
0.0
 11
156.9162202817
 21
230.152048944
 31
0.0
  0
ARC
  5
20A
330
1F
100
AcDbEntity
  8
0
  6
Continuous
 62
     7
370
    15
100
AcDbCircle
 10
156.4162204868
 20
232.0520489169
 30
0.0
 40
1.675000000000275
100
AcDbArc
 50
287.367979904
 51
342.6320199722
  0
LINE
  5
20B
330
1F
100
AcDbEntity
  8
0
  6
Continuous
 62
     7
370
    15
100
AcDbLine
 10
158.3162206974
 20
231.5520488941
 30
0.0
 11
158.0148526285
 21
231.5520488941
 31
0.0
  0
LINE
  5
20C
330
1F
100
AcDbEntity
  8
0
  6
Continuous
 62
     7
370
    15
100
AcDbLine
 10
158.3162206974
 20
232.5520489125
 30
0.0
 11
158.3162206974
 21
231.5520488941
 31
0.0
  0
LINE
  5
20D
330
1F
100
AcDbEntity
  8
0
  6
Continuous
 62
     7
370
    15
100
AcDbLine
 10
158.0148526285
 20
232.5520489125
 30
0.0
 11
158.3162206974
 21
232.5520489125
 31
0.0
  0
ARC
  5
20E
330
1F
100
AcDbEntity
  8
0
  6
Continuous
 62
     7
370
    15
100
AcDbCircle
 10
156.4162204868
 20
232.0520489169
 30
0.0
 40
1.67499999999951
100
AcDbArc
 50
17.367979796
 51
72.632020096
  0
LINE
  5
20F
330
1F
100
AcDbEntity
  8
0
  6
Continuous
 62
     7
370
    15
100
AcDbLine
 10
156.9162202817
 20
233.9520488917
 30
0.0
 11
156.9162202817
 21
233.650681172
 31
0.0
  0
LINE
  5
210
330
1F
100
AcDbEntity
  8
0
  6
Continuous
 62
     7
370
    15
100
AcDbLine
 10
155.9162205834
 20
233.9520488917
 30
0.0
 11
156.9162202817
 21
233.9520488917
 31
0.0
  0
LINE
  5
211
330
1F
100
AcDbEntity
  8
0
  6
Continuous
 62
     7
370
    15
100
AcDbLine
 10
155.9162205834
 20
233.650681172
 30
0.0
 11
155.9162205834
 21
233.9520488917
 31
0.0
  0
ARC
  5
212
330
1F
100
AcDbEntity
  8
0
  6
Continuous
 62
     7
370
    15
100
AcDbCircle
 10
156.4162204868
 20
232.0520489169
 30
0.0
 40
1.675000000000085
100
AcDbArc
 50
107.3679799197
 51
137.5692357174
  0
ARC
  5
213
330
1F
100
AcDbEntity
  8
0
  6
Continuous
 62
     7
370
    15
100
AcDbCircle
 10
154.8846771474
 20
233.4520489168
 30
0.0
 40
0.4000000000000069
100
AcDbArc
 50
180.0
 51
317.5692357176
  0
LINE
  5
214
330
1F
100
AcDbEntity
  8
0
  6
Continuous
 62
     7
370
    15
100
AcDbLine
 10
154.4846772034
 20
234.2756440215
 30
0.0
 11
154.4846772034
 21
233.4520489261
 31
0.0
  0
ARC
  5
215
330
1F
100
AcDbEntity
  8
0
  6
Continuous
 62
     7
370
    15
100
AcDbCircle
 10
154.8846771474
 20
234.2756439779
 30
0.0
 40
0.3999999999965758
100
AcDbArc
 50
124.557865863
 51
180.0
  0
ARC
  5
216
330
1F
100
AcDbEntity
  8
0
  6
Continuous
 62
     7
370
    15
100
AcDbCircle
 10
156.4162204868
 20
232.0520489169
 30
0.0
 40
3.099999999145245
100
AcDbArc
 50
64.6230664734
 51
124.557865863
  0
ARC
  5
217
330
1F
100
AcDbEntity
  8
0
  6
Continuous
 62
     7
370
    15
100
AcDbCircle
 10
157.9162204865
 20
235.2143265763
 30
0.0
 40
0.3999999999999488
100
AcDbArc
 50
244.6230664734
 51
359.9999999994
  0
LINE
  5
218
330
1F
100
AcDbEntity
  8
0
  6
Continuous
 62
     7
370
    15
100
AcDbLine
 10
158.3162206974
 20
239.2020487045
 30
0.0
 11
158.3162206974
 21
235.2143266056
 31
0.0
  0
ARC
  5
219
330
1F
100
AcDbEntity
  8
0
  6
Continuous
 62
     7
370
    15
100
AcDbCircle
 10
157.9162204865
 20
239.2020489169
 30
0.0
 40
0.3999999999999488
100
AcDbArc
 50
359.9999999992
 51
89.9999999999
  0
LINE
  5
21A
330
1F
100
AcDbEntity
  8
0
  6
Continuous
 62
     7
370
    15
100
AcDbLine
 10
150.8166301813
 20
239.6020489563
 30
0.0
 11
157.9162204456
 21
239.6020489563
 31
0.0
  0
LINE
  5
21B
330
1F
100
AcDbEntity
  8
0
  6
Continuous
 62
     7
370
    15
100
AcDbLine
 10
150.4166301623
 20
224.9020487819
 30
0.0
 11
150.4166301623
 21
239.2020487045
 31
0.0
  0
ARC
  5
21C
330
1F
100
AcDbEntity
  8
0
  6
Continuous
 62
     7
370
    15
100
AcDbCircle
 10
150.8166301316
 20
224.9020489169
 30
0.0
 40
0.4000000000004036
100
AcDbArc
 50
180.0000000001
 51
270.0
  0
LINE
  5
21D
330
1F
100
AcDbEntity
  8
0
  6
Continuous
 62
     7
370
    15
100
AcDbLine
 10
157.9162204456
 20
224.5020489958
 30
0.0
 11
150.8166301813
 21
224.5020489958
 31
0.0
  0
ARC
  5
21E
330
1F
100
AcDbEntity
  8
0
  6
Continuous
 62
     7
370
    15
100
AcDbCircle
 10
157.9162204864
 20
224.9020489169
 30
0.0
 40
0.399999999998613
100
AcDbArc
 50
270.0
 51
0.0
  0
LINE
  5
21F
330
1F
100
AcDbEntity
  8
0
  6
Continuous
 62
     7
370
    15
100
AcDbLine
 10
158.3162206974
 20
228.8897713464
 30
0.0
 11
158.3162206974
 21
224.9020487819
 31
0.0
  0
ARC
  5
220
330
1F
100
AcDbEntity
  8
0
  6
Continuous
 62
     7
370
    15
100
AcDbCircle
 10
157.9162204864
 20
228.8897712553
 30
0.0
 40
0.3999999999999488
100
AcDbArc
 50
0.0000000007
 51
115.3769335095
  0
ARC
  5
221
330
1F
100
AcDbEntity
  8
0
  6
Continuous
 62
     7
370
    15
100
AcDbCircle
 10
156.4162204868
 20
232.0520489169
 30
0.0
 40
3.100000001156118
100
AcDbArc
 50
235.4421341662
 51
295.3769335094
  0
LINE
  5
222
330
1F
100
AcDbEntity
  8
0
  6
Continuous
 62
     7
370
    15
100
AcDbLine
 10
162.4661763948
 20
225.7520920415
 30
0.0
 11
162.4661763948
 21
224.9020487819
 31
0.0
  0
ARC
  5
223
330
1F
100
AcDbEntity
  8
0
  6
Continuous
 62
     7
370
    15
100
AcDbCircle
 10
162.8661764102
 20
224.9020489171
 30
0.0
 40
0.4000000000008299
100
AcDbArc
 50
180.0
 51
269.9999999982
  0
LINE
  5
224
330
1F
100
AcDbEntity
  8
0
  6
Continuous
 62
     7
370
    15
100
AcDbLine
 10
162.8661766466
 20
224.5020489958
 30
0.0
 11
169.1661761891
 21
224.5020489958
 31
0.0
  0
LINE
  5
225
330
1F
100
AcDbEntity
  8
0
  6
Continuous
 62
     7
370
    15
100
AcDbLine
 10
169.1661761891
 20
224.5020489958
 30
0.0
 11
169.3661758494
 21
224.3020493355
 31
0.0
  0
LINE
  5
226
330
1F
100
AcDbEntity
  8
0
  6
Continuous
 62
     7
370
    15
100
AcDbLine
 10
169.3661758494
 20
224.3020493355
 30
0.0
 11
169.5661755096
 21
224.5020489958
 31
0.0
  0
LINE
  5
227
330
1F
100
AcDbEntity
  8
0
  6
Continuous
 62
     7
370
    15
100
AcDbLine
 10
169.5661755096
 20
224.5020489958
 30
0.0
 11
170.166176353
 21
224.5020489958
 31
0.0
  0
LINE
  5
228
330
1F
100
AcDbEntity
  8
0
  6
Continuous
 62
     7
370
    15
100
AcDbLine
 10
170.166176353
 20
224.5020489958
 30
0.0
 11
170.3661760133
 21
224.3020493355
 31
0.0
  0
LINE
  5
229
330
1F
100
AcDbEntity
  8
0
  6
Continuous
 62
     7
370
    15
100
AcDbLine
 10
170.3661760133
 20
224.3020493355
 30
0.0
 11
170.5661756735
 21
224.5020489958
 31
0.0
  0
LINE
  5
22A
330
1F
100
AcDbEntity
  8
0
  6
Continuous
 62
     7
370
    15
100
AcDbLine
 10
170.5661756735
 20
224.5020489958
 30
0.0
 11
171.1661765169
 21
224.5020489958
 31
0.0
  0
LINE
  5
22B
330
1F
100
AcDbEntity
  8
0
  6
Continuous
 62
     7
370
    15
100
AcDbLine
 10
171.1661765169
 20
224.5020489958
 30
0.0
 11
171.3661761772
 21
224.3020493355
 31
0.0
  0
LINE
  5
22C
330
1F
100
AcDbEntity
  8
0
  6
Continuous
 62
     7
370
    15
100
AcDbLine
 10
171.3661761772
 20
224.3020493355
 30
0.0
 11
171.5661758374
 21
224.5020489958
 31
0.0
  0
LINE
  5
22D
330
1F
100
AcDbEntity
  8
0
  6
Continuous
 62
     7
370
    15
100
AcDbLine
 10
171.5661758374
 20
224.5020489958
 30
0.0
 11
172.1661766809
 21
224.5020489958
 31
0.0
  0
LINE
  5
22E
330
1F
100
AcDbEntity
  8
0
  6
Continuous
 62
     7
370
    15
100
AcDbLine
 10
172.1661766809
 20
224.5020489958
 30
0.0
 11
172.3661763411
 21
224.3020493355
 31
0.0
  0
LINE
  5
22F
330
1F
100
AcDbEntity
  8
0
  6
Continuous
 62
     7
370
    15
100
AcDbLine
 10
172.3661763411
 20
224.3020493355
 30
0.0
 11
172.5661760014
 21
224.5020489958
 31
0.0
  0
LINE
  5
230
330
1F
100
AcDbEntity
  8
0
  6
Continuous
 62
     7
370
    15
100
AcDbLine
 10
172.5661760014
 20
224.5020489958
 30
0.0
 11
173.1661768448
 21
224.5020489958
 31
0.0
  0
LINE
  5
231
330
1F
100
AcDbEntity
  8
0
  6
Continuous
 62
     7
370
    15
100
AcDbLine
 10
173.1661768448
 20
224.5020489958
 30
0.0
 11
173.366176505
 21
224.3020493355
 31
0.0
  0
LINE
  5
232
330
1F
100
AcDbEntity
  8
0
  6
Continuous
 62
     7
370
    15
100
AcDbLine
 10
173.366176505
 20
224.3020493355
 30
0.0
 11
173.5661761653
 21
224.5020489958
 31
0.0
  0
LINE
  5
233
330
1F
100
AcDbEntity
  8
0
  6
Continuous
 62
     7
370
    15
100
AcDbLine
 10
173.5661761653
 20
224.5020489958
 30
0.0
 11
174.0661771786
 21
224.5020489958
 31
0.0
  0
ARC
  5
234
330
1F
100
AcDbEntity
  8
0
  6
Continuous
 62
     7
370
    15
100
AcDbCircle
 10
174.0661764107
 20
224.1020489168
 30
0.0
 40
0.3999999999999773
100
AcDbArc
 50
0.0000000653
 51
89.9999999984
  0
ARC
  5
235
330
1F
100
AcDbEntity
  8
0
  6
Continuous
 62
     7
370
    15
100
AcDbCircle
 10
173.7161764113
 20
224.1020489164
 30
0.0
 40
0.7499999994901998
100
AcDbArc
 50
270.0
 51
0.0000000653
  0
LINE
  5
236
330
1F
100
AcDbEntity
  8
0
  6
Continuous
 62
     7
370
    15
100
AcDbLine
 10
173.7161768418
 20
223.3520490867
 30
0.0
 11
145.5661762323
 21
223.3520490867
 31
0.0
  0
ARC
  5
237
330
1F
100
AcDbEntity
  8
0
  6
Continuous
 62
     7
370
    15
100
AcDbCircle
 10
145.566176411
 20
225.8520489169
 30
0.0
 40
2.500000000000171
100
AcDbArc
 50
90.0
 51
269.9999999998
  0
LINE
  5
238
330
1F
100
AcDbEntity
  8
0
  6
Continuous
 62
     7
370
    15
100
AcDbLine
 10
145.5661762323
 20
228.3520489749
 30
0.0
 11
145.8666302081
 21
228.3520489749
 31
0.0
  0
ARC
  5
239
330
1F
100
AcDbEntity
  8
0
  6
Continuous
 62
     7
370
    15
100
AcDbCircle
 10
145.8666301316
 20
227.9520489169
 30
0.0
 40
0.3999999999999773
100
AcDbArc
 50
359.9999999999
 51
90.0
  0
LINE
  5
23A
330
1F
100
AcDbEntity
  8
0
  6
Continuous
 62
     7
370
    15
100
AcDbLine
 10
146.2666299943
 20
227.9520487231
 30
0.0
 11
146.2666299943
 21
227.602048852
 31
0.0
  0
ARC
  5
23B
330
1F
100
AcDbEntity
  8
0
  6
Continuous
 62
     7
370
    15
100
AcDbCircle
 10
145.8666301316
 20
227.6020489169
 30
0.0
 40
0.4000000000004036
100
AcDbArc
 50
270.0000000001
 51
0.0
  0
LINE
  5
23C
330
1F
100
AcDbEntity
  8
0
  6
Continuous
 62
     7
370
    15
100
AcDbLine
 10
145.8666302081
 20
227.2020490658
 30
0.0
 11
145.5661762323
 21
227.2020490658
 31
0.0
  0
ARC
  5
23D
330
1F
100
AcDbEntity
  8
0
  6
Continuous
 62
     7
370
    15
100
AcDbCircle
 10
145.566176411
 20
225.8520489169
 30
0.0
 40
1.350000000000165
100
AcDbArc
 50
90.0
 51
270.0
  0
LINE
  5
23E
330
1F
100
AcDbEntity
  8
0
  6
Continuous
 62
     7
370
    15
100
AcDbLine
 10
145.5661762323
 20
224.5020489958
 30
0.0
 11
148.8666302342
 21
224.5020489958
 31
0.0
  0
ARC
  5
23F
330
1F
100
AcDbEntity
  8
0
  6
Continuous
 62
     7
370
    15
100
AcDbCircle
 10
148.8666301316
 20
224.9020489169
 30
0.0
 40
0.3999999999988404
100
AcDbArc
 50
269.9999999965
 51
0.0
  0
LINE
  5
240
330
1F
100
AcDbEntity
  8
0
  6
Continuous
 62
     7
370
    15
100
AcDbLine
 10
149.2666300204
 20
224.9020487819
 30
0.0
 11
149.2666300204
 21
239.2020487045
 31
0.0
  0
ARC
  5
241
330
1F
100
AcDbEntity
  8
0
  6
Continuous
 62
     7
370
    15
100
AcDbCircle
 10
148.8666301316
 20
239.2020489168
 30
0.0
 40
0.3999999999999488
100
AcDbArc
 50
359.9999999999
 51
89.9999999994
  0
LINE
  5
242
330
1F
100
AcDbEntity
  8
0
  6
Continuous
 62
     7
370
    15
100
AcDbLine
 10
148.8666302342
 20
239.6020489563
 30
0.0
 11
145.5661762323
 21
239.6020489563
 31
0.0
  0
ARC
  5
243
330
1F
100
AcDbEntity
  8
0
  6
Continuous
 62
     7
370
    15
100
AcDbCircle
 10
145.566176411
 20
238.2520489168
 30
0.0
 40
1.349999999999966
100
AcDbArc
 50
89.9999999997
 51
269.9999999998
  0
LINE
  5
244
330
1F
100
AcDbEntity
  8
0
  6
Continuous
 62
     7
370
    15
100
AcDbLine
 10
145.5661762323
 20
236.9020488862
 30
0.0
 11
145.8666302081
 21
236.9020488862
 31
0.0
  0
ARC
  5
245
330
1F
100
AcDbEntity
  8
0
  6
Continuous
 62
     7
370
    15
100
AcDbCircle
 10
145.8666301316
 20
236.5020489168
 30
0.0
 40
0.3999999999999773
100
AcDbArc
 50
359.9999999999
 51
90.0
  0
LINE
  5
246
330
1F
100
AcDbEntity
  8
0
  6
Continuous
 62
     7
370
    15
100
AcDbLine
 10
146.2666299943
 20
236.5020491001
 30
0.0
 11
146.2666299943
 21
236.1520489961
 31
0.0
  0
ARC
  5
247
330
1F
100
AcDbEntity
  8
0
  6
Continuous
 62
     7
370
    15
100
AcDbCircle
 10
145.8666301316
 20
236.1520489168
 30
0.0
 40
0.4000000000001762
100
AcDbArc
 50
270.0
 51
0.0000000001
  0
LINE
  5
248
330
1F
100
AcDbEntity
  8
0
  6
Continuous
 62
     7
370
    15
100
AcDbLine
 10
145.8666302081
 20
235.7520489771
 30
0.0
 11
145.5661762323
 21
235.7520489771
 31
0.0
  0
ARC
  5
249
330
1F
100
AcDbEntity
  8
0
  6
Continuous
 62
     7
370
    15
100
AcDbCircle
 10
145.566176411
 20
238.2520489168
 30
0.0
 40
2.499999999999943
100
AcDbArc
 50
89.9999999997
 51
269.9999999999
  0
LINE
  5
24A
330
1F
100
AcDbEntity
  8
0
  6
Continuous
 62
     7
370
    15
100
AcDbLine
 10
145.5661762323
 20
240.752049331
 30
0.0
 11
162.0661761429
 21
240.752049331
 31
0.0
  0
ARC
  5
24B
330
1F
100
AcDbEntity
  8
0
  6
Continuous
 62
     7
370
    15
100
AcDbCircle
 10
162.0661764102
 20
240.3520489168
 30
0.0
 40
0.399999999998613
100
AcDbArc
 50
0.0
 51
89.9999999996
  0
LINE
  5
24C
330
1F
100
AcDbEntity
  8
0
  6
Continuous
 62
     7
370
    15
100
AcDbLine
 10
162.4661763948
 20
240.3520490792
 30
0.0
 11
162.4661763948
 21
239.3252389324
 31
0.0
  0
ARC
  5
24D
330
1F
100
AcDbEntity
  8
0
  6
Continuous
 62
     7
370
    15
100
AcDbCircle
 10
162.0661764102
 20
239.325238858
 30
0.0
 40
0.3999999999999998
100
AcDbArc
 50
299.9999999985
 51
0.0
  0
LINE
  5
24E
330
1F
100
AcDbEntity
  8
0
  6
Continuous
 62
     7
370
    15
100
AcDbLine
 10
162.2661767345
 20
238.9788288441
 30
0.0
 11
161.9661763128
 21
238.8056238
 31
0.0
  0
ARC
  5
24F
330
1F
100
AcDbEntity
  8
0
  6
Continuous
 62
     7
370
    15
100
AcDbCircle
 10
161.7661764102
 20
239.1520337772
 30
0.0
 40
0.400000000000621
100
AcDbArc
 50
180.0
 51
299.9999999986
  0
LINE
  5
250
330
1F
100
AcDbEntity
  8
0
  6
Continuous
 62
     7
370
    15
100
AcDbLine
 10
161.3661764007
 20
239.1520338882
 30
0.0
 11
161.3661764007
 21
239.2020487045
 31
0.0
  0
LINE
  5
251
330
1F
100
AcDbEntity
  8
0
  6
Continuous
 62
     7
370
    15
100
AcDbLine
 10
160.9661761489
 20
239.6020489563
 30
0.0
 11
159.8662203927
 21
239.6020489563
 31
0.0
  0
ARC
  5
252
330
1F
100
AcDbEntity
  8
0
  6
Continuous
 62
     7
370
    15
100
AcDbCircle
 10
159.8662204863
 20
239.2020489169
 30
0.0
 40
0.4000000000021657
100
AcDbArc
 50
90.0000000003
 51
179.9999999998
  0
LINE
  5
253
330
1F
100
AcDbEntity
  8
0
  6
Continuous
 62
     7
370
    15
100
AcDbLine
 10
159.4662206065
 20
239.2020487045
 30
0.0
 11
159.4662206065
 21
224.9020487819
 31
0.0
  0
ARC
  5
254
330
1F
100
AcDbEntity
  8
0
  6
Continuous
 62
     7
370
    15
100
AcDbCircle
 10
159.8662204863
 20
224.9020489171
 30
0.0
 40
0.3999999999999488
100
AcDbArc
 50
180.0000000001
 51
270.0000000001
  0
LINE
  5
255
330
1F
100
AcDbEntity
  8
0
  6
Continuous
 62
     7
370
    15
100
AcDbLine
 10
159.8662203927
 20
224.5020489958
 30
0.0
 11
160.9661761489
 21
224.5020489958
 31
0.0
  0
ARC
  5
256
330
1F
100
AcDbEntity
  8
0
  6
Continuous
 62
     7
370
    15
100
AcDbCircle
 10
160.9661764102
 20
224.9020489171
 30
0.0
 40
0.3999999999990678
100
AcDbArc
 50
269.9999999997
 51
0.0
  0
LINE
  5
257
330
1F
100
AcDbEntity
  8
0
  6
Continuous
 62
     7
370
    15
100
AcDbLine
 10
161.3661764007
 20
224.9020487819
 30
0.0
 11
161.3661764007
 21
225.7520920415
 31
0.0
  0
ARC
  5
258
330
1F
100
AcDbEntity
  8
0
  6
Continuous
 62
     7
370
    15
100
AcDbCircle
 10
161.7661764102
 20
225.7520920078
 30
0.0
 40
0.4000000000021657
100
AcDbArc
 50
90.0000000002
 51
180.0
  0
LINE
  5
259
330
1F
100
AcDbEntity
  8
0
  6
Continuous
 62
     7
370
    15
100
AcDbLine
 10
161.7661766525
 20
226.1520918277
 30
0.0
 11
162.0661761429
 21
226.1520918277
 31
0.0
  0
ARC
  5
25A
330
1F
100
AcDbEntity
  8
0
  6
Continuous
 62
     7
370
    15
100
AcDbCircle
 10
162.0661764102
 20
225.7520920078
 30
0.0
 40
0.3999999999999488
100
AcDbArc
 50
0.0
 51
89.9999999999
  0
ARC
  5
25B
330
1F
100
AcDbEntity
  8
0
  6
Continuous
 62
     7
370
    15
100
AcDbCircle
 10
150.8166301316
 20
239.2020489169
 30
0.0
 40
0.400000000001512
100
AcDbArc
 50
90.0000000002
 51
179.9999999998
  0
ARC
  5
25C
330
1F
100
AcDbEntity
  8
0
  6
Continuous
 62
     7
370
    15
100
AcDbCircle
 10
160.9661764102
 20
239.2020489169
 30
0.0
 40
0.3999999999999773
100
AcDbArc
 50
0.0
 51
90.0
  0
LINE
  5
25D
330
1F
100
AcDbEntity
  8
0
  6
Continuous
 62
     7
370
    15
100
AcDbLine
 10
130.3382316422
 20
252.5520488438
 30
0.0
 11
130.3382297795
 21
245.5520486277
 31
0.0
  0
ARC
  5
25E
330
1F
100
AcDbEntity
  8
0
  6
Continuous
 62
     7
370
    15
100
AcDbCircle
 10
129.9382307478
 20
252.5520489177
 30
0.0
 40
0.400000000053268
100
AcDbArc
 50
359.9999991352
 51
90.0000000001
  0
LINE
  5
25F
330
1F
100
AcDbEntity
  8
0
  6
Continuous
 62
     7
370
    15
100
AcDbLine
 10
119.1382301789
 20
252.9520481643
 30
0.0
 11
129.938230459
 21
252.9520481643
 31
0.0
  0
ARC
  5
260
330
1F
100
AcDbEntity
  8
0
  6
Continuous
 62
     7
370
    15
100
AcDbCircle
 10
119.1382307661
 20
252.5520489177
 30
0.0
 40
0.4000000000483794
100
AcDbArc
 50
90.0000000001
 51
180.0000000019
  0
LINE
  5
261
330
1F
100
AcDbEntity
  8
0
  6
Continuous
 62
     7
370
    15
100
AcDbLine
 10
118.7382308584
 20
249.552048352
 30
0.0
 11
118.7382308584
 21
252.5520488438
 31
0.0
  0
LINE
  5
262
330
1F
100
AcDbEntity
  8
0
  6
Continuous
 62
     7
370
    15
100
AcDbLine
 10
117.9382322174
 20
249.1520490315
 30
0.0
 11
118.3382315379
 21
249.1520490315
 31
0.0
  0
ARC
  5
263
330
1F
100
AcDbEntity
  8
0
  6
Continuous
 62
     7
370
    15
100
AcDbCircle
 10
117.9382307656
 20
249.5520489176
 30
0.0
 40
0.3999999999164743
100
AcDbArc
 50
180.0000000001
 51
270.0
  0
LINE
  5
264
330
1F
100
AcDbEntity
  8
0
  6
Continuous
 62
     7
370
    15
100
AcDbLine
 10
117.5382291716
 20
253.7520486679
 30
0.0
 11
117.5382291716
 21
249.552048352
 31
0.0
  0
ARC
  5
265
330
1F
100
AcDbEntity
  8
0
  6
Continuous
 62
     7
370
    15
100
AcDbCircle
 10
117.9382307657
 20
253.7520489171
 30
0.0
 40
0.4000000000017394
100
AcDbArc
 50
90.0000000027
 51
179.9999999998
  0
LINE
  5
266
330
1F
100
AcDbEntity
  8
0
  6
Continuous
 62
     7
370
    15
100
AcDbLine
 10
131.1382302832
 20
254.1520479885
 30
0.0
 11
117.9382322174
 21
254.1520479885
 31
0.0
  0
ARC
  5
267
330
1F
100
AcDbEntity
  8
0
  6
Continuous
 62
     7
370
    15
100
AcDbCircle
 10
131.1382307656
 20
253.752048917
 30
0.0
 40
0.4000000000903299
100
AcDbArc
 50
359.999999119
 51
90.0000000027
  0
LINE
  5
268
330
1F
100
AcDbEntity
  8
0
  6
Continuous
 62
     7
370
    15
100
AcDbLine
 10
131.5382314663
 20
241.0520488214
 30
0.0
 11
131.5382314663
 21
253.7520486679
 31
0.0
  0
ARC
  5
269
330
1F
100
AcDbEntity
  8
0
  6
Continuous
 62
     7
370
    15
100
AcDbCircle
 10
137.4382307674
 20
238.2520489179
 30
0.0
 40
1.300000000000529
100
AcDbArc
 50
259.8357513749
 51
90.0
  0
LINE
  5
26A
330
1F
100
AcDbEntity
  8
0
  6
Continuous
 62
     7
370
    15
100
AcDbLine
 10
131.8382309567
 20
239.5520490412
 30
0.0
 11
137.438230757
 21
239.5520490412
 31
0.0
  0
ARC
  5
26B
330
1F
100
AcDbEntity
  8
0
  6
Continuous
 62
     7
370
    15
100
AcDbCircle
 10
118.3382305672
 20
214.5520489179
 30
0.0
 40
0.3999999999035992
100
AcDbArc
 50
0.0000000025
 51
90.0
  0
LINE
  5
26C
330
1F
100
AcDbEntity
  8
0
  6
Continuous
 62
     7
370
    15
100
AcDbLine
 10
130.3382297795
 20
218.5520488587
 30
0.0
 11
130.3382297795
 21
211.5520495739
 31
0.0
  0
LINE
  5
26D
330
1F
100
AcDbEntity
  8
0
  6
Continuous
 62
     7
370
    15
100
AcDbLine
 10
127.9382301312
 20
224.1506814775
 30
0.0
 11
127.9382301312
 21
224.4520490807
 31
0.0
  0
ARC
  5
26E
330
1F
100
AcDbEntity
  8
0
  6
Continuous
 62
     7
370
    15
100
AcDbCircle
 10
126.9066872269
 20
223.9520489163
 30
0.0
 40
0.4000000000001149
100
AcDbArc
 50
180.0
 51
317.5692357174
  0
ARC
  5
26F
330
1F
100
AcDbEntity
  8
0
  6
Continuous
 62
     7
370
    15
100
AcDbCircle
 10
128.4382306325
 20
241.5520489157
 30
0.0
 40
1.67500000108599
100
AcDbArc
 50
17.3679799142
 51
72.632020113
  0
LINE
  5
270
330
1F
100
AcDbEntity
  8
0
  6
Continuous
 62
     7
370
    15
100
AcDbLine
 10
128.9382302951
 20
243.4520484698
 30
0.0
 11
128.9382302951
 21
243.1506808665
 31
0.0
  0
ARC
  5
271
330
1F
100
AcDbEntity
  8
0
  6
Continuous
 62
     7
370
    15
100
AcDbCircle
 10
128.4382306325
 20
241.5520489157
 30
0.0
 40
1.675000000987481
100
AcDbArc
 50
107.3679799135
 51
137.5692356677
  0
LINE
  5
272
330
1F
100
AcDbEntity
  8
0
  6
Continuous
 62
     7
370
    15
100
AcDbLine
 10
126.5066867512
 20
243.7756439489
 30
0.0
 11
126.5066867512
 21
242.9520493191
 31
0.0
  0
ARC
  5
273
330
1F
100
AcDbEntity
  8
0
  6
Continuous
 62
     7
370
    15
100
AcDbCircle
 10
129.3382306422
 20
245.552048914
 30
0.0
 40
1.000000000001222
100
AcDbArc
 50
257.3196163706
 51
359.9999991353
  0
LINE
  5
274
330
1F
100
AcDbEntity
  8
0
  6
Continuous
 62
     7
370
    15
100
AcDbLine
 10
131.5382314663
 20
224.8520488669
 30
0.0
 11
131.5382314663
 21
239.2520490852
 31
0.0
  0
ARC
  5
275
330
1F
100
AcDbEntity
  8
0
  6
Continuous
 62
     7
370
    15
100
AcDbCircle
 10
126.9066872936
 20
242.9520489175
 30
0.0
 40
0.3999999999999574
100
AcDbArc
 50
180.0
 51
317.5692356677
  0
LINE
  5
276
330
1F
100
AcDbEntity
  8
0
  6
Continuous
 62
     7
370
    15
100
AcDbLine
 10
137.438230757
 20
224.5520489108
 30
0.0
 11
131.8382309567
 21
224.5520489108
 31
0.0
  0
ARC
  5
277
330
1F
100
AcDbEntity
  8
0
  6
Continuous
 62
     7
370
    15
100
AcDbCircle
 10
137.4382307674
 20
225.852048918
 30
0.0
 40
1.300000000131905
100
AcDbArc
 50
270.0000000004
 51
100.1642486236
  0
ARC
  5
278
330
1F
100
AcDbEntity
  8
0
  6
Continuous
 62
     7
370
    15
100
AcDbCircle
 10
137.1382307673
 20
227.5253689712
 30
0.0
 40
0.4000000000017394
100
AcDbArc
 50
180.0
 51
280.1642486267
  0
LINE
  5
279
330
1F
100
AcDbEntity
  8
0
  6
Continuous
 62
     7
370
    15
100
AcDbLine
 10
136.7382300835
 20
227.9520487231
 30
0.0
 11
136.7382300835
 21
227.5253688735
 31
0.0
  0
ARC
  5
27A
330
1F
100
AcDbEntity
  8
0
  6
Continuous
 62
     7
370
    15
100
AcDbCircle
 10
137.1382307673
 20
227.9520489179
 30
0.0
 40
0.3999999999730903
100
AcDbArc
 50
89.9999999988
 51
180.0
  0
ARC
  5
27B
330
1F
100
AcDbEntity
  8
0
  6
Continuous
 62
     7
370
    15
100
AcDbCircle
 10
118.3382307659
 20
249.5520489178
 30
0.0
 40
0.4000000001442885
100
AcDbArc
 50
270.0
 51
0.0000000018
  0
LINE
  5
27C
330
1F
100
AcDbEntity
  8
0
  6
Continuous
 62
     7
370
    15
100
AcDbLine
 10
127.9382301312
 20
243.1506808665
 30
0.0
 11
127.9382301312
 21
243.4520484698
 31
0.0
  0
ARC
  5
27D
330
1F
100
AcDbEntity
  8
0
  6
Continuous
 62
     7
370
    15
100
AcDbCircle
 10
131.8382305677
 20
223.0520489181
 30
0.0
 40
0.3000000000472767
100
AcDbArc
 50
90.0000000024
 51
180.0000000006
  0
LINE
  5
27E
330
1F
100
AcDbEntity
  8
0
  6
Continuous
 62
     7
370
    15
100
AcDbLine
 10
131.5382314663
 20
210.3520497498
 30
0.0
 11
131.5382314663
 21
223.052048665
 31
0.0
  0
ARC
  5
27F
330
1F
100
AcDbEntity
  8
0
  6
Continuous
 62
     7
370
    15
100
AcDbCircle
 10
131.1382305674
 20
210.352048918
 30
0.0
 40
0.4000000002459672
100
AcDbArc
 50
269.9999999996
 51
0.0000000006
  0
LINE
  5
280
330
1F
100
AcDbEntity
  8
0
  6
Continuous
 62
     7
370
    15
100
AcDbLine
 10
117.9382322174
 20
209.9520485666
 30
0.0
 11
131.1382302832
 21
209.9520485666
 31
0.0
  0
ARC
  5
281
330
1F
100
AcDbEntity
  8
0
  6
Continuous
 62
     7
370
    15
100
AcDbCircle
 10
117.9382305675
 20
210.3520489179
 30
0.0
 40
0.4000000001895785
100
AcDbArc
 50
180.0
 51
269.9999999996
  0
LINE
  5
282
330
1F
100
AcDbEntity
  8
0
  6
Continuous
 62
     7
370
    15
100
AcDbLine
 10
117.5382291716
 20
214.552048203
 30
0.0
 11
117.5382291716
 21
210.3520497498
 31
0.0
  0
ARC
  5
283
330
1F
100
AcDbEntity
  8
0
  6
Continuous
 62
     7
370
    15
100
AcDbCircle
 10
117.9382305671
 20
214.5520489179
 30
0.0
 40
0.3999999998547423
100
AcDbArc
 50
90.0
 51
180.0
  0
LINE
  5
284
330
1F
100
AcDbEntity
  8
0
  6
Continuous
 62
     7
370
    15
100
AcDbLine
 10
118.3382315379
 20
214.9520493862
 30
0.0
 11
117.9382322174
 21
214.9520493862
 31
0.0
  0
ARC
  5
285
330
1F
100
AcDbEntity
  8
0
  6
Continuous
 62
     7
370
    15
100
AcDbCircle
 10
129.9382305671
 20
211.5520489177
 30
0.0
 40
0.3999999999522004
100
AcDbArc
 50
270.0
 51
359.9999999992
  0
ARC
  5
286
330
1F
100
AcDbEntity
  8
0
  6
Continuous
 62
     7
370
    15
100
AcDbCircle
 10
129.338230567
 20
218.5520489168
 30
0.0
 40
1.000000000038633
100
AcDbArc
 50
359.9999999991
 51
102.6803834952
  0
ARC
  5
287
330
1F
100
AcDbEntity
  8
0
  6
Continuous
 62
     7
370
    15
100
AcDbCircle
 10
131.8382305707
 20
241.052048917
 30
0.0
 40
0.3000000002533341
100
AcDbArc
 50
179.9999991195
 51
269.9999999996
  0
LINE
  5
288
330
1F
100
AcDbEntity
  8
0
  6
Continuous
 62
     7
370
    15
100
AcDbLine
 10
137.438230757
 20
240.752049331
 30
0.0
 11
131.8382309567
 21
240.752049331
 31
0.0
  0
ARC
  5
289
330
1F
100
AcDbEntity
  8
0
  6
Continuous
 62
     7
370
    15
100
AcDbCircle
 10
137.4382307674
 20
238.2520489179
 30
0.0
 40
2.499999998891724
100
AcDbArc
 50
270.0
 51
90.0
  0
LINE
  5
28A
330
1F
100
AcDbEntity
  8
0
  6
Continuous
 62
     7
370
    15
100
AcDbLine
 10
137.1382312667
 20
235.7520489771
 30
0.0
 11
137.438230757
 21
235.7520489771
 31
0.0
  0
ARC
  5
28B
330
1F
100
AcDbEntity
  8
0
  6
Continuous
 62
     7
370
    15
100
AcDbCircle
 10
137.1382307674
 20
236.152048919
 30
0.0
 40
0.4000000000332875
100
AcDbArc
 50
180.0
 51
270.0
  0
LINE
  5
28C
330
1F
100
AcDbEntity
  8
0
  6
Continuous
 62
     7
370
    15
100
AcDbLine
 10
136.7382300835
 20
236.5787290786
 30
0.0
 11
136.7382300835
 21
236.1520489961
 31
0.0
  0
ARC
  5
28D
330
1F
100
AcDbEntity
  8
0
  6
Continuous
 62
     7
370
    15
100
AcDbCircle
 10
137.1382307673
 20
236.5787288649
 30
0.0
 40
0.3999999999474299
100
AcDbArc
 50
79.8357513748
 51
180.0
  0
ARC
  5
28E
330
1F
100
AcDbEntity
  8
0
  6
Continuous
 62
     7
370
    15
100
AcDbCircle
 10
128.438230567
 20
222.5520489159
 30
0.0
 40
1.674999998813617
100
AcDbArc
 50
287.3679799382
 51
342.6320200882
  0
LINE
  5
28F
330
1F
100
AcDbEntity
  8
0
  6
Continuous
 62
     7
370
    15
100
AcDbLine
 10
130.3382297795
 20
222.0520485011
 30
0.0
 11
130.0368631076
 21
222.0520485011
 31
0.0
  0
ARC
  5
290
330
1F
100
AcDbEntity
  8
0
  6
Continuous
 62
     7
370
    15
100
AcDbCircle
 10
131.8382305678
 20
239.2520489178
 30
0.0
 40
0.300000000047703
100
AcDbArc
 50
90.0000000021
 51
180.0000000005
  0
LINE
  5
291
330
1F
100
AcDbEntity
  8
0
  6
Continuous
 62
     7
370
    15
100
AcDbLine
 10
130.0368631076
 20
223.052048665
 30
0.0
 11
130.3382297795
 21
223.052048665
 31
0.0
  0
ARC
  5
292
330
1F
100
AcDbEntity
  8
0
  6
Continuous
 62
     7
370
    15
100
AcDbCircle
 10
128.438230567
 20
222.5520489159
 30
0.0
 40
1.67500000041651
100
AcDbArc
 50
17.3679800024
 51
72.6320200883
  0
LINE
  5
293
330
1F
100
AcDbEntity
  8
0
  6
Continuous
 62
     7
370
    15
100
AcDbLine
 10
128.9382302951
 20
224.4520490807
 30
0.0
 11
128.9382302951
 21
224.1506814775
 31
0.0
  0
LINE
  5
294
330
1F
100
AcDbEntity
  8
0
  6
Continuous
 62
     7
370
    15
100
AcDbLine
 10
127.9382301312
 20
224.4520490807
 30
0.0
 11
128.9382302951
 21
224.4520490807
 31
0.0
  0
ARC
  5
295
330
1F
100
AcDbEntity
  8
0
  6
Continuous
 62
     7
370
    15
100
AcDbCircle
 10
128.438230567
 20
222.5520489159
 30
0.0
 40
1.675000000873226
100
AcDbArc
 50
107.3679798923
 51
137.5692357174
  0
LINE
  5
296
330
1F
100
AcDbEntity
  8
0
  6
Continuous
 62
     7
370
    15
100
AcDbLine
 10
126.5066867512
 20
224.7756440942
 30
0.0
 11
126.5066867512
 21
223.9520489988
 31
0.0
  0
ARC
  5
297
330
1F
100
AcDbEntity
  8
0
  6
Continuous
 62
     7
370
    15
100
AcDbCircle
 10
126.9066872257
 20
224.7756439806
 30
0.0
 40
0.3999999987729576
100
AcDbArc
 50
124.5578658498
 51
180.0
  0
ARC
  5
298
330
1F
100
AcDbEntity
  8
0
  6
Continuous
 62
     7
370
    15
100
AcDbCircle
 10
128.438230567
 20
222.5520489159
 30
0.0
 40
3.100000002111164
100
AcDbArc
 50
77.3196165137
 51
124.5578658498
  0
ARC
  5
299
330
1F
100
AcDbEntity
  8
0
  6
Continuous
 62
     7
370
    15
100
AcDbCircle
 10
129.338230567
 20
226.552048918
 30
0.0
 40
0.9999999999994357
100
AcDbArc
 50
257.3196165137
 51
359.9999999993
  0
LINE
  5
29A
330
1F
100
AcDbEntity
  8
0
  6
Continuous
 62
     7
370
    15
100
AcDbLine
 10
130.3382297795
 20
237.5520487134
 30
0.0
 11
130.3382297795
 21
226.552048773
 31
0.0
  0
ARC
  5
29B
330
1F
100
AcDbEntity
  8
0
  6
Continuous
 62
     7
370
    15
100
AcDbCircle
 10
129.3382305669
 20
237.552048902
 30
0.0
 40
1.000000000098908
100
AcDbArc
 50
0.0
 51
102.680382556
  0
ARC
  5
29C
330
1F
100
AcDbEntity
  8
0
  6
Continuous
 62
     7
370
    15
100
AcDbCircle
 10
128.4382306325
 20
241.5520489157
 30
0.0
 40
3.099999998879067
100
AcDbArc
 50
235.4421341367
 51
282.680382556
  0
ARC
  5
29D
330
1F
100
AcDbEntity
  8
0
  6
Continuous
 62
     7
370
    15
100
AcDbCircle
 10
126.9066872932
 20
239.3284538549
 30
0.0
 40
0.3999999999924171
100
AcDbArc
 50
179.9999999989
 51
235.4421341367
  0
LINE
  5
29E
330
1F
100
AcDbEntity
  8
0
  6
Continuous
 62
     7
370
    15
100
AcDbLine
 10
126.5066867512
 20
240.1520489533
 30
0.0
 11
126.5066867512
 21
239.3284538579
 31
0.0
  0
ARC
  5
29F
330
1F
100
AcDbEntity
  8
0
  6
Continuous
 62
     7
370
    15
100
AcDbCircle
 10
126.9066872935
 20
240.1520489179
 30
0.0
 40
0.4000000002522057
100
AcDbArc
 50
42.4307642466
 51
179.9999999992
  0
ARC
  5
2A0
330
1F
100
AcDbEntity
  8
0
  6
Continuous
 62
     7
370
    15
100
AcDbCircle
 10
128.4382306325
 20
241.5520489157
 30
0.0
 40
1.674999998014022
100
AcDbArc
 50
222.4307642466
 51
252.6320200633
  0
LINE
  5
2A1
330
1F
100
AcDbEntity
  8
0
  6
Continuous
 62
     7
370
    15
100
AcDbLine
 10
127.9382301312
 20
239.6520488713
 30
0.0
 11
127.9382301312
 21
239.9534164746
 31
0.0
  0
LINE
  5
2A2
330
1F
100
AcDbEntity
  8
0
  6
Continuous
 62
     7
370
    15
100
AcDbLine
 10
128.9382302951
 20
239.6520488713
 30
0.0
 11
127.9382301312
 21
239.6520488713
 31
0.0
  0
LINE
  5
2A3
330
1F
100
AcDbEntity
  8
0
  6
Continuous
 62
     7
370
    15
100
AcDbLine
 10
128.9382302951
 20
239.9534164746
 30
0.0
 11
128.9382302951
 21
239.6520488713
 31
0.0
  0
ARC
  5
2A4
330
1F
100
AcDbEntity
  8
0
  6
Continuous
 62
     7
370
    15
100
AcDbCircle
 10
128.4382306325
 20
241.5520489157
 30
0.0
 40
1.674999999157857
100
AcDbArc
 50
287.367979917
 51
342.6320201677
  0
LINE
  5
2A5
330
1F
100
AcDbEntity
  8
0
  6
Continuous
 62
     7
370
    15
100
AcDbLine
 10
130.3382297795
 20
241.0520488214
 30
0.0
 11
130.0368631076
 21
241.0520488214
 31
0.0
  0
LINE
  5
2A6
330
1F
100
AcDbEntity
  8
0
  6
Continuous
 62
     7
370
    15
100
AcDbLine
 10
130.3382297795
 20
242.0520489853
 30
0.0
 11
130.3382297795
 21
241.0520488214
 31
0.0
  0
LINE
  5
2A7
330
1F
100
AcDbEntity
  8
0
  6
Continuous
 62
     7
370
    15
100
AcDbLine
 10
130.0368631076
 20
242.0520489853
 30
0.0
 11
130.3382297795
 21
242.0520489853
 31
0.0
  0
LINE
  5
2A8
330
1F
100
AcDbEntity
  8
0
  6
Continuous
 62
     7
370
    15
100
AcDbLine
 10
127.9382301312
 20
243.4520484698
 30
0.0
 11
128.9382302951
 21
243.4520484698
 31
0.0
  0
ARC
  5
2A9
330
1F
100
AcDbEntity
  8
0
  6
Continuous
 62
     7
370
    15
100
AcDbCircle
 10
126.9066872942
 20
243.7756439783
 30
0.0
 40
0.4000000005954831
100
AcDbArc
 50
124.5578658237
 51
180.0
  0
ARC
  5
2AA
330
1F
100
AcDbEntity
  8
0
  6
Continuous
 62
     7
370
    15
100
AcDbCircle
 10
128.4382306325
 20
241.5520489157
 30
0.0
 40
3.100000000517926
100
AcDbArc
 50
77.3196163705
 51
124.5578658237
  0
ARC
  5
2AB
330
1F
100
AcDbEntity
  8
0
  6
Continuous
 62
     7
370
    15
100
AcDbCircle
 10
131.8382305677
 20
224.8520489178
 30
0.0
 40
0.2999999999478007
100
AcDbArc
 50
180.0000000006
 51
269.9999999998
  0
LINE
  5
2AC
330
1F
100
AcDbEntity
  8
0
  6
Continuous
 62
     7
370
    15
100
AcDbLine
 10
137.438230757
 20
228.3520489749
 30
0.0
 11
137.1382312667
 21
228.3520489749
 31
0.0
  0
ARC
  5
2AD
330
1F
100
AcDbEntity
  8
0
  6
Continuous
 62
     7
370
    15
100
AcDbCircle
 10
137.4382307674
 20
225.852048918
 30
0.0
 40
2.499999999884949
100
AcDbArc
 50
270.0
 51
90.0
  0
LINE
  5
2AE
330
1F
100
AcDbEntity
  8
0
  6
Continuous
 62
     7
370
    15
100
AcDbLine
 10
131.8382309567
 20
223.3520490867
 30
0.0
 11
137.438230757
 21
223.3520490867
 31
0.0
  0
LINE
  5
2AF
330
1F
100
AcDbEntity
  8
0
  6
Continuous
 62
     7
370
    15
100
AcDbLine
 10
118.7382308584
 20
211.5520495739
 30
0.0
 11
118.7382308584
 21
214.552048203
 31
0.0
  0
ARC
  5
2B0
330
1F
100
AcDbEntity
  8
0
  6
Continuous
 62
     7
370
    15
100
AcDbCircle
 10
119.1382305671
 20
211.5520489177
 30
0.0
 40
0.3999999999468855
100
AcDbArc
 50
180.0000000027
 51
270.0
  0
LINE
  5
2B1
330
1F
100
AcDbEntity
  8
0
  6
Continuous
 62
     7
370
    15
100
AcDbLine
 10
129.938230459
 20
211.1520483908
 30
0.0
 11
119.1382301789
 21
211.1520483908
 31
0.0
  0
LINE
  5
2B2
330
1F
100
AcDbEntity
  8
0
  6
Continuous
 62
     7
370
    15
100
AcDbLine
 10
127.9382301312
 20
220.6520490166
 30
0.0
 11
127.9382301312
 21
220.9534166199
 31
0.0
  0
LINE
  5
2B3
330
1F
100
AcDbEntity
  8
0
  6
Continuous
 62
     7
370
    15
100
AcDbLine
 10
128.9382302951
 20
220.6520490166
 30
0.0
 11
127.9382301312
 21
220.6520490166
 31
0.0
  0
ARC
  5
2B4
330
1F
100
AcDbEntity
  8
0
  6
Continuous
 62
     7
370
    15
100
AcDbCircle
 10
128.438230567
 20
222.5520489159
 30
0.0
 40
3.099999999103279
100
AcDbArc
 50
235.4421341382
 51
282.6803834952
  0
ARC
  5
2B5
330
1F
100
AcDbEntity
  8
0
  6
Continuous
 62
     7
370
    15
100
AcDbCircle
 10
126.9066872276
 20
220.3284538549
 30
0.0
 40
0.3999999999950603
100
AcDbArc
 50
180.0
 51
235.4421341382
  0
LINE
  5
2B6
330
1F
100
AcDbEntity
  8
0
  6
Continuous
 62
     7
370
    15
100
AcDbLine
 10
126.5066867512
 20
221.1520490986
 30
0.0
 11
126.5066867512
 21
220.3284535375
 31
0.0
  0
ARC
  5
2B7
330
1F
100
AcDbEntity
  8
0
  6
Continuous
 62
     7
370
    15
100
AcDbCircle
 10
126.906687227
 20
221.1520489177
 30
0.0
 40
0.3999999993303
100
AcDbArc
 50
42.4307642378
 51
180.0
  0
ARC
  5
2B8
330
1F
100
AcDbEntity
  8
0
  6
Continuous
 62
     7
370
    15
100
AcDbCircle
 10
128.438230567
 20
222.5520489159
 30
0.0
 40
1.674999999998312
100
AcDbArc
 50
222.4307642377
 51
252.632020088
  0
LINE
  5
2B9
330
1F
100
AcDbEntity
  8
0
  6
Continuous
 62
     7
370
    15
100
AcDbLine
 10
128.9382302951
 20
220.9534166199
 30
0.0
 11
128.9382302951
 21
220.6520490166
 31
0.0
  0
LINE
  5
2BA
330
1F
100
AcDbEntity
  8
0
  6
Continuous
 62
     7
370
    15
100
AcDbLine
 10
130.3382297795
 20
223.052048665
 30
0.0
 11
130.3382297795
 21
222.0520485011
 31
0.0
  0
LINE
  5
2BB
330
1F
100
AcDbEntity
  8
0
  6
Continuous
 62
     7
370
    15
100
AcDbLine
 10
175.3888754154
 20
114.7822374189
 30
0.0
 11
168.3888753158
 21
114.7822374189
 31
0.0
  0
LINE
  5
2BC
330
1F
100
AcDbEntity
  8
0
  6
Continuous
 62
     7
370
    15
100
AcDbLine
 10
175.3888754154
 20
121.7822367037
 30
0.0
 11
175.3888754154
 21
114.7822374189
 31
0.0
  0
LINE
  5
2BD
330
1F
100
AcDbEntity
  8
0
  6
Continuous
 62
     7
370
    15
100
AcDbLine
 10
168.3888753158
 20
121.7822367037
 30
0.0
 11
175.3888754154
 21
121.7822367037
 31
0.0
  0
LINE
  5
2BE
330
1F
100
AcDbEntity
  8
0
  6
Continuous
 62
     7
370
    15
100
AcDbLine
 10
168.3888753158
 20
121.7822367037
 30
0.0
 11
168.3888753158
 21
114.7822374189
 31
0.0
  0
LINE
  5
2BF
330
1F
100
AcDbEntity
  8
0
  6
Continuous
 62
     7
370
    15
100
AcDbLine
 10
175.488875362
 20
93.2822348261
 30
0.0
 11
175.488875362
 21
143.2822374338
 31
0.0
  0
LINE
  5
2C0
330
1F
100
AcDbEntity
  8
0
  6
Continuous
 62
     7
370
    15
100
AcDbLine
 10
175.488875362
 20
93.2822348261
 30
0.0
 11
168.2888754856
 21
93.2822348261
 31
0.0
  0
LINE
  5
2C1
330
1F
100
AcDbEntity
  8
0
  6
Continuous
 62
     7
370
    15
100
AcDbLine
 10
168.2888754856
 20
93.2822348261
 30
0.0
 11
168.2888754856
 21
143.2822374338
 31
0.0
  0
LINE
  5
2C2
330
1F
100
AcDbEntity
  8
0
  6
Continuous
 62
     7
370
    15
100
AcDbLine
 10
175.488875362
 20
143.2822374338
 30
0.0
 11
168.2888754856
 21
143.2822374338
 31
0.0
  0
CIRCLE
  5
2C3
330
1F
100
AcDbEntity
  8
0
  6
Continuous
 62
     7
370
    15
100
AcDbCircle
 10
171.8888753715
 20
135.7822378064
 30
0.0
 40
2.25
  0
CIRCLE
  5
2C4
330
1F
100
AcDbEntity
  8
0
  6
Continuous
 62
     7
370
    15
100
AcDbCircle
 10
171.8888753715
 20
100.7822378064
 30
0.0
 40
2.25
  0
ARC
  5
2C5
330
1F
100
AcDbEntity
  8
0
  6
Continuous
 62
     7
370
    15
100
AcDbCircle
 10
171.8888753715
 20
118.2822378064
 30
0.0
 40
3.500000000000014
100
AcDbArc
 50
180.0
 51
270.0
  0
SPLINE
  5
2C6
330
1F
100
AcDbEntity
  8
0
  6
Continuous
 62
     7
370
    15
100
AcDbSpline
210
0.0
220
0.0
230
1.0
 70
     8
 71
     3
 72
    16
 73
    12
 74
     0
 42
0.000000001
 43
0.00000001
 40
0.0
 40
0.0
 40
0.0
 40
0.0
 40
0.071566080258405
 40
0.1736185719541626
 40
0.287356169822957
 40
0.4013342781184363
 40
0.5337713999974333
 40
0.6661092097413044
 40
0.7732434687486183
 40
0.8802588000938882
 40
1.0
 40
1.0
 40
1.0
 40
1.0
 10
162.8388754304971
 20
94.78223786598333
 30
0.0
 10
162.8419060261881
 20
94.71279884797389
 30
0.0
 10
162.8492582200506
 20
94.54434050707876
 30
0.0
 10
162.9080638144095
 20
94.31167181373453
 30
0.0
 10
163.002645365922
 20
94.08444362798402
 30
0.0
 10
163.1400654115577
 20
93.86849828446698
 30
0.0
 10
163.321424549211
 20
93.66755040059302
 30
0.0
 10
163.5399756259241
 20
93.50281428126472
 30
0.0
 10
163.7791624057271
 20
93.38374520361424
 30
0.0
 10
164.0374465771031
 20
93.3008914470235
 30
0.0
 10
164.234709100984
 20
93.28868210117638
 30
0.0
 10
164.3388756763662
 20
93.28223482614645
 30
0.0
  0
LINE
  5
2C7
330
1F
100
AcDbEntity
  8
0
  6
Continuous
 62
     7
370
    15
100
AcDbLine
 10
162.8388754305
 20
94.782237866
 30
0.0
 11
162.8388754305
 21
141.7822381193
 31
0.0
  0
SPLINE
  5
2C8
330
1F
100
AcDbEntity
  8
0
  6
Continuous
 62
     7
370
    15
100
AcDbSpline
210
0.0
220
0.0
230
1.0
 70
     8
 71
     3
 72
    16
 73
    12
 74
     0
 42
0.000000001
 43
0.00000001
 40
0.0
 40
0.0
 40
0.0
 40
0.0
 40
0.1026604601847368
 40
0.2054522272787593
 40
0.3336145633656163
 40
0.4619480217139206
 40
0.5930426351690764
 40
0.7241143967362652
 40
0.8397526515178384
 40
0.9357748247914708
 40
1.0
 40
1.0
 40
1.0
 40
1.0
 10
164.3388756763662
 20
143.2822374338496
 30
0.0
 10
164.2494561926966
 20
143.277393195107
 30
0.0
 10
164.0705028541961
 20
143.267698521643
 30
0.0
 10
163.8069148265608
 20
143.1931219719674
 30
0.0
 10
163.555825304545
 20
143.0727364410357
 30
0.0
 10
163.3270153533752
 20
142.9011462873906
 30
0.0
 10
163.1386084883612
 20
142.69670837305
 30
0.0
 10
162.995316075519
 20
142.4671618366506
 30
0.0
 10
162.9002741636609
 20
142.2290444900882
 30
0.0
 10
162.8473712789645
 20
142.0001280656439
 30
0.0
 10
162.8413062284736
 20
141.8445799139683
 30
0.0
 10
162.8388754304971
 20
141.7822381193031
 30
0.0
  0
LINE
  5
2C9
330
1F
100
AcDbEntity
  8
0
  6
Continuous
 62
     7
370
    15
100
AcDbLine
 10
168.2888754856
 20
143.2822374338
 30
0.0
 11
164.3388756764
 21
143.2822374338
 31
0.0
  0
LINE
  5
2CA
330
1F
100
AcDbEntity
  8
0
  6
Continuous
 62
     7
370
    15
100
AcDbLine
 10
168.2888754856
 20
93.2822348261
 30
0.0
 11
164.3388756764
 21
93.2822348261
 31
0.0
  0
ARC
  5
2CB
330
1F
100
AcDbEntity
  8
0
  6
Continuous
 62
     7
370
    15
100
AcDbCircle
 10
171.8888753715
 20
118.2822378064
 30
0.0
 40
3.5
100
AcDbArc
 50
90.0
 51
180.0
  0
ARC
  5
2CC
330
1F
100
AcDbEntity
  8
0
  6
Continuous
 62
     7
370
    15
100
AcDbCircle
 10
171.8888753715
 20
118.2822378064
 30
0.0
 40
3.5
100
AcDbArc
 50
0.0
 51
90.0
  0
SPLINE
  5
2CD
330
1F
100
AcDbEntity
  8
0
  6
Continuous
 62
     7
370
    15
100
AcDbSpline
210
0.0
220
0.0
230
1.0
 70
     8
 71
     3
 72
    16
 73
    12
 74
     0
 42
0.000000001
 43
0.00000001
 40
0.0
 40
0.0
 40
0.0
 40
0.0
 40
0.1026603959376156
 40
0.2054523295991592
 40
0.3336149195149282
 40
0.4619478314392296
 40
0.5930429063817826
 40
0.7241155090361092
 40
0.8397537942531696
 40
0.9357754382096826
 40
1.0
 40
1.0
 40
1.0
 40
1.0
 10
179.4388751712169
 20
93.28223482614644
 30
0.0
 10
179.5282944975693
 20
93.28707971677129
 30
0.0
 10
179.7072477223499
 20
93.29677570573017
 30
0.0
 10
179.9708356956739
 20
93.37135396139088
 30
0.0
 10
180.2219240536881
 20
93.49174267699725
 30
0.0
 10
180.4507359662946
 20
93.66332687281911
 30
0.0
 10
180.6391427002953
 20
93.86776776401545
 30
0.0
 10
180.7824343097691
 20
94.09731781135943
 30
0.0
 10
180.8774764793968
 20
94.33543490874555
 30
0.0
 10
180.9303795245468
 20
94.56434969571634
 30
0.0
 10
180.9364446106994
 20
94.71989668718207
 30
0.0
 10
180.938875417086
 20
94.78223786598333
 30
0.0
  0
SPLINE
  5
2CE
330
1F
100
AcDbEntity
  8
0
  6
Continuous
 62
     7
370
    15
100
AcDbSpline
210
0.0
220
0.0
230
1.0
 70
     8
 71
     3
 72
    16
 73
    12
 74
     0
 42
0.000000001
 43
0.00000001
 40
0.0
 40
0.0
 40
0.0
 40
0.0
 40
0.0715667374307752
 40
0.1736187570135256
 40
0.2873554802151068
 40
0.4013343718279501
 40
0.5337716271103146
 40
0.6661092959623005
 40
0.773243826777044
 40
0.880258892494797
 40
1.0
 40
1.0
 40
1.0
 40
1.0
 10
180.938875417086
 20
141.7822381193031
 30
0.0
 10
180.9358448873892
 20
141.8516777911217
 30
0.0
 10
180.9284929133026
 20
142.0201363508018
 30
0.0
 10
180.8696867150712
 20
142.2528043867893
 30
0.0
 10
180.7751037362833
 20
142.4800282256563
 30
0.0
 10
180.6376865191745
 20
142.6959785890723
 30
0.0
 10
180.4563254182235
 20
142.8969250574657
 30
0.0
 10
180.2377757725991
 20
143.0616617120172
 30
0.0
 10
179.9985884061794
 20
143.1807317348188
 30
0.0
 10
179.7403034208364
 20
143.2635794958691
 30
0.0
 10
179.5430415080116
 20
143.2757897002546
 30
0.0
 10
179.4388751712169
 20
143.2822374338496
 30
0.0
  0
LINE
  5
2CF
330
1F
100
AcDbEntity
  8
0
  6
Continuous
 62
     7
370
    15
100
AcDbLine
 10
180.9388754171
 20
94.782237866
 30
0.0
 11
180.9388754171
 21
141.7822381193
 31
0.0
  0
LINE
  5
2D0
330
1F
100
AcDbEntity
  8
0
  6
Continuous
 62
     7
370
    15
100
AcDbLine
 10
179.4388751712
 20
143.2822374338
 30
0.0
 11
175.488875362
 21
143.2822374338
 31
0.0
  0
LINE
  5
2D1
330
1F
100
AcDbEntity
  8
0
  6
Continuous
 62
     7
370
    15
100
AcDbLine
 10
179.4388751712
 20
93.2822348261
 30
0.0
 11
175.488875362
 21
93.2822348261
 31
0.0
  0
ARC
  5
2D2
330
1F
100
AcDbEntity
  8
0
  6
Continuous
 62
     7
370
    15
100
AcDbCircle
 10
171.8888753715
 20
118.2822378064
 30
0.0
 40
3.500000000000014
100
AcDbArc
 50
270.0
 51
0.0
  0
CIRCLE
  5
2D3
330
1F
100
AcDbEntity
  8
0
  6
Continuous
 62
     7
370
    15
100
AcDbCircle
 10
171.8888753715
 20
118.2822378064
 30
0.0
 40
3.300000000000011
  0
DIMENSION
  5
2D4
330
1F
100
AcDbEntity
  8
TEXTOS_PORTUGUES
100
AcDbDimension
  2
_D
 10
173.5709696127
 20
134.2878954883
 30
0.0
 11
149.1814088045
 21
151.9192877351
 31
0.0
 70
   163
  1
<>
 71
     1
 42
-1.0
  3
SLDDIMSTYLE0
100
AcDbDiametricDimension
 15
170.2067811302
 25
137.2765801245
 35
0.0
 40
0.0
  0
DIMENSION
  5
2E3
330
1F
100
AcDbEntity
  8
TEXTOS_PORTUGUES
100
AcDbDimension
  2
_D_1
 10
180.9388753715
 20
74.6751832111
 30
0.0
 11
171.8888753715
 21
74.6751832111
 31
0.0
 70
   160
  1
<>
 71
     2
 42
-1.0
  3
SLDDIMSTYLE1
100
AcDbAlignedDimension
 13
162.8388753715
 23
94.7822378064
 33
0.0
 14
180.9388753715
 24
94.7822378064
 34
0.0
100
AcDbRotatedDimension
  0
DIMENSION
  5
2EE
330
1F
100
AcDbEntity
  8
TEXTOS_PORTUGUES
100
AcDbDimension
  2
_D_2
 10
190.9388753715
 20
93.2822378064
 30
0.0
 11
190.9388753715
 21
118.2822378064
 31
0.0
 70
   160
  1
<>
 71
     2
 42
-1.0
  3
SLDDIMSTYLE1
100
AcDbAlignedDimension
 13
179.4388753715
 23
143.2822378064
 33
0.0
 14
179.4388753715
 24
93.2822378064
 34
0.0
 50
90.0
100
AcDbRotatedDimension
  0
DIMENSION
  5
2F8
330
1F
100
AcDbEntity
  8
TEXTOS_PORTUGUES
100
AcDbDimension
  2
_D_3
 10
169.0182636585
 20
120.2846367539
 30
0.0
 11
152.6816759627
 21
131.7054266367
 31
0.0
 70
   160
  1
%%c<>
 71
     2
 42
-1.0
  3
SLDDIMSTYLE1
100
AcDbAlignedDimension
 13
174.7574092128
 23
116.2768666185
 33
0.0
 14
169.0203415301
 24
120.2876089943
 34
0.0
 50
-34.9571180314
100
AcDbRotatedDimension
  0
INSERT
  5
30F
330
1F
100
AcDbEntity
  8
TEXTOS_PORTUGUES
100
AcDbBlockReference
  2
SW_CENTERMARKSYMBOL_0
 10
171.8888753715
 20
118.2822378064
 30
0.0
  0
INSERT
  5
31B
330
1F
100
AcDbEntity
  8
TEXTOS_PORTUGUES
100
AcDbBlockReference
  2
SW_CENTERMARKSYMBOL_1
 10
171.8888753715
 20
135.7822378064
 30
0.0
  0
INSERT
  5
327
330
1F
100
AcDbEntity
  8
TEXTOS_PORTUGUES
100
AcDbBlockReference
  2
SW_CENTERMARKSYMBOL_2
 10
171.8888753715
 20
100.7822378064
 30
0.0
  0
LINE
  5
328
330
1F
100
AcDbEntity
  8
DESENHO
100
AcDbLine
 10
171.8888753715
 20
149.2822378064
 30
0.0
 11
171.8888753715
 21
87.2822378064
 31
0.0
  0
LINE
  5
329
330
1F
100
AcDbEntity
  8
DESENHO
100
AcDbLine
 10
183.8888753715
 20
147.2822378064
 30
0.0
 11
171.8888753715
 21
147.2822378064
 31
0.0
  0
SOLID
  5
32A
330
1F
100
AcDbEntity
  8
DESENHO
100
AcDbTrace
 10
171.8888753715
 20
147.2822378064
 30
0.0
 11
177.8888753715
 21
145.7822378064
 31
0.0
 12
177.8888753715
 22
148.7822378064
 32
0.0
 13
177.8888753715
 23
148.7822378064
 33
0.0
  0
LINE
  5
32B
330
1F
100
AcDbEntity
  8
DESENHO
100
AcDbLine
 10
183.8888753715
 20
89.2822378064
 30
0.0
 11
171.8888753715
 21
89.2822378064
 31
0.0
  0
SOLID
  5
32C
330
1F
100
AcDbEntity
  8
DESENHO
100
AcDbTrace
 10
171.8888753715
 20
89.2822378064
 30
0.0
 11
177.8888753715
 21
87.7822378064
 31
0.0
 12
177.8888753715
 22
90.7822378064
 32
0.0
 13
177.8888753715
 23
90.7822378064
 33
0.0
  0
MTEXT
  5
32D
330
1F
100
AcDbEntity
  8
DESENHO
100
AcDbMText
 10
181.6019753715
 20
151.1135378064
 30
0.0
 40
2.5
 41
0.0
 71
     1
 72
     1
  1
A
  7
SLDTEXTSTYLE0
 73
     1
 44
1.0
  0
MTEXT
  5
32E
330
1F
100
AcDbEntity
  8
DESENHO
100
AcDbMText
 10
181.6019753715
 20
93.1135378064
 30
0.0
 40
2.5
 41
0.0
 71
     1
 72
     1
  1
A
  7
SLDTEXTSTYLE0
 73
     1
 44
1.0
  0
LINE
  5
32F
330
1F
100
AcDbEntity
  8
TEXTOS_PORTUGUES
  6
CENTERX2
370
     0
100
AcDbLine
 10
178.2888753715
 20
91.2822378064
 30
0.0
 11
178.2888753715
 21
145.2822378064
 31
0.0
  0
LINE
  5
330
330
1F
100
AcDbEntity
  8
TEXTOS_PORTUGUES
  6
CENTERX2
370
     0
100
AcDbLine
 10
165.4888753715
 20
91.2822378064
 30
0.0
 11
165.4888753715
 21
145.2822378064
 31
0.0
  0
LINE
  5
331
330
1F
100
AcDbEntity
  8
0
  6
Continuous
 62
     7
370
    15
100
AcDbLine
 10
116.3153973296
 20
133.5322378064
 30
0.0
 11
116.3153973296
 21
121.7822378064
 31
0.0
  0
LINE
  5
332
330
1F
100
AcDbEntity
  8
0
  6
Continuous
 62
     7
370
    15
100
AcDbLine
 10
116.3153973296
 20
133.5322378064
 30
0.0
 11
121.0153973296
 21
133.5322378064
 31
0.0
  0
LINE
  5
333
330
1F
100
AcDbEntity
  8
0
  6
Continuous
 62
     7
370
    15
100
AcDbLine
 10
121.0153973296
 20
133.5322378064
 30
0.0
 11
122.9153973296
 21
131.6322378064
 31
0.0
  0
LINE
  5
334
330
1F
100
AcDbEntity
  8
0
  6
Continuous
 62
     7
370
    15
100
AcDbLine
 10
122.9153973296
 20
131.6322378064
 30
0.0
 11
123.9153973296
 21
131.6322378064
 31
0.0
  0
LINE
  5
335
330
1F
100
AcDbEntity
  8
0
  6
Continuous
 62
     7
370
    15
100
AcDbLine
 10
123.9153973296
 20
121.7822378064
 30
0.0
 11
123.9153973296
 21
131.6322378064
 31
0.0
  0
LINE
  5
336
330
1F
100
AcDbEntity
  8
0
  6
Continuous
 62
     7
370
    15
100
AcDbLine
 10
119.6153973296
 20
121.7822378064
 30
0.0
 11
123.9153973296
 21
121.7822378064
 31
0.0
  0
LINE
  5
337
330
1F
100
AcDbEntity
  8
0
  6
Continuous
 62
     7
370
    15
100
AcDbLine
 10
119.6153973296
 20
121.7822378064
 30
0.0
 11
116.3153973296
 21
121.7822378064
 31
0.0
  0
LINE
  5
338
330
1F
100
AcDbEntity
  8
0
  6
Continuous
 62
     7
370
    15
100
AcDbLine
 10
123.9153973296
 20
139.9322378064
 30
0.0
 11
123.9153973296
 21
143.2822378064
 31
0.0
  0
LINE
  5
339
330
1F
100
AcDbEntity
  8
0
  6
Continuous
 62
     7
370
    15
100
AcDbLine
 10
123.9153973296
 20
139.9322378064
 30
0.0
 11
122.9153973296
 21
139.9322378064
 31
0.0
  0
LINE
  5
33A
330
1F
100
AcDbEntity
  8
0
  6
Continuous
 62
     7
370
    15
100
AcDbLine
 10
122.9153973296
 20
139.9322378064
 30
0.0
 11
121.0153973296
 21
138.0322378064
 31
0.0
  0
LINE
  5
33B
330
1F
100
AcDbEntity
  8
0
  6
Continuous
 62
     7
370
    15
100
AcDbLine
 10
121.0153973296
 20
138.0322378064
 30
0.0
 11
116.3153973296
 21
138.0322378064
 31
0.0
  0
LINE
  5
33C
330
1F
100
AcDbEntity
  8
0
  6
Continuous
 62
     7
370
    15
100
AcDbLine
 10
116.3153973296
 20
143.2822378064
 30
0.0
 11
116.3153973296
 21
138.0322378064
 31
0.0
  0
LINE
  5
33D
330
1F
100
AcDbEntity
  8
0
  6
Continuous
 62
     7
370
    15
100
AcDbLine
 10
116.3153973296
 20
143.2822378064
 30
0.0
 11
123.9153973296
 21
143.2822378064
 31
0.0
  0
LINE
  5
33E
330
1F
100
AcDbEntity
  8
0
  6
Continuous
 62
     7
370
    15
100
AcDbLine
 10
123.9153973296
 20
114.7822378064
 30
0.0
 11
119.6153973296
 21
114.7822378064
 31
0.0
  0
LINE
  5
33F
330
1F
100
AcDbEntity
  8
0
  6
Continuous
 62
     7
370
    15
100
AcDbLine
 10
123.9153973296
 20
104.9322378064
 30
0.0
 11
123.9153973296
 21
114.7822378064
 31
0.0
  0
LINE
  5
340
330
1F
100
AcDbEntity
  8
0
  6
Continuous
 62
     7
370
    15
100
AcDbLine
 10
123.9153973296
 20
104.9322378064
 30
0.0
 11
122.9153973296
 21
104.9322378064
 31
0.0
  0
LINE
  5
341
330
1F
100
AcDbEntity
  8
0
  6
Continuous
 62
     7
370
    15
100
AcDbLine
 10
122.9153973296
 20
104.9322378064
 30
0.0
 11
121.0153973296
 21
103.0322378064
 31
0.0
  0
LINE
  5
342
330
1F
100
AcDbEntity
  8
0
  6
Continuous
 62
     7
370
    15
100
AcDbLine
 10
121.0153973296
 20
103.0322378064
 30
0.0
 11
116.3153973296
 21
103.0322378064
 31
0.0
  0
LINE
  5
343
330
1F
100
AcDbEntity
  8
0
  6
Continuous
 62
     7
370
    15
100
AcDbLine
 10
116.3153973296
 20
114.7822378064
 30
0.0
 11
116.3153973296
 21
103.0322378064
 31
0.0
  0
LINE
  5
344
330
1F
100
AcDbEntity
  8
0
  6
Continuous
 62
     7
370
    15
100
AcDbLine
 10
116.3153973296
 20
114.7822378064
 30
0.0
 11
119.6153973296
 21
114.7822378064
 31
0.0
  0
LINE
  5
345
330
1F
100
AcDbEntity
  8
0
  6
Continuous
 62
     7
370
    15
100
AcDbLine
 10
116.3153973296
 20
98.5322378064
 30
0.0
 11
121.0153973296
 21
98.5322378064
 31
0.0
  0
LINE
  5
346
330
1F
100
AcDbEntity
  8
0
  6
Continuous
 62
     7
370
    15
100
AcDbLine
 10
121.0153973296
 20
98.5322378064
 30
0.0
 11
122.9153973296
 21
96.6322378064
 31
0.0
  0
LINE
  5
347
330
1F
100
AcDbEntity
  8
0
  6
Continuous
 62
     7
370
    15
100
AcDbLine
 10
122.9153973296
 20
96.6322378064
 30
0.0
 11
123.9153973296
 21
96.6322378064
 31
0.0
  0
LINE
  5
348
330
1F
100
AcDbEntity
  8
0
  6
Continuous
 62
     7
370
    15
100
AcDbLine
 10
123.9153973296
 20
93.2822378064
 30
0.0
 11
123.9153973296
 21
96.6322378064
 31
0.0
  0
LINE
  5
349
330
1F
100
AcDbEntity
  8
0
  6
Continuous
 62
     7
370
    15
100
AcDbLine
 10
116.3153973296
 20
93.2822378064
 30
0.0
 11
123.9153973296
 21
93.2822378064
 31
0.0
  0
LINE
  5
34A
330
1F
100
AcDbEntity
  8
0
  6
Continuous
 62
     7
370
    15
100
AcDbLine
 10
116.3153973296
 20
98.5322378064
 30
0.0
 11
116.3153973296
 21
93.2822378064
 31
0.0
  0
LINE
  5
34B
330
1F
100
AcDbEntity
  8
0
  6
Continuous
 62
     7
370
    15
100
AcDbLine
 10
123.9153973296
 20
104.9322378064
 30
0.0
 11
123.9153973296
 21
96.6322378064
 31
0.0
  0
LINE
  5
34C
330
1F
100
AcDbEntity
  8
0
  6
Continuous
 62
     7
370
    15
100
AcDbLine
 10
122.9153973296
 20
104.9322378064
 30
0.0
 11
122.9153973296
 21
96.6322378064
 31
0.0
  0
LINE
  5
34D
330
1F
100
AcDbEntity
  8
0
  6
Continuous
 62
     7
370
    15
100
AcDbLine
 10
123.9153973296
 20
131.6322378064
 30
0.0
 11
123.9153973296
 21
139.9322378064
 31
0.0
  0
LINE
  5
34E
330
1F
100
AcDbEntity
  8
0
  6
Continuous
 62
     7
370
    15
100
AcDbLine
 10
122.9153973296
 20
131.6322378064
 30
0.0
 11
122.9153973296
 21
139.9322378064
 31
0.0
  0
LINE
  5
34F
330
1F
100
AcDbEntity
  8
0
  6
Continuous
 62
     7
370
    15
100
AcDbLine
 10
119.6153973296
 20
114.7822378064
 30
0.0
 11
119.6153973296
 21
114.9822378064
 31
0.0
  0
LINE
  5
350
330
1F
100
AcDbEntity
  8
0
  6
Continuous
 62
     7
370
    15
100
AcDbLine
 10
119.6153973296
 20
121.5822378064
 30
0.0
 11
119.6153973296
 21
121.7822378064
 31
0.0
  0
LINE
  5
351
330
1F
100
AcDbEntity
  8
0
  6
Continuous
 62
     7
370
    15
100
AcDbLine
 10
121.0153973296
 20
133.5322378064
 30
0.0
 11
121.0153973296
 21
138.0322378064
 31
0.0
  0
LINE
  5
352
330
1F
100
AcDbEntity
  8
0
  6
Continuous
 62
     7
370
    15
100
AcDbLine
 10
121.0153973296
 20
103.0322378064
 30
0.0
 11
121.0153973296
 21
98.5322378064
 31
0.0
  0
LINE
  5
353
330
1F
100
AcDbEntity
  8
0
  6
Continuous
 62
     7
370
    15
100
AcDbLine
 10
116.3153973296
 20
133.5322378064
 30
0.0
 11
116.3153973296
 21
138.0322378064
 31
0.0
  0
LINE
  5
354
330
1F
100
AcDbEntity
  8
0
  6
Continuous
 62
     7
370
    15
100
AcDbLine
 10
116.3153973296
 20
103.0322378064
 30
0.0
 11
116.3153973296
 21
98.5322378064
 31
0.0
  0
LINE
  5
355
330
1F
100
AcDbEntity
  8
0
  6
Continuous
 62
     7
370
    15
100
AcDbLine
 10
116.3153973296
 20
121.7822378064
 30
0.0
 11
116.3153973296
 21
114.7822378064
 31
0.0
  0
LINE
  5
356
330
1F
100
AcDbEntity
  8
0
  6
Continuous
 62
     7
370
    15
100
AcDbLine
 10
131.5153973296
 20
138.0322378064
 30
0.0
 11
131.5153973296
 21
143.2822378064
 31
0.0
  0
LINE
  5
357
330
1F
100
AcDbEntity
  8
0
  6
Continuous
 62
     7
370
    15
100
AcDbLine
 10
131.5153973296
 20
138.0322378064
 30
0.0
 11
126.8153973296
 21
138.0322378064
 31
0.0
  0
LINE
  5
358
330
1F
100
AcDbEntity
  8
0
  6
Continuous
 62
     7
370
    15
100
AcDbLine
 10
126.8153973296
 20
138.0322378064
 30
0.0
 11
124.9153973296
 21
139.9322378064
 31
0.0
  0
LINE
  5
359
330
1F
100
AcDbEntity
  8
0
  6
Continuous
 62
     7
370
    15
100
AcDbLine
 10
124.9153973296
 20
139.9322378064
 30
0.0
 11
123.9153973296
 21
139.9322378064
 31
0.0
  0
LINE
  5
35A
330
1F
100
AcDbEntity
  8
0
  6
Continuous
 62
     7
370
    15
100
AcDbLine
 10
123.9153973296
 20
143.2822378064
 30
0.0
 11
131.5153973296
 21
143.2822378064
 31
0.0
  0
LINE
  5
35B
330
1F
100
AcDbEntity
  8
0
  6
Continuous
 62
     7
370
    15
100
AcDbLine
 10
126.8153973296
 20
98.5322378064
 30
0.0
 11
131.5153973296
 21
98.5322378064
 31
0.0
  0
LINE
  5
35C
330
1F
100
AcDbEntity
  8
0
  6
Continuous
 62
     7
370
    15
100
AcDbLine
 10
126.8153973296
 20
98.5322378064
 30
0.0
 11
126.8153973296
 21
103.0322378064
 31
0.0
  0
LINE
  5
35D
330
1F
100
AcDbEntity
  8
0
  6
Continuous
 62
     7
370
    15
100
AcDbLine
 10
131.5153973296
 20
103.0322378064
 30
0.0
 11
126.8153973296
 21
103.0322378064
 31
0.0
  0
LINE
  5
35E
330
1F
100
AcDbEntity
  8
0
  6
Continuous
 62
     7
370
    15
100
AcDbLine
 10
131.5153973296
 20
98.5322378064
 30
0.0
 11
131.5153973296
 21
103.0322378064
 31
0.0
  0
LINE
  5
35F
330
1F
100
AcDbEntity
  8
0
  6
Continuous
 62
     7
370
    15
100
AcDbLine
 10
126.8153973296
 20
133.5322378064
 30
0.0
 11
131.5153973296
 21
133.5322378064
 31
0.0
  0
LINE
  5
360
330
1F
100
AcDbEntity
  8
0
  6
Continuous
 62
     7
370
    15
100
AcDbLine
 10
126.8153973296
 20
138.0322378064
 30
0.0
 11
126.8153973296
 21
133.5322378064
 31
0.0
  0
LINE
  5
361
330
1F
100
AcDbEntity
  8
0
  6
Continuous
 62
     7
370
    15
100
AcDbLine
 10
131.5153973296
 20
138.0322378064
 30
0.0
 11
131.5153973296
 21
133.5322378064
 31
0.0
  0
LINE
  5
362
330
1F
100
AcDbEntity
  8
0
  6
Continuous
 62
     7
370
    15
100
AcDbLine
 10
124.9153973296
 20
131.6322378064
 30
0.0
 11
126.8153973296
 21
133.5322378064
 31
0.0
  0
LINE
  5
363
330
1F
100
AcDbEntity
  8
0
  6
Continuous
 62
     7
370
    15
100
AcDbLine
 10
126.8153973296
 20
103.0322378064
 30
0.0
 11
124.9153973296
 21
104.9322378064
 31
0.0
  0
LINE
  5
364
330
1F
100
AcDbEntity
  8
0
  6
Continuous
 62
     7
370
    15
100
AcDbLine
 10
124.9153973296
 20
104.9322378064
 30
0.0
 11
123.9153973296
 21
104.9322378064
 31
0.0
  0
LINE
  5
365
330
1F
100
AcDbEntity
  8
0
  6
Continuous
 62
     7
370
    15
100
AcDbLine
 10
123.9153973296
 20
114.9822378064
 30
0.0
 11
123.9153973296
 21
104.9322378064
 31
0.0
  0
LINE
  5
366
330
1F
100
AcDbEntity
  8
0
  6
Continuous
 62
     7
370
    15
100
AcDbLine
 10
118.9153973296
 20
114.9822378064
 30
0.0
 11
123.9153973296
 21
114.9822378064
 31
0.0
  0
LINE
  5
367
330
1F
100
AcDbEntity
  8
0
  6
Continuous
 62
     7
370
    15
100
AcDbLine
 10
118.9153973296
 20
114.9822378064
 30
0.0
 11
118.9153973296
 21
121.5822378064
 31
0.0
  0
LINE
  5
368
330
1F
100
AcDbEntity
  8
0
  6
Continuous
 62
     7
370
    15
100
AcDbLine
 10
123.9153973296
 20
121.5822378064
 30
0.0
 11
118.9153973296
 21
121.5822378064
 31
0.0
  0
LINE
  5
369
330
1F
100
AcDbEntity
  8
0
  6
Continuous
 62
     7
370
    15
100
AcDbLine
 10
123.9153973296
 20
131.6322378064
 30
0.0
 11
123.9153973296
 21
121.5822378064
 31
0.0
  0
LINE
  5
36A
330
1F
100
AcDbEntity
  8
0
  6
Continuous
 62
     7
370
    15
100
AcDbLine
 10
123.9153973296
 20
131.6322378064
 30
0.0
 11
124.9153973296
 21
131.6322378064
 31
0.0
  0
LINE
  5
36B
330
1F
100
AcDbEntity
  8
0
  6
Continuous
 62
     7
370
    15
100
AcDbLine
 10
131.5153973296
 20
103.0322378064
 30
0.0
 11
131.5153973296
 21
133.5322378064
 31
0.0
  0
LINE
  5
36C
330
1F
100
AcDbEntity
  8
0
  6
Continuous
 62
     7
370
    15
100
AcDbLine
 10
123.9153973296
 20
96.6322378064
 30
0.0
 11
124.9153973296
 21
96.6322378064
 31
0.0
  0
LINE
  5
36D
330
1F
100
AcDbEntity
  8
0
  6
Continuous
 62
     7
370
    15
100
AcDbLine
 10
124.9153973296
 20
96.6322378064
 30
0.0
 11
126.8153973296
 21
98.5322378064
 31
0.0
  0
LINE
  5
36E
330
1F
100
AcDbEntity
  8
0
  6
Continuous
 62
     7
370
    15
100
AcDbLine
 10
123.9153973296
 20
93.2822378064
 30
0.0
 11
131.5153973296
 21
93.2822378064
 31
0.0
  0
LINE
  5
36F
330
1F
100
AcDbEntity
  8
0
  6
Continuous
 62
     7
370
    15
100
AcDbLine
 10
131.5153973296
 20
93.2822378064
 30
0.0
 11
131.5153973296
 21
98.5322378064
 31
0.0
  0
LINE
  5
370
330
1F
100
AcDbEntity
  8
0
  6
Continuous
 62
     7
370
    15
100
AcDbLine
 10
124.9153973296
 20
96.6322378064
 30
0.0
 11
124.9153973296
 21
104.9322378064
 31
0.0
  0
LINE
  5
371
330
1F
100
AcDbEntity
  8
0
  6
Continuous
 62
     7
370
    15
100
AcDbLine
 10
124.9153973296
 20
139.9322378064
 30
0.0
 11
124.9153973296
 21
131.6322378064
 31
0.0
  0
HATCH
  5
372
330
1F
100
AcDbEntity
  8
0
  6
Continuous
 62
     7
370
     0
100
AcDbHatch
 10
0.0
 20
0.0
 30
0.0
210
0.0
220
0.0
230
1.0
  2
ANSI31
 70
     0
 71
     0
 91
        1
 92
        0
 93
        6
 72
     1
 10
123.9153973296084
 20
96.63223780637868
 11
123.9153973296084
 21
93.28223780637867
 72
     1
 10
123.9153973296084
 20
93.28223780637867
 11
131.5153973296084
 21
93.28223780637867
 72
     1
 10
131.5153973296084
 20
93.28223780637867
 11
131.5153973296084
 21
98.53223780637867
 72
     1
 10
131.5153973296084
 20
98.53223780637867
 11
126.8153973296084
 21
98.53223780637867
 72
     1
 10
126.8153973296084
 20
98.53223780637867
 11
124.9153973296084
 21
96.63223780637868
 72
     1
 10
124.9153973296084
 20
96.63223780637868
 11
123.9153973296084
 21
96.63223780637868
 97
        0
 75
     0
 76
     1
 52
0.0
 41
1.0
 77
     0
 78
     1
 53
45.0
 43
0.0
 44
0.0
 45
-2.245064030267288
 46
2.245064030267288
 79
     0
 98
        1
 10
0.0
 20
0.0
  0
HATCH
  5
373
330
1F
100
AcDbEntity
  8
0
  6
Continuous
 62
     7
370
     0
100
AcDbHatch
 10
0.0
 20
0.0
 30
0.0
210
0.0
220
0.0
230
1.0
  2
ANSI31
 70
     0
 71
     0
 91
        1
 92
        0
 93
       12
 72
     1
 10
124.9153973296084
 20
131.6322378063787
 11
123.9153973296084
 21
131.6322378063787
 72
     1
 10
123.9153973296084
 20
131.6322378063787
 11
123.9153973296084
 21
121.5822378063787
 72
     1
 10
123.9153973296084
 20
121.5822378063787
 11
118.9153973296084
 21
121.5822378063787
 72
     1
 10
118.9153973296084
 20
121.5822378063787
 11
118.9153973296084
 21
114.9822378063787
 72
     1
 10
118.9153973296084
 20
114.9822378063787
 11
123.9153973296084
 21
114.9822378063787
 72
     1
 10
123.9153973296084
 20
114.9822378063787
 11
123.9153973296084
 21
104.9322378063787
 72
     1
 10
123.9153973296084
 20
104.9322378063787
 11
124.9153973296084
 21
104.9322378063787
 72
     1
 10
124.9153973296084
 20
104.9322378063787
 11
126.8153973296084
 21
103.0322378063787
 72
     1
 10
126.8153973296084
 20
103.0322378063787
 11
131.5153973296084
 21
103.0322378063787
 72
     1
 10
131.5153973296084
 20
103.0322378063787
 11
131.5153973296084
 21
133.5322378063787
 72
     1
 10
131.5153973296084
 20
133.5322378063787
 11
126.8153973296084
 21
133.5322378063787
 72
     1
 10
126.8153973296084
 20
133.5322378063787
 11
124.9153973296084
 21
131.6322378063787
 97
        0
 75
     0
 76
     1
 52
0.0
 41
1.0
 77
     0
 78
     1
 53
45.0
 43
0.0
 44
0.0
 45
-2.245064030267288
 46
2.245064030267288
 79
     0
 98
        1
 10
0.0
 20
0.0
  0
HATCH
  5
374
330
1F
100
AcDbEntity
  8
0
  6
Continuous
 62
     7
370
     0
100
AcDbHatch
 10
0.0
 20
0.0
 30
0.0
210
0.0
220
0.0
230
1.0
  2
ANSI31
 70
     0
 71
     0
 91
        1
 92
        0
 93
        6
 72
     1
 10
131.5153973296084
 20
143.2822378063787
 11
123.9153973296084
 21
143.2822378063787
 72
     1
 10
123.9153973296084
 20
143.2822378063787
 11
123.9153973296084
 21
139.9322378063787
 72
     1
 10
123.9153973296084
 20
139.9322378063787
 11
124.9153973296084
 21
139.9322378063787
 72
     1
 10
124.9153973296084
 20
139.9322378063787
 11
126.8153973296084
 21
138.0322378063787
 72
     1
 10
126.8153973296084
 20
138.0322378063787
 11
131.5153973296084
 21
138.0322378063787
 72
     1
 10
131.5153973296084
 20
138.0322378063787
 11
131.5153973296084
 21
143.2822378063787
 97
        0
 75
     0
 76
     1
 52
0.0
 41
1.0
 77
     0
 78
     1
 53
45.0
 43
0.0
 44
0.0
 45
-2.245064030267288
 46
2.245064030267288
 79
     0
 98
        1
 10
0.0
 20
0.0
  0
HATCH
  5
375
330
1F
100
AcDbEntity
  8
0
  6
Continuous
 62
     7
370
     0
100
AcDbHatch
 10
0.0
 20
0.0
 30
0.0
210
0.0
220
0.0
230
1.0
  2
ANSI31
 70
     0
 71
     0
 91
        1
 92
        0
 93
        7
 72
     1
 10
119.6153973296084
 20
114.7822378063787
 11
116.3153973296084
 21
114.7822378063787
 72
     1
 10
116.3153973296084
 20
114.7822378063787
 11
116.3153973296084
 21
103.0322378063787
 72
     1
 10
116.3153973296084
 20
103.0322378063787
 11
121.0153973296084
 21
103.0322378063787
 72
     1
 10
121.0153973296084
 20
103.0322378063787
 11
122.9153973296084
 21
104.9322378063787
 72
     1
 10
122.9153973296084
 20
104.9322378063787
 11
123.9153973296084
 21
104.9322378063787
 72
     1
 10
123.9153973296084
 20
104.9322378063787
 11
123.9153973296084
 21
114.7822378063787
 72
     1
 10
123.9153973296084
 20
114.7822378063787
 11
119.6153973296084
 21
114.7822378063787
 97
        0
 75
     0
 76
     1
 52
0.0
 41
1.0
 77
     0
 78
     1
 53
45.0
 43
0.0
 44
0.0
 45
-2.245064030267288
 46
2.245064030267288
 79
     0
 98
        1
 10
0.0
 20
0.0
  0
HATCH
  5
376
330
1F
100
AcDbEntity
  8
0
  6
Continuous
 62
     7
370
     0
100
AcDbHatch
 10
0.0
 20
0.0
 30
0.0
210
0.0
220
0.0
230
1.0
  2
ANSI31
 70
     0
 71
     0
 91
        1
 92
        0
 93
        6
 72
     1
 10
116.3153973296084
 20
98.53223780637869
 11
116.3153973296084
 21
93.28223780637869
 72
     1
 10
116.3153973296084
 20
93.28223780637869
 11
123.9153973296084
 21
93.28223780637869
 72
     1
 10
123.9153973296084
 20
93.28223780637869
 11
123.9153973296084
 21
96.6322378063787
 72
     1
 10
123.9153973296084
 20
96.6322378063787
 11
122.9153973296084
 21
96.6322378063787
 72
     1
 10
122.9153973296084
 20
96.6322378063787
 11
121.0153973296084
 21
98.53223780637867
 72
     1
 10
121.0153973296084
 20
98.53223780637867
 11
116.3153973296084
 21
98.53223780637869
 97
        0
 75
     0
 76
     1
 52
0.0
 41
1.0
 77
     0
 78
     1
 53
45.0
 43
0.0
 44
0.0
 45
-2.245064030267288
 46
2.245064030267288
 79
     0
 98
        1
 10
0.0
 20
0.0
  0
HATCH
  5
377
330
1F
100
AcDbEntity
  8
0
  6
Continuous
 62
     7
370
     0
100
AcDbHatch
 10
0.0
 20
0.0
 30
0.0
210
0.0
220
0.0
230
1.0
  2
ANSI31
 70
     0
 71
     0
 91
        1
 92
        0
 93
        6
 72
     1
 10
123.9153973296084
 20
143.2822378063787
 11
116.3153973296084
 21
143.2822378063787
 72
     1
 10
116.3153973296084
 20
143.2822378063787
 11
116.3153973296084
 21
138.0322378063787
 72
     1
 10
116.3153973296084
 20
138.0322378063787
 11
121.0153973296084
 21
138.0322378063787
 72
     1
 10
121.0153973296084
 20
138.0322378063787
 11
122.9153973296084
 21
139.9322378063787
 72
     1
 10
122.9153973296084
 20
139.9322378063787
 11
123.9153973296084
 21
139.9322378063787
 72
     1
 10
123.9153973296084
 20
139.9322378063787
 11
123.9153973296084
 21
143.2822378063787
 97
        0
 75
     0
 76
     1
 52
0.0
 41
1.0
 77
     0
 78
     1
 53
45.0
 43
0.0
 44
0.0
 45
-2.245064030267288
 46
2.245064030267288
 79
     0
 98
        1
 10
0.0
 20
0.0
  0
HATCH
  5
378
330
1F
100
AcDbEntity
  8
0
  6
Continuous
 62
     7
370
     0
100
AcDbHatch
 10
0.0
 20
0.0
 30
0.0
210
0.0
220
0.0
230
1.0
  2
ANSI31
 70
     0
 71
     0
 91
        1
 92
        0
 93
        7
 72
     1
 10
116.3153973296084
 20
121.7822378063787
 11
119.6153973296084
 21
121.7822378063787
 72
     1
 10
119.6153973296084
 20
121.7822378063787
 11
123.9153973296084
 21
121.7822378063787
 72
     1
 10
123.9153973296084
 20
121.7822378063787
 11
123.9153973296084
 21
131.6322378063787
 72
     1
 10
123.9153973296084
 20
131.6322378063787
 11
122.9153973296084
 21
131.6322378063787
 72
     1
 10
122.9153973296084
 20
131.6322378063787
 11
121.0153973296084
 21
133.5322378063787
 72
     1
 10
121.0153973296084
 20
133.5322378063787
 11
116.3153973296084
 21
133.5322378063787
 72
     1
 10
116.3153973296084
 20
133.5322378063787
 11
116.3153973296084
 21
121.7822378063787
 97
        0
 75
     0
 76
     1
 52
0.0
 41
1.0
 77
     0
 78
     1
 53
45.0
 43
0.0
 44
0.0
 45
-2.245064030267288
 46
2.245064030267288
 79
     0
 98
        1
 10
0.0
 20
0.0
  0
DIMENSION
  5
379
330
1F
100
AcDbEntity
  8
TEXTOS_PORTUGUES
100
AcDbDimension
  2
_D_4
 10
102.7561240472
 20
100.7822378064
 30
0.0
 11
102.7561240472
 21
118.2822378064
 31
0.0
 70
   160
  1
<>
 71
     2
 42
-1.0
  3
SLDDIMSTYLE1
100
AcDbAlignedDimension
 13
114.3153973296
 23
135.7822378064
 33
0.0
 14
114.3153973296
 24
100.7822378064
 34
0.0
 50
90.0
100
AcDbRotatedDimension
  0
DIMENSION
  5
383
330
1F
100
AcDbEntity
  8
TEXTOS_PORTUGUES
100
AcDbDimension
  2
_D_5
 10
131.5153973296
 20
150.2462055247
 30
0.0
 11
123.9153973296
 21
150.2462055247
 31
0.0
 70
   160
  1
<>
 71
     2
 42
-1.0
  3
SLDDIMSTYLE1
100
AcDbAlignedDimension
 13
116.3153973296
 23
143.2822378064
 33
0.0
 14
131.5153973296
 24
143.2822378064
 34
0.0
100
AcDbRotatedDimension
  0
DIMENSION
  5
38D
330
1F
100
AcDbEntity
  8
TEXTOS_PORTUGUES
100
AcDbDimension
  2
_D_6
 10
110.2273253022
 20
114.7822378064
 30
0.0
 11
110.2273253022
 21
118.2822378064
 31
0.0
 70
   160
  1
<>
 71
     2
 42
-1.0
  3
SLDDIMSTYLE1
100
AcDbAlignedDimension
 13
116.3153973296
 23
121.7822378064
 33
0.0
 14
116.3153973296
 24
114.7822378064
 34
0.0
 50
90.0
100
AcDbRotatedDimension
  0
MTEXT
  5
397
330
1F
100
AcDbEntity
  8
TEXTOS_PORTUGUES
100
AcDbMText
 10
123.7426541284
 20
86.7549070478
 30
0.0
 40
2.5
 41
0.0
 71
     2
 72
     1
  1
SEÇÃO A-A
  7
SLDTEXTSTYLE0
 73
     1
 44
1.0
  0
LINE
  5
398
330
1F
100
AcDbEntity
  8
TEXTOS_PORTUGUES
  6
CENTERX2
370
     0
100
AcDbLine
 10
114.3153973296
 20
118.2822378064
 30
0.0
 11
133.8351308754
 21
118.2822378064
 31
0.0
  0
LINE
  5
399
330
1F
100
AcDbEntity
  8
TEXTOS_PORTUGUES
  6
CENTERX2
370
     0
100
AcDbLine
 10
133.5153973296
 20
135.7822378064
 30
0.0
 11
126.8153973296
 21
135.7822378064
 31
0.0
  0
LINE
  5
39A
330
1F
100
AcDbEntity
  8
TEXTOS_PORTUGUES
  6
CENTERX2
370
     0
100
AcDbLine
 10
124.9153973296
 20
135.7822378064
 30
0.0
 11
126.8153973296
 21
135.7822378064
 31
0.0
  0
LINE
  5
39B
330
1F
100
AcDbEntity
  8
TEXTOS_PORTUGUES
  6
CENTERX2
370
     0
100
AcDbLine
 10
124.9153973296
 20
135.7822378064
 30
0.0
 11
123.9153973296
 21
135.7822378064
 31
0.0
  0
LINE
  5
39C
330
1F
100
AcDbEntity
  8
TEXTOS_PORTUGUES
  6
CENTERX2
370
     0
100
AcDbLine
 10
133.5153973296
 20
100.7822378064
 30
0.0
 11
126.8153973296
 21
100.7822378064
 31
0.0
  0
LINE
  5
39D
330
1F
100
AcDbEntity
  8
TEXTOS_PORTUGUES
  6
CENTERX2
370
     0
100
AcDbLine
 10
124.9153973296
 20
100.7822378064
 30
0.0
 11
126.8153973296
 21
100.7822378064
 31
0.0
  0
LINE
  5
39E
330
1F
100
AcDbEntity
  8
TEXTOS_PORTUGUES
  6
CENTERX2
370
     0
100
AcDbLine
 10
124.9153973296
 20
100.7822378064
 30
0.0
 11
123.9153973296
 21
100.7822378064
 31
0.0
  0
LINE
  5
39F
330
1F
100
AcDbEntity
  8
TEXTOS_PORTUGUES
  6
CENTERX2
370
     0
100
AcDbLine
 10
114.3153973296
 20
135.7822378064
 30
0.0
 11
121.0153973296
 21
135.7822378064
 31
0.0
  0
LINE
  5
3A0
330
1F
100
AcDbEntity
  8
TEXTOS_PORTUGUES
  6
CENTERX2
370
     0
100
AcDbLine
 10
122.9153973296
 20
135.7822378064
 30
0.0
 11
121.0153973296
 21
135.7822378064
 31
0.0
  0
LINE
  5
3A1
330
1F
100
AcDbEntity
  8
TEXTOS_PORTUGUES
  6
CENTERX2
370
     0
100
AcDbLine
 10
122.9153973296
 20
135.7822378064
 30
0.0
 11
123.9153973296
 21
135.7822378064
 31
0.0
  0
LINE
  5
3A2
330
1F
100
AcDbEntity
  8
TEXTOS_PORTUGUES
  6
CENTERX2
370
     0
100
AcDbLine
 10
114.3153973296
 20
100.7822378064
 30
0.0
 11
121.0153973296
 21
100.7822378064
 31
0.0
  0
LINE
  5
3A3
330
1F
100
AcDbEntity
  8
TEXTOS_PORTUGUES
  6
CENTERX2
370
     0
100
AcDbLine
 10
122.9153973296
 20
100.7822378064
 30
0.0
 11
121.0153973296
 21
100.7822378064
 31
0.0
  0
LINE
  5
3A4
330
1F
100
AcDbEntity
  8
TEXTOS_PORTUGUES
  6
CENTERX2
370
     0
100
AcDbLine
 10
122.9153973296
 20
100.7822378064
 30
0.0
 11
123.9153973296
 21
100.7822378064
 31
0.0
  0
LINE
  5
3A5
330
1F
100
AcDbEntity
  8
0
  6
Continuous
 62
     7
370
    15
100
AcDbLine
 10
120.5195543039
 20
63.515514484
 30
0.0
 11
123.9153972743
 21
63.515514484
 31
0.0
  0
LINE
  5
3A6
330
1F
100
AcDbEntity
  8
0
  6
Continuous
 62
     7
370
    15
100
AcDbLine
 10
123.9153972743
 20
63.515514484
 30
0.0
 11
123.9153972743
 21
62.0155142381
 31
0.0
  0
LINE
  5
3A7
330
1F
100
AcDbEntity
  8
0
  6
Continuous
 62
     7
370
    15
100
AcDbLine
 10
123.9153972743
 20
62.0155142381
 30
0.0
 11
122.1683368235
 21
62.0155142381
 31
0.0
  0
SPLINE
  5
3A8
330
1F
100
AcDbEntity
  8
0
  6
Continuous
 62
     7
370
    15
100
AcDbSpline
210
0.0
220
0.0
230
1.0
 70
     8
 71
     3
 72
    27
 73
    23
 74
     0
 42
0.000000001
 43
0.00000001
 40
0.0
 40
0.0
 40
0.0
 40
0.0
 40
0.0503137600689345
 40
0.1010619254772827
 40
0.1530503104866004
 40
0.2054106225119379
 40
0.2368640586725692
 40
0.268382594675066
 40
0.331829608032441
 40
0.3966322462055824
 40
0.4618278780192326
 40
0.526534461786803
 40
0.5915535398062057
 40
0.6575216601383131
 40
0.7238233390891293
 40
0.7814194197263546
 40
0.8103997628441416
 40
0.8394527352090605
 40
0.8872333055260302
 40
0.9356324886056973
 40
0.9574883342742453
 40
1.0
 40
1.0
 40
1.0
 40
1.0
 10
122.1683368235457
 20
62.01551423813383
 30
0.0
 10
122.1476224491534
 20
62.05970029087659
 30
0.0
 10
122.1060148539692
 20
62.14845389552283
 30
0.0
 10
122.034618069955
 20
62.27765039446703
 30
0.0
 10
121.956813838316
 20
62.40344942282941
 30
0.0
 10
121.8839071319337
 20
62.50822572154877
 30
0.0
 10
121.8193006882261
 20
62.59332802288234
 30
0.0
 10
121.7464343784813
 20
62.68334924129718
 30
0.0
 10
121.6507977470212
 20
62.790845656737
 30
0.0
 10
121.530450754834
 20
62.91052356898655
 30
0.0
 10
121.4057931214756
 20
63.02037755789561
 30
0.0
 10
121.2785835889987
 20
63.11988982135462
 30
0.0
 10
121.1495910850631
 20
63.20949687770941
 30
0.0
 10
121.0196081466787
 20
63.2895042132137
 30
0.0
 10
120.8963313594277
 20
63.35652576127548
 30
0.0
 10
120.8005069346358
 20
63.40285508856574
 30
0.0
 10
120.73153899966
 20
63.43363472194609
 30
0.0
 10
120.6714432172242
 20
63.45904700592705
 30
0.0
 10
120.6064824339789
 20
63.48457665387243
 30
0.0
 10
120.5585306769889
 20
63.50197781954869
 30
0.0
 10
120.5267306205081
 20
63.5130876427945
 30
0.0
 10
120.5224087156051
 20
63.51454919717158
 30
0.0
 10
120.5195543039221
 20
63.51551448400298
 30
0.0
  0
LINE
  5
3A9
330
1F
100
AcDbEntity
  8
0
  6
Continuous
 62
     7
370
    15
100
AcDbLine
 10
119.6153974775
 20
50.8655145525
 30
0.0
 11
116.3153970297
 21
50.8655145525
 31
0.0
  0
LINE
  5
3AA
330
1F
100
AcDbEntity
  8
0
  6
Continuous
 62
     7
370
    15
100
AcDbLine
 10
116.3153970297
 20
50.8655145525
 30
0.0
 11
116.3153970297
 21
58.0655144289
 31
0.0
  0
LINE
  5
3AB
330
1F
100
AcDbEntity
  8
0
  6
Continuous
 62
     7
370
    15
100
AcDbLine
 10
116.3153970297
 20
58.0655144289
 30
0.0
 11
119.6153974775
 21
58.0655144289
 31
0.0
  0
LINE
  5
3AC
330
1F
100
AcDbEntity
  8
0
  6
Continuous
 62
     7
370
    15
100
AcDbLine
 10
122.1683368235
 20
46.9155147433
 30
0.0
 11
123.9153972743
 21
46.9155147433
 31
0.0
  0
ARC
  5
3AD
330
1F
100
AcDbEntity
  8
0
  6
Continuous
 62
     7
370
    15
100
AcDbCircle
 10
119.6153973296
 20
48.065514543
 30
0.0
 40
2.800000000000007
100
AcDbArc
 50
335.7502869869
 51
90.0
  0
LINE
  5
3AE
330
1F
100
AcDbEntity
  8
0
  6
Continuous
 62
     7
370
    15
100
AcDbLine
 10
123.9153972743
 20
62.0155142381
 30
0.0
 11
123.9153972743
 21
46.9155147433
 31
0.0
  0
ARC
  5
3AF
330
1F
100
AcDbEntity
  8
0
  6
Continuous
 62
     7
370
    15
100
AcDbCircle
 10
119.6153973296
 20
60.865514543
 30
0.0
 40
2.799999999999997
100
AcDbArc
 50
270.0
 51
24.2497130131
  0
LINE
  5
3B0
330
1F
100
AcDbEntity
  8
0
  6
Continuous
 62
     7
370
    15
100
AcDbLine
 10
123.9153972743
 20
45.4155144974
 30
0.0
 11
120.5195543039
 21
45.4155144974
 31
0.0
  0
SPLINE
  5
3B1
330
1F
100
AcDbEntity
  8
0
  6
Continuous
 62
     7
370
    15
100
AcDbSpline
210
0.0
220
0.0
230
1.0
 70
     8
 71
     3
 72
    27
 73
    23
 74
     0
 42
0.000000001
 43
0.00000001
 40
0.0
 40
0.0
 40
0.0
 40
0.0
 40
0.0355490048083477
 40
0.071814337585397
 40
0.1225913537372545
 40
0.174014501647912
 40
0.2090597500440688
 40
0.2442227930107321
 40
0.2865717907118132
 40
0.3439576766828152
 40
0.4015715549947228
 40
0.4668630826302971
 40
0.5324674914070142
 40
0.5991217531600824
 40
0.6661812407362704
 40
0.7189314721304698
 40
0.7722563574844168
 40
0.8258957007081814
 40
0.8802199695920758
 40
0.9100449754169512
 40
0.9699173217250031
 40
1.0
 40
1.0
 40
1.0
 40
1.0
 10
120.5195543039221
 20
45.41551449741402
 30
0.0
 10
120.5216204634116
 20
45.41621504702545
 30
0.0
 10
120.5257944164066
 20
45.41763026262884
 30
0.0
 10
120.5613239942352
 20
45.42998502734145
 30
0.0
 10
120.6210377641025
 20
45.4519257068448
 30
0.0
 10
120.6948762000617
 20
45.48153991525275
 30
0.0
 10
120.7660887263299
 20
45.51257332438491
 30
0.0
 10
120.8351209756392
 20
45.54471410416013
 30
0.0
 10
120.9206277284541
 20
45.58755220434657
 30
0.0
 10
121.0229393527827
 20
45.64383675227021
 30
0.0
 10
121.1416351741452
 20
45.71655991132226
 30
0.0
 10
121.2659569682272
 20
45.80185631144388
 30
0.0
 10
121.395063303918
 20
45.9017178040385
 30
0.0
 10
121.5229111775459
 20
46.01334551756541
 30
0.0
 10
121.6391238426998
 20
46.12822743963631
 30
0.0
 10
121.7432187986793
 20
46.24361622682154
 30
0.0
 10
121.8354954663334
 20
46.35715036381664
 30
0.0
 10
121.9241132533831
 20
46.47883372524549
 30
0.0
 10
121.9952502756028
 20
46.58856856947362
 30
0.0
 10
122.0651587520407
 20
46.70749466436946
 30
0.0
 10
122.1195370168146
 20
46.80985271751224
 30
0.0
 10
122.1561070919629
 20
46.88903475698329
 30
0.0
 10
122.1683368235457
 20
46.91551474328318
 30
0.0
  0
LINE
  5
3B2
330
1F
100
AcDbEntity
  8
0
  6
Continuous
 62
     7
370
    15
100
AcDbLine
 10
123.9153972743
 20
46.9155147433
 30
0.0
 11
123.9153972743
 21
45.4155144974
 31
0.0
  0
LINE
  5
3B3
330
1F
100
AcDbEntity
  8
0
  6
Continuous
 62
     7
370
    15
100
AcDbLine
 10
123.9153972743
 20
63.515514484
 30
0.0
 11
127.3112402446
 21
63.515514484
 31
0.0
  0
SPLINE
  5
3B4
330
1F
100
AcDbEntity
  8
0
  6
Continuous
 62
     7
370
    15
100
AcDbSpline
210
0.0
220
0.0
230
1.0
 70
     8
 71
     3
 72
    27
 73
    23
 74
     0
 42
0.000000001
 43
0.00000001
 40
0.0
 40
0.0
 40
0.0
 40
0.0
 40
0.035526869841458
 40
0.0718143474912339
 40
0.1225710001701621
 40
0.1740144822642942
 40
0.2090597219158289
 40
0.2442227622327042
 40
0.2865718089629061
 40
0.3439576047843386
 40
0.4015715182433058
 40
0.4668629933949892
 40
0.5324675076730601
 40
0.5991216190102381
 40
0.6661813564039097
 40
0.718931559028138
 40
0.7722563230044683
 40
0.8258956508599575
 40
0.8802198055210618
 40
0.9100344200046606
 40
0.9699068116723958
 40
1.0
 40
1.0
 40
1.0
 40
1.0
 10
127.3112402446199
 20
63.51551448400298
 30
0.0
 10
127.3091765462249
 20
63.51481467403611
 30
0.0
 10
127.3050049669577
 20
63.51340007161369
 30
0.0
 10
127.2694861290549
 20
63.50104976996381
 30
0.0
 10
127.2097672239238
 20
63.47910647628842
 30
0.0
 10
127.1359301329576
 20
63.44949517594161
 30
0.0
 10
127.0647061220074
 20
63.41845544688676
 30
0.0
 10
126.9956737802296
 20
63.38631494040599
 30
0.0
 10
126.9101668801033
 20
63.34347668582797
 30
0.0
 10
126.8078551385451
 20
63.28719298196577
 30
0.0
 10
126.6891598243918
 20
63.21446872659462
 30
0.0
 10
126.5648374454238
 20
63.12917341312679
 30
0.0
 10
126.4357315108262
 20
63.02931102376561
 30
0.0
 10
126.3078832425547
 20
62.91768398212731
 30
0.0
 10
126.1916708887015
 20
62.80280115328566
 30
0.0
 10
126.0875760130005
 20
62.68741228836036
 30
0.0
 10
125.9952990176112
 20
62.57387863993516
 30
0.0
 10
125.9066816774416
 20
62.45219523111967
 30
0.0
 10
125.8355495620016
 20
62.34246907706678
 30
0.0
 10
125.7656457691787
 20
62.22355216702839
 30
0.0
 10
125.7112666364506
 20
62.12119470414383
 30
0.0
 10
125.6746919521031
 20
62.04200345013068
 30
0.0
 10
125.6624578414116
 20
62.01551423813383
 30
0.0
  0
LINE
  5
3B5
330
1F
100
AcDbEntity
  8
0
  6
Continuous
 62
     7
370
    15
100
AcDbLine
 10
125.6624578414
 20
62.0155142381
 30
0.0
 11
123.9153972743
 21
62.0155142381
 31
0.0
  0
LINE
  5
3B6
330
1F
100
AcDbEntity
  8
0
  6
Continuous
 62
     7
370
    15
100
AcDbLine
 10
128.2153973039
 20
58.0655144289
 30
0.0
 11
131.515397286
 21
58.0655144289
 31
0.0
  0
LINE
  5
3B7
330
1F
100
AcDbEntity
  8
0
  6
Continuous
 62
     7
370
    15
100
AcDbLine
 10
131.515397286
 20
58.0655144289
 30
0.0
 11
131.515397286
 21
50.8655145525
 31
0.0
  0
LINE
  5
3B8
330
1F
100
AcDbEntity
  8
0
  6
Continuous
 62
     7
370
    15
100
AcDbLine
 10
131.515397286
 20
50.8655145525
 30
0.0
 11
128.2153973039
 21
50.8655145525
 31
0.0
  0
ARC
  5
3B9
330
1F
100
AcDbEntity
  8
0
  6
Continuous
 62
     7
370
    15
100
AcDbCircle
 10
128.2153973296
 20
48.065514543
 30
0.0
 40
2.799999999999997
100
AcDbArc
 50
90.0
 51
204.2497130131
  0
LINE
  5
3BA
330
1F
100
AcDbEntity
  8
0
  6
Continuous
 62
     7
370
    15
100
AcDbLine
 10
123.9153972743
 20
46.9155147433
 30
0.0
 11
125.6624578414
 21
46.9155147433
 31
0.0
  0
ARC
  5
3BB
330
1F
100
AcDbEntity
  8
0
  6
Continuous
 62
     7
370
    15
100
AcDbCircle
 10
128.2153973296
 20
60.865514543
 30
0.0
 40
2.799999999999997
100
AcDbArc
 50
155.7502869869
 51
270.0
  0
LINE
  5
3BC
330
1F
100
AcDbEntity
  8
0
  6
Continuous
 62
     7
370
    15
100
AcDbLine
 10
127.3112402446
 20
45.4155144974
 30
0.0
 11
123.9153972743
 21
45.4155144974
 31
0.0
  0
SPLINE
  5
3BD
330
1F
100
AcDbEntity
  8
0
  6
Continuous
 62
     7
370
    15
100
AcDbSpline
210
0.0
220
0.0
230
1.0
 70
     8
 71
     3
 72
    27
 73
    23
 74
     0
 42
0.000000001
 43
0.00000001
 40
0.0
 40
0.0
 40
0.0
 40
0.0
 40
0.0503121676743979
 40
0.1010584787977865
 40
0.1530450874721896
 40
0.2054034831071858
 40
0.2368558676873473
 40
0.2683732791951388
 40
0.3318182604491723
 40
0.3966185822723123
 40
0.4618119864869124
 40
0.5265165549396776
 40
0.5915333085882872
 40
0.6574991622221205
 40
0.7237985539364459
 40
0.781392666635468
 40
0.839404774982757
 40
0.8632927566429113
 40
0.9113307738982717
 40
0.9356212154224021
 40
0.9782134689131966
 40
1.0
 40
1.0
 40
1.0
 40
1.0
 10
125.6624578414116
 20
46.91551474328318
 30
0.0
 10
125.6831721172902
 20
46.87132850289657
 30
0.0
 10
125.7247794124328
 20
46.78257473927098
 30
0.0
 10
125.7961767938137
 20
46.65337857106641
 30
0.0
 10
125.8739806700397
 20
46.52757958920052
 30
0.0
 10
125.9468875954243
 20
46.42280360828507
 30
0.0
 10
126.0114941129037
 20
46.33770150982684
 30
0.0
 10
126.0843601801514
 20
46.24768003679242
 30
0.0
 10
126.17999670658
 20
46.14018334460943
 30
0.0
 10
126.3003440040967
 20
46.02050587185662
 30
0.0
 10
126.4250018121295
 20
45.91065198080583
 30
0.0
 10
126.5522106676404
 20
45.81113863103016
 30
0.0
 10
126.6812044707986
 20
45.72153173783035
 30
0.0
 10
126.8111835291095
 20
45.64152667334234
 30
0.0
 10
126.9344751686368
 20
45.5744990066813
 30
0.0
 10
127.0484474190493
 20
45.5193882165118
 30
0.0
 10
127.1303813248144
 20
45.48392932152327
 30
0.0
 10
127.1995878633321
 20
45.45603271932622
 30
0.0
 10
127.2450275683688
 20
45.4389026207548
 30
0.0
 10
127.2865646183208
 20
45.42398395915184
 30
0.0
 10
127.3081088243443
 20
45.41658163552146
 30
0.0
 10
127.3104484784126
 20
45.41578431871477
 30
0.0
 10
127.3112402446199
 20
45.41551449741402
 30
0.0
  0
POINT
  5
3BE
330
1F
100
AcDbEntity
  8
TEXTOS_PORTUGUES
100
AcDbPoint
 10
122.4153973296
 20
48.065514543
 30
0.0
  0
POINT
  5
3BF
330
1F
100
AcDbEntity
  8
TEXTOS_PORTUGUES
100
AcDbPoint
 10
125.4153973296
 20
48.065514543
 30
0.0
  0
DIMENSION
  5
3C0
330
1F
100
AcDbEntity
  8
TEXTOS_PORTUGUES
100
AcDbDimension
  2
_D_7
 10
122.4153973296
 20
38.4822690566
 30
0.0
 11
130.1546042091
 21
38.4822690566
 31
0.0
 70
   160
  1
<>
 71
     2
 42
-1.0
  3
SLDDIMSTYLE2
100
AcDbAlignedDimension
 13
125.4153973296
 23
48.065514543
 33
0.0
 14
122.4153973296
 24
48.065514543
 34
0.0
 50
0.0
100
AcDbRotatedDimension
  0
DIMENSION
  5
3CD
330
1F
100
AcDbEntity
  8
TEXTOS_PORTUGUES
100
AcDbDimension
  2
_D_8
 10
143.2469883895
 20
50.865514543
 30
0.0
 11
143.2469883895
 21
54.465514543
 31
0.0
 70
   160
  1
<>
 71
     2
 42
-1.0
  3
SLDDIMSTYLE1
100
AcDbAlignedDimension
 13
131.5153973296
 23
58.065514543
 33
0.0
 14
131.5153973296
 24
50.865514543
 34
0.0
 50
90.0
100
AcDbRotatedDimension
  0
HATCH
  5
3D7
330
1B
100
AcDbEntity
 67
     1
  8
LAYOUT_
100
AcDbHatch
 10
0.0
 20
0.0
 30
0.0
210
0.0
220
0.0
230
1.0
  2
SOLID
 70
     1
 71
     0
 91
        1
 92
        0
 93
       12
 72
     2
 10
170.5130402307581
 20
19.12739629603989
 40
0.4456675237456963
 50
89.99999999974423
 51
179.5957936170848
 73
     0
 72
     1
 10
170.067383797235
 20
19.12425225707161
 11
170.8479788055123
 21
22.24706896226007
 72
     1
 10
170.8479788055123
 20
22.24706896226007
 11
169.8139393226297
 21
22.24706896226004
 72
     1
 10
169.8139393226297
 20
22.24706896226004
 11
168.9226042751383
 21
18.68172877229406
 72
     2
 10
169.8139393226298
 20
18.68172877229407
 40
0.8913350474914795
 50
180.0000000000017
 51
270.0000000000008
 73
     1
 72
     1
 10
169.8139393226298
 20
17.79039372480256
 11
172.5981604978237
 21
17.79039372480258
 72
     2
 10
172.5980078948977
 20
18.68172877229447
 40
0.8913350605542537
 50
270.0098094465608
 51
346.0052277622873
 73
     1
 72
     1
 10
173.462886165989
 20
18.46617421686658
 11
174.4082812168459
 21
22.2474050826257
 72
     1
 10
174.4082812168459
 20
22.2474050826257
 11
173.375027743704
 21
22.24740508262621
 72
     1
 10
173.375027743704
 20
22.24740508262621
 11
172.5403727320565
 21
18.90808636070918
 72
     2
 10
172.1518111063253
 20
19.12635088996369
 40
0.445667523745801
 50
29.32398295252708
 51
93.92517999700813
 73
     0
 72
     1
 10
172.1213034974225
 20
18.68172877229415
 11
170.5130402307601
 21
18.68172877229415
 97
        0
 75
     0
 76
     1
 98
        1
 10
0.0
 20
0.0
  0
HATCH
  5
3D8
330
1B
100
AcDbEntity
 67
     1
  8
LAYOUT_
100
AcDbHatch
 10
0.0
 20
0.0
 30
0.0
210
0.0
220
0.0
230
1.0
  2
SOLID
 70
     1
 71
     0
 91
        1
 92
        0
 93
        4
 72
     1
 10
179.4968722163075
 20
17.7903293156669
 11
180.5308243647744
 21
17.7903293156669
 72
     1
 10
180.5308243647744
 20
17.7903293156669
 11
181.3380563698657
 21
21.02144069642759
 72
     1
 10
181.3380563698657
 20
21.02144069642759
 11
180.3048028967254
 21
21.0214406964276
 72
     1
 10
180.3048028967254
 20
21.0214406964276
 11
179.4968722163075
 21
17.7903293156669
 97
        0
 75
     0
 76
     1
 98
        1
 10
0.0
 20
0.0
  0
HATCH
  5
3D9
330
1B
100
AcDbEntity
 67
     1
  8
LAYOUT_
100
AcDbHatch
 10
0.0
 20
0.0
 30
0.0
210
0.0
220
0.0
230
1.0
  2
SOLID
 70
     1
 71
     0
 91
        1
 92
        0
 93
        3
 72
     2
 10
180.1829862628089
 20
21.0547421387491
 40
1.266760894066317
 50
289.7476650131743
 51
347.0857716004965
 73
     0
 72
     1
 10
181.4177053570608
 20
21.33785328481299
 11
181.6450368413465
 21
22.24700455312437
 72
     1
 10
181.6450368413465
 20
22.24700455312437
 11
180.6109973584639
 21
22.24700455312437
 97
        0
 75
     0
 76
     1
 98
        1
 10
0.0
 20
0.0
  0
HATCH
  5
3DA
330
1B
100
AcDbEntity
 67
     1
  8
LAYOUT_
100
AcDbHatch
 10
0.0
 20
0.0
 30
0.0
210
0.0
220
0.0
230
1.0
  2
SOLID
 70
     1
 71
     0
 91
        1
 92
        0
 93
       16
 72
     1
 10
187.4905078243961
 20
21.74063865570438
 11
186.7100001505347
 21
18.62096598948408
 72
     2
 10
187.3585239179832
 20
18.45875966430492
 40
0.668501285618632
 50
165.9574885007146
 51
270.0458519450647
 73
     1
 72
     1
 10
187.3590588977184
 20
17.7902585927497
 11
190.2928839271504
 21
17.79025859274971
 72
     1
 10
190.2928839271504
 20
17.79025859274971
 11
190.488338349675
 21
18.57024226011634
 72
     1
 10
190.488338349675
 20
18.57024226011634
 11
188.1600028248734
 21
18.57024226011634
 72
     2
 10
188.1600028248735
 20
18.90449290292561
 40
0.3342506428092735
 50
90.00000000002923
 51
194.0410249999861
 73
     0
 72
     1
 10
187.8357388370931
 20
18.98558765273799
 11
188.0101456654137
 21
19.68400097576269
 72
     1
 10
188.0101456654137
 20
19.68400097576269
 11
190.7662451587252
 21
19.68400097576269
 72
     1
 10
190.7662451587252
 20
19.68400097576269
 11
190.9337525681987
 21
20.35254592858882
 72
     1
 10
190.9337525681987
 20
20.35254592858882
 11
188.1769543995616
 21
20.35254592858882
 72
     1
 10
188.1769543995616
 20
20.35254592858882
 11
188.3928450753792
 21
21.21392527146464
 72
     2
 10
188.7171158282875
 20
21.13285757736421
 40
0.3342506428093905
 50
194.0362444446529
 51
269.999999999991
 73
     0
 72
     1
 10
188.7171158282874
 20
21.46710822017361
 11
191.2121727528206
 21
21.46710822017361
 72
     1
 10
191.2121727528206
 20
21.46710822017361
 11
191.4070158344346
 21
22.24700455312453
 72
     1
 10
191.4070158344346
 20
22.24700455312453
 11
188.1390493302132
 21
22.24700455312453
 72
     2
 10
188.1390493302133
 20
21.57850326750584
 40
0.6685012856187086
 50
90.00000000000487
 51
165.9637555555539
 73
     1
 97
        0
 75
     0
 76
     1
 98
        1
 10
0.0
 20
0.0
  0
HATCH
  5
3DB
330
1B
100
AcDbEntity
 67
     1
  8
LAYOUT_
100
AcDbHatch
 10
0.0
 20
0.0
 30
0.0
210
0.0
220
0.0
230
1.0
  2
SOLID
 70
     1
 71
     0
 91
        1
 92
        0
 93
       16
 72
     2
 10
197.5785105597292
 20
18.90455206700181
 40
0.3342506428093934
 50
90.0
 51
194.0410249999755
 73
     0
 72
     1
 10
197.2542465719486
 20
18.98564681681415
 11
197.4286534002693
 21
19.68406013983883
 72
     1
 10
197.4286534002693
 20
19.68406013983883
 11
200.1847528935807
 21
19.68406013983885
 72
     1
 10
200.1847528935807
 20
19.68406013983885
 11
200.3522603030545
 21
20.35260509266541
 72
     1
 10
200.3522603030545
 20
20.35260509266541
 11
197.5954621344166
 21
20.35260509266539
 72
     1
 10
197.5954621344166
 20
20.35260509266539
 11
197.8113528102347
 21
21.21398443554289
 72
     2
 10
198.1356235631432
 20
21.13291674144371
 40
0.3342506428092739
 50
194.0362444444343
 51
270.0000000000008
 73
     0
 72
     1
 10
198.1356235631432
 20
21.46716738425296
 11
200.6306804876765
 21
21.467167384253
 72
     1
 10
200.6306804876765
 20
21.467167384253
 11
200.8255235692905
 21
22.24706371720393
 72
     1
 10
200.8255235692905
 20
22.24706371720393
 11
197.5575570650689
 21
22.2470637172039
 72
     2
 10
197.5575570650689
 20
21.57856243158543
 40
0.6685012856185218
 50
90.0
 51
165.9637555555665
 73
     1
 72
     1
 10
196.9090155592518
 20
21.74069781978379
 11
196.1285078853903
 21
18.62102515356356
 72
     2
 10
196.7770316528378
 20
18.45881882838061
 40
0.668501285618565
 50
165.9574885003799
 51
270.0458519451499
 73
     1
 72
     1
 10
196.777566632574
 20
17.79031775682553
 11
199.7113916620061
 21
17.79031775682555
 72
     1
 10
199.7113916620061
 20
17.79031775682555
 11
199.9068460845305
 21
18.57030142419241
 72
     1
 10
199.9068460845305
 20
18.57030142419241
 11
197.5785105597292
 21
18.5703014241924
 97
        0
 75
     0
 76
     1
 98
        1
 10
0.0
 20
0.0
  0
HATCH
  5
3DC
330
1B
100
AcDbEntity
 67
     1
  8
LAYOUT_
100
AcDbHatch
 10
0.0
 20
0.0
 30
0.0
210
0.0
220
0.0
230
1.0
  2
SOLID
 70
     1
 71
     0
 91
        1
 92
        0
 93
       14
 72
     1
 10
175.0168192367113
 20
17.79055454930106
 11
173.9828670882443
 21
17.79055454930106
 72
     1
 10
173.9828670882443
 20
17.79055454930106
 11
175.076643311523
 21
22.16260273786385
 72
     2
 10
175.1847354369723
 20
22.13558767218786
 40
0.1114168809365144
 50
194.0322694450046
 51
270.0000000001031
 73
     0
 72
     1
 10
175.1847354369725
 20
22.24700455312433
 11
177.3525503055629
 21
22.24700455312435
 72
     2
 10
177.172710349574
 20
20.02071224671071
 40
2.233544233581842
 50
274.6183266272648
 51
373.3085399948901
 73
     0
 72
     2
 10
177.172710349574
 20
20.02071224671071
 40
2.233544233581867
 50
13.30853999488929
 51
86.95123031227389
 73
     0
 72
     1
 10
177.2915035489283
 20
17.7903293156529
 11
175.9365974224543
 21
17.7903293156529
 72
     1
 10
175.9365974224543
 20
17.7903293156529
 11
176.1314405040694
 21
18.5703129830234
 72
     1
 10
176.1314405040694
 20
18.5703129830234
 11
177.0133434346557
 21
18.5703129830234
 72
     2
 10
177.0127774411057
 20
19.94122160845794
 40
1.370908742272628
 50
270.0236551431669
 51
345.8635575517509
 73
     1
 72
     1
 10
178.3421707757872
 20
19.60640204310367
 11
178.3540194683802
 21
19.65341965431127
 72
     2
 10
176.9378270462958
 20
20.0075385479399
 40
1.459794905866569
 50
345.961061110989
 51
450.0000000000008
 73
     1
 72
     1
 10
176.9378270462958
 20
21.46733345380644
 11
175.9361012972535
 21
21.46733345380636
 72
     1
 10
175.9361012972535
 20
21.46733345380636
 11
175.0168192367113
 21
17.79055454930106
 97
        0
 75
     0
 76
     1
 98
        1
 10
0.0
 20
0.0
  0
HATCH
  5
3DD
330
1B
100
AcDbEntity
 67
     1
  8
LAYOUT_
100
AcDbHatch
 10
0.0
 20
0.0
 30
0.0
210
0.0
220
0.0
230
1.0
  2
SOLID
 70
     1
 71
     0
 91
        1
 92
        0
 93
       12
 72
     2
 10
185.167061423616
 20
18.45860636448581
 40
0.6685012856186326
 50
207.1838119432031
 51
269.9475909935572
 73
     1
 72
     1
 10
185.1664499390774
 20
17.79010535853265
 11
185.8133359567896
 21
17.79010535853265
 72
     1
 10
185.8133359567896
 20
17.79010535853265
 11
186.9274610989458
 21
22.24678059598929
 72
     1
 10
186.9274610989458
 20
22.24678059598929
 11
185.893508950479
 21
22.24678059598929
 72
     1
 10
185.893508950479
 20
22.24678059598929
 11
185.1416469649948
 21
19.2385466443094
 72
     1
 10
185.1416469649948
 20
19.2385466443094
 11
183.7835967995534
 21
21.88390609840656
 72
     2
 10
183.188934643576
 20
21.57850326750574
 40
0.6685012856187489
 50
27.1838388889056
 51
90.0
 73
     1
 72
     1
 10
183.188934643576
 20
22.24700455312446
 11
182.3339307130508
 21
22.24700455312446
 72
     1
 10
182.3339307130508
 20
22.24700455312446
 11
181.2197182364786
 21
17.79032931566692
 72
     1
 10
181.2197182364786
 20
17.79032931566692
 11
182.2536703849455
 21
17.79032931566693
 72
     1
 10
182.2536703849455
 20
17.79032931566693
 11
183.0736532147413
 21
21.07174531991914
 72
     1
 10
183.0736532147413
 20
21.07174531991914
 11
184.5723991240105
 21
18.15320381324946
 97
        0
 75
     0
 76
     1
 98
        1
 10
0.0
 20
0.0
  0
HATCH
  5
3DE
330
1B
100
AcDbEntity
 67
     1
  8
LAYOUT_
100
AcDbHatch
 10
0.0
 20
0.0
 30
0.0
210
0.0
220
0.0
230
1.0
  2
SOLID
 70
     1
 71
     0
 91
        1
 92
        0
 93
       12
 72
     2
 10
193.2539640594348
 20
21.35569133923711
 40
0.1114168809364868
 50
90.0
 51
228.0365750000344
 73
     1
 72
     1
 10
193.1794644845312
 20
21.27284488670711
 11
195.1232665766341
 21
19.52458455154431
 72
     2
 10
194.4567603820072
 20
18.78333446879962
 40
0.9968360911629796
 50
311.9607722222112
 51
450.0000000000269
 73
     0
 72
     1
 10
194.4567603820067
 20
17.78649837763665
 11
190.9856540266717
 21
17.78649837763663
 72
     1
 10
190.9856540266717
 20
17.78649837763663
 11
191.1805844427014
 21
18.56648204500324
 72
     1
 10
191.1805844427014
 20
18.56648204500324
 11
194.3982463234316
 21
18.56648204500327
 72
     2
 10
194.3809850766869
 20
18.67655370674425
 40
0.1114168809364247
 50
278.9124394812695
 51
411.3264264756569
 73
     1
 72
     1
 10
194.4506075505736
 20
18.76353894967366
 11
192.168821269385
 21
20.81563571735025
 72
     2
 10
192.7177321051163
 20
21.42610296534083
 40
0.8209588092300139
 50
131.9607722223978
 51
270.6764861111357
 73
     0
 72
     1
 10
192.727424866673
 20
22.24700455312453
 11
196.3456897126041
 21
22.24700455312455
 72
     1
 10
196.3456897126041
 20
22.24700455312455
 11
196.1508466309901
 21
21.46710822017361
 72
     1
 10
196.1508466309901
 20
21.46710822017361
 11
193.2539640594348
 21
21.46710822017358
 97
        0
 75
     0
 76
     1
 98
        1
 10
0.0
 20
0.0
  0
LINE
  5
3DF
330
1B
100
AcDbEntity
 67
     1
  8
LAYOUT_
370
    30
100
AcDbLine
 10
9.6393342483
 20
8.8593134707
 30
0.0
 11
9.6393342483
 21
284.8855092333
 31
0.0
  0
LINE
  5
3E0
330
1B
100
AcDbEntity
 67
     1
  8
LAYOUT_
370
    30
100
AcDbLine
 10
197.9839330998
 20
273.8855092333
 30
0.0
 11
93.5495543863
 21
273.8855092333
 31
0.0
  0
LINE
  5
3E1
330
1B
100
AcDbEntity
 67
     1
  8
LAYOUT_
370
    30
100
AcDbLine
 10
90.5495543863
 20
276.8855092333
 30
0.0
 11
90.5495543863
 21
284.8855092333
 31
0.0
  0
LINE
  5
3E2
330
1B
100
AcDbEntity
 67
     1
  8
LAYOUT_
370
    30
100
AcDbLine
 10
87.5495543863
 20
287.8855092333
 30
0.0
 11
12.6393342483
 21
287.8855092333
 31
0.0
  0
LINE
  5
3E3
330
1B
100
AcDbEntity
 67
     1
  8
LAYOUT_
 62
     5
370
    30
100
AcDbLine
 10
179.4968722163
 20
17.7903293157
 30
0.0
 11
180.3048028967
 21
21.0214406964
 31
0.0
  0
LINE
  5
3E4
330
1B
100
AcDbEntity
 67
     1
  8
LAYOUT_
 62
     5
370
    30
100
AcDbLine
 10
180.3048028967
 20
21.0214406964
 30
0.0
 11
181.3380563699
 21
21.0214406964
 31
0.0
  0
LINE
  5
3E5
330
1B
100
AcDbEntity
 67
     1
  8
LAYOUT_
 62
     5
370
    30
100
AcDbLine
 10
181.3380563699
 20
21.0214406964
 30
0.0
 11
180.5308243648
 21
17.7903293157
 31
0.0
  0
LINE
  5
3E6
330
1B
100
AcDbEntity
 67
     1
  8
LAYOUT_
 62
     5
370
    30
100
AcDbLine
 10
180.5308243648
 20
17.7903293157
 30
0.0
 11
179.4968722163
 21
17.7903293157
 31
0.0
  0
LINE
  5
3E7
330
1B
100
AcDbEntity
 67
     1
  8
LAYOUT_
  6
Continuous
 62
     5
370
    30
100
AcDbLine
 10
170.0673837972
 20
19.1242522571
 30
0.0
 11
170.8479788055
 21
22.2470689623
 31
0.0
  0
LINE
  5
3E8
330
1B
100
AcDbEntity
 67
     1
  8
LAYOUT_
  6
Continuous
370
    30
100
AcDbLine
 10
170.8479788055
 20
22.2470689623
 30
0.0
 11
169.8139393226
 21
22.2470689623
 31
0.0
  0
LINE
  5
3E9
330
1B
100
AcDbEntity
 67
     1
  8
LAYOUT_
  6
Continuous
 62
     5
370
    30
100
AcDbLine
 10
169.8139393226
 20
22.2470689623
 30
0.0
 11
168.9226042751
 21
18.6817287723
 31
0.0
  0
LINE
  5
3EA
330
1B
100
AcDbEntity
 67
     1
  8
LAYOUT_
  6
Continuous
 62
     5
370
    30
100
AcDbLine
 10
169.8139393226
 20
17.7903937248
 30
0.0
 11
172.5981604978
 21
17.7903937248
 31
0.0
  0
LINE
  5
3EB
330
1B
100
AcDbEntity
 67
     1
  8
LAYOUT_
  6
Continuous
 62
     5
370
    30
100
AcDbLine
 10
173.462886166
 20
18.4661742169
 30
0.0
 11
174.4082812168
 21
22.2474050826
 31
0.0
  0
LINE
  5
3EC
330
1B
100
AcDbEntity
 67
     1
  8
LAYOUT_
  6
Continuous
 62
     5
370
    30
100
AcDbLine
 10
174.4082812168
 20
22.2474050826
 30
0.0
 11
173.3750277437
 21
22.2474050826
 31
0.0
  0
LINE
  5
3ED
330
1B
100
AcDbEntity
 67
     1
  8
LAYOUT_
  6
Continuous
 62
     5
370
    30
100
AcDbLine
 10
173.3750277437
 20
22.2474050826
 30
0.0
 11
172.5403727321
 21
18.9080863607
 31
0.0
  0
LINE
  5
3EE
330
1B
100
AcDbEntity
 67
     1
  8
LAYOUT_
370
    30
100
AcDbLine
 10
196.3456897126
 20
22.2470045531
 30
0.0
 11
196.150846631
 21
21.4671082202
 31
0.0
  0
LINE
  5
3EF
330
1B
100
AcDbEntity
 67
     1
  8
LAYOUT_
  6
Continuous
 62
     5
370
    30
100
AcDbLine
 10
197.5785105597
 20
18.5703014242
 30
0.0
 11
199.9068460845
 21
18.5703014242
 31
0.0
  0
LINE
  5
3F0
330
1B
100
AcDbEntity
 67
     1
  8
LAYOUT_
  6
Continuous
 62
     5
370
    30
100
AcDbLine
 10
172.1213034974
 20
18.6817287723
 30
0.0
 11
170.5130402308
 21
18.6817287723
 31
0.0
  0
LINE
  5
3F1
330
1B
100
AcDbEntity
 67
     1
  8
LAYOUT_
  6
Continuous
 62
     5
370
    30
100
AcDbLine
 10
175.184735437
 20
22.2470045531
 30
0.0
 11
177.3525503056
 21
22.2470045531
 31
0.0
  0
LINE
  5
3F2
330
1B
100
AcDbEntity
 67
     1
  8
LAYOUT_
  6
Continuous
 62
     5
370
    30
100
AcDbLine
 10
177.2915035489
 20
17.7903293157
 30
0.0
 11
175.9365974225
 21
17.7903293157
 31
0.0
  0
LINE
  5
3F3
330
1B
100
AcDbEntity
 67
     1
  8
LAYOUT_
  6
Continuous
 62
     5
370
    30
100
AcDbLine
 10
175.9365974225
 20
17.7903293157
 30
0.0
 11
176.1314405041
 21
18.570312983
 31
0.0
  0
LINE
  5
3F4
330
1B
100
AcDbEntity
 67
     1
  8
LAYOUT_
  6
Continuous
 62
     5
370
    30
100
AcDbLine
 10
176.1314405041
 20
18.570312983
 30
0.0
 11
177.0133434347
 21
18.570312983
 31
0.0
  0
LINE
  5
3F5
330
1B
100
AcDbEntity
 67
     1
  8
LAYOUT_
  6
Continuous
 62
     5
370
    30
100
AcDbLine
 10
178.3421707758
 20
19.6064020431
 30
0.0
 11
178.3540194684
 21
19.6534196543
 31
0.0
  0
LINE
  5
3F6
330
1B
100
AcDbEntity
 67
     1
  8
LAYOUT_
  6
Continuous
 62
     5
370
    30
100
AcDbLine
 10
176.9378270463
 20
21.4673334538
 30
0.0
 11
175.9361012973
 21
21.4673334538
 31
0.0
  0
LINE
  5
3F7
330
1B
100
AcDbEntity
 67
     1
  8
LAYOUT_
  6
Continuous
 62
     5
370
    30
100
AcDbLine
 10
175.9361012973
 20
21.4673334538
 30
0.0
 11
175.0168192367
 21
17.7905545493
 31
0.0
  0
LINE
  5
3F8
330
1B
100
AcDbEntity
 67
     1
  8
LAYOUT_
  6
Continuous
 62
     5
370
    30
100
AcDbLine
 10
175.0168192367
 20
17.7905545493
 30
0.0
 11
173.9828670882
 21
17.7905545493
 31
0.0
  0
LINE
  5
3F9
330
1B
100
AcDbEntity
 67
     1
  8
LAYOUT_
  6
Continuous
 62
     5
370
    30
100
AcDbLine
 10
173.9828670882
 20
17.7905545493
 30
0.0
 11
175.0766433115
 21
22.1626027379
 31
0.0
  0
LINE
  5
3FA
330
1B
100
AcDbEntity
 67
     1
  8
LAYOUT_
  6
Continuous
 62
     5
370
    30
100
AcDbLine
 10
200.8255235693
 20
22.2470637172
 30
0.0
 11
200.6306804877
 21
21.4671673843
 31
0.0
  0
LINE
  5
3FB
330
1B
100
AcDbEntity
 67
     1
  8
LAYOUT_
  6
Continuous
 62
     5
370
    30
100
AcDbLine
 10
200.1847528936
 20
19.6840601398
 30
0.0
 11
197.4286534003
 21
19.6840601398
 31
0.0
  0
LINE
  5
3FC
330
1B
100
AcDbEntity
 67
     1
  8
LAYOUT_
  6
Continuous
 62
     1
370
    30
100
AcDbLine
 10
180.6109973585
 20
22.2470045531
 30
0.0
 11
181.6450368413
 21
22.2470045531
 31
0.0
  0
LINE
  5
3FD
330
1B
100
AcDbEntity
 67
     1
  8
LAYOUT_
  6
Continuous
 62
     1
370
    30
100
AcDbLine
 10
181.6450368413
 20
22.2470045531
 30
0.0
 11
181.4177053571
 21
21.3378532848
 31
0.0
  0
LINE
  5
3FE
330
1B
100
AcDbEntity
 67
     1
  8
LAYOUT_
  6
Continuous
 62
     5
370
    30
100
AcDbLine
 10
180.3048028967
 20
21.0214406964
 30
0.0
 11
181.3380563699
 21
21.0214406964
 31
0.0
  0
LINE
  5
3FF
330
1B
100
AcDbEntity
 67
     1
  8
LAYOUT_
  6
Continuous
 62
     5
370
    30
100
AcDbLine
 10
181.3380563699
 20
21.0214406964
 30
0.0
 11
180.5308243648
 21
17.7903293157
 31
0.0
  0
LINE
  5
400
330
1B
100
AcDbEntity
 67
     1
  8
LAYOUT_
  6
Continuous
 62
     5
370
    30
100
AcDbLine
 10
180.5308243648
 20
17.7903293157
 30
0.0
 11
179.4968722163
 21
17.7903293157
 31
0.0
  0
LINE
  5
401
330
1B
100
AcDbEntity
 67
     1
  8
LAYOUT_
  6
Continuous
 62
     5
370
    30
100
AcDbLine
 10
179.4968722163
 20
17.7903293157
 30
0.0
 11
180.3048028967
 21
21.0214406964
 31
0.0
  0
LINE
  5
402
330
1B
100
AcDbEntity
 67
     1
  8
LAYOUT_
  6
Continuous
 62
     5
370
    30
100
AcDbLine
 10
181.2197182365
 20
17.7903293157
 30
0.0
 11
182.3339307131
 21
22.2470045531
 31
0.0
  0
LINE
  5
403
330
1B
100
AcDbEntity
 67
     1
  8
LAYOUT_
  6
Continuous
 62
     5
370
    30
100
AcDbLine
 10
182.3339307131
 20
22.2470045531
 30
0.0
 11
183.1889346436
 21
22.2470045531
 31
0.0
  0
LINE
  5
404
330
1B
100
AcDbEntity
 67
     1
  8
LAYOUT_
  6
Continuous
 62
     5
370
    30
100
AcDbLine
 10
197.5954621344
 20
20.3526050927
 30
0.0
 11
200.3522603031
 21
20.3526050927
 31
0.0
  0
LINE
  5
405
330
1B
100
AcDbEntity
 67
     1
  8
LAYOUT_
  6
Continuous
 62
     5
370
    30
100
AcDbLine
 10
183.7835967996
 20
21.8839060984
 30
0.0
 11
185.141646965
 21
19.2385466443
 31
0.0
  0
LINE
  5
406
330
1B
100
AcDbEntity
 67
     1
  8
LAYOUT_
  6
Continuous
 62
     5
370
    30
100
AcDbLine
 10
185.141646965
 20
19.2385466443
 30
0.0
 11
185.8935089505
 21
22.246780596
 31
0.0
  0
LINE
  5
407
330
1B
100
AcDbEntity
 67
     1
  8
LAYOUT_
  6
Continuous
 62
     5
370
    30
100
AcDbLine
 10
185.8935089505
 20
22.246780596
 30
0.0
 11
186.9274610989
 21
22.246780596
 31
0.0
  0
LINE
  5
408
330
1B
100
AcDbEntity
 67
     1
  8
LAYOUT_
  6
Continuous
 62
     5
370
    30
100
AcDbLine
 10
186.9274610989
 20
22.246780596
 30
0.0
 11
185.8133359568
 21
17.7901053585
 31
0.0
  0
LINE
  5
409
330
1B
100
AcDbEntity
 67
     1
  8
LAYOUT_
  6
Continuous
 62
     5
370
    30
100
AcDbLine
 10
185.8133359568
 20
17.7901053585
 30
0.0
 11
185.1664499391
 21
17.7901053585
 31
0.0
  0
LINE
  5
40A
330
1B
100
AcDbEntity
 67
     1
  8
LAYOUT_
  6
Continuous
 62
     5
370
    30
100
AcDbLine
 10
196.1285078854
 20
18.6210251536
 30
0.0
 11
196.9090155593
 21
21.7406978198
 31
0.0
  0
LINE
  5
40B
330
1B
100
AcDbEntity
 67
     1
  8
LAYOUT_
  6
Continuous
 62
     5
370
    30
100
AcDbLine
 10
184.572399124
 20
18.1532038132
 30
0.0
 11
183.0736532147
 21
21.0717453199
 31
0.0
  0
LINE
  5
40C
330
1B
100
AcDbEntity
 67
     1
  8
LAYOUT_
  6
Continuous
 62
     5
370
    30
100
AcDbLine
 10
183.0736532147
 20
21.0717453199
 30
0.0
 11
182.2536703849
 21
17.7903293157
 31
0.0
  0
LINE
  5
40D
330
1B
100
AcDbEntity
 67
     1
  8
LAYOUT_
  6
Continuous
370
    30
100
AcDbLine
 10
199.9839330998
 20
290.0554081804
 30
0.0
 11
10.6393342483
 21
290.0554081804
 31
0.0
  0
LINE
  5
40E
330
1B
100
AcDbEntity
 67
     1
  8
0
  6
Continuous
 62
   179
370
    30
100
AcDbLine
 10
7.6393342483
 20
287.0554081804
 30
0.0
 11
7.6393342483
 21
10.0292124178
 31
0.0
  0
LINE
  5
40F
330
1B
100
AcDbEntity
 67
     1
  8
0
  6
Continuous
 62
   179
370
    30
100
AcDbLine
 10
10.6393342483
 20
7.0292124178
 30
0.0
 11
165.000198038
 21
7.0292124178
 31
0.0
  0
LINE
  5
410
330
1B
100
AcDbEntity
 67
     1
  8
0
  6
Continuous
 62
   179
370
    30
100
AcDbLine
 10
168.0002007161
 20
10.029215096
 30
0.0
 11
168.0002007161
 21
11.9169709142
 31
0.0
  0
LINE
  5
411
330
1B
100
AcDbEntity
 67
     1
  8
0
  6
Continuous
 62
   179
370
    30
100
AcDbLine
 10
171.0002007161
 20
14.9169709142
 30
0.0
 11
200.2151368976
 21
14.9169709142
 31
0.0
  0
LINE
  5
412
330
1B
100
AcDbEntity
 67
     1
  8
0
  6
Continuous
 62
   179
370
    30
100
AcDbLine
 10
202.9839330998
 20
17.9080509255
 30
0.0
 11
202.9839330998
 21
287.0554081804
 31
0.0
  0
LINE
  5
413
330
1B
100
AcDbEntity
 67
     1
  8
LAYOUT_
  6
Continuous
 62
     5
370
    30
100
AcDbLine
 10
182.2536703849
 20
17.7903293157
 30
0.0
 11
181.2197182365
 21
17.7903293157
 31
0.0
  0
LINE
  5
414
330
1B
100
AcDbEntity
 67
     1
  8
LAYOUT_
  6
Continuous
 62
     5
370
    30
100
AcDbLine
 10
188.1390493302
 20
22.2470045531
 30
0.0
 11
191.4070158344
 21
22.2470045531
 31
0.0
  0
LINE
  5
415
330
1B
100
AcDbEntity
 67
     1
  8
LAYOUT_
  6
Continuous
 62
     5
370
    30
100
AcDbLine
 10
191.4070158344
 20
22.2470045531
 30
0.0
 11
191.2121727528
 21
21.4671082202
 31
0.0
  0
LINE
  5
416
330
1B
100
AcDbEntity
 67
     1
  8
0
  6
Continuous
 62
   179
370
    30
100
AcDbLine
 10
200.9839330998
 20
270.8855092333
 30
0.0
 11
200.9839330998
 21
28.3658790023
 31
0.0
  0
LINE
  5
417
330
1B
100
AcDbEntity
 67
     1
  8
LAYOUT_
  6
Continuous
 62
     5
370
    30
100
AcDbLine
 10
191.2121727528
 20
21.4671082202
 30
0.0
 11
188.7171158283
 21
21.4671082202
 31
0.0
  0
LINE
  5
418
330
1B
100
AcDbEntity
 67
     1
  8
0
  6
Continuous
 62
   179
370
    30
100
AcDbLine
 10
165.9839087496
 20
22.3658790023
 30
0.0
 11
165.9839087496
 21
12.029215096
 31
0.0
  0
LINE
  5
419
330
1B
100
AcDbEntity
 67
     1
  8
0
  6
Continuous
 62
   179
370
    30
100
AcDbLine
 10
162.9887208729
 20
8.8593134707
 30
0.0
 11
9.6393342483
 21
8.8593134707
 31
0.0
  0
LINE
  5
41A
330
1B
100
AcDbEntity
 67
     1
  8
LAYOUT_
  6
Continuous
 62
     5
370
    30
100
AcDbLine
 10
197.8113528102
 20
21.2139844355
 30
0.0
 11
197.5954621344
 21
20.3526050927
 31
0.0
  0
LINE
  5
41B
330
1B
100
AcDbEntity
 67
     1
  8
LAYOUT_
370
    30
100
AcDbLine
 10
168.9839087496
 20
25.3658790023
 30
0.0
 11
197.9839330998
 21
25.3658790023
 31
0.0
  0
LINE
  5
41C
330
1B
100
AcDbEntity
 67
     1
  8
LAYOUT_
  6
Continuous
 62
     5
370
    30
100
AcDbLine
 10
188.3928450754
 20
21.2139252715
 30
0.0
 11
188.1769543996
 21
20.3525459286
 31
0.0
  0
LINE
  5
41D
330
1B
100
AcDbEntity
 67
     1
  8
LAYOUT_
  6
Continuous
 62
     5
370
    30
100
AcDbLine
 10
188.1769543996
 20
20.3525459286
 30
0.0
 11
190.9337525682
 21
20.3525459286
 31
0.0
  0
LINE
  5
41E
330
1B
100
AcDbEntity
 67
     1
  8
LAYOUT_
  6
Continuous
 62
     5
370
    30
100
AcDbLine
 10
190.9337525682
 20
20.3525459286
 30
0.0
 11
190.7662451587
 21
19.6840009758
 31
0.0
  0
LINE
  5
41F
330
1B
100
AcDbEntity
 67
     1
  8
LAYOUT_
  6
Continuous
 62
     5
370
    30
100
AcDbLine
 10
190.7662451587
 20
19.6840009758
 30
0.0
 11
188.0101456654
 21
19.6840009758
 31
0.0
  0
LINE
  5
420
330
1B
100
AcDbEntity
 67
     1
  8
LAYOUT_
  6
Continuous
 62
     5
370
    30
100
AcDbLine
 10
188.0101456654
 20
19.6840009758
 30
0.0
 11
187.8357388371
 21
18.9855876527
 31
0.0
  0
LINE
  5
421
330
1B
100
AcDbEntity
 67
     1
  8
LAYOUT_
  6
Continuous
 62
     5
370
    30
100
AcDbLine
 10
199.711391662
 20
17.7903177568
 30
0.0
 11
196.7775666326
 21
17.7903177568
 31
0.0
  0
LINE
  5
422
330
1B
100
AcDbEntity
 67
     1
  8
LAYOUT_
  6
Continuous
 62
     5
370
    30
100
AcDbLine
 10
188.1600028249
 20
18.5702422601
 30
0.0
 11
190.4883383497
 21
18.5702422601
 31
0.0
  0
LINE
  5
423
330
1B
100
AcDbEntity
 67
     1
  8
LAYOUT_
  6
Continuous
 62
     5
370
    30
100
AcDbLine
 10
190.4883383497
 20
18.5702422601
 30
0.0
 11
190.2928839272
 21
17.7902585927
 31
0.0
  0
LINE
  5
424
330
1B
100
AcDbEntity
 67
     1
  8
LAYOUT_
  6
Continuous
 62
     5
370
    30
100
AcDbLine
 10
190.2928839272
 20
17.7902585927
 30
0.0
 11
187.3590588977
 21
17.7902585927
 31
0.0
  0
LINE
  5
425
330
1B
100
AcDbEntity
 67
     1
  8
LAYOUT_
  6
Continuous
 62
     5
370
    30
100
AcDbLine
 10
199.9068460845
 20
18.5703014242
 30
0.0
 11
199.711391662
 21
17.7903177568
 31
0.0
  0
LINE
  5
426
330
1B
100
AcDbEntity
 67
     1
  8
LAYOUT_
  6
Continuous
 62
     5
370
    30
100
AcDbLine
 10
186.7100001505
 20
18.6209659895
 30
0.0
 11
187.4905078244
 21
21.7406386557
 31
0.0
  0
LINE
  5
427
330
1B
100
AcDbEntity
 67
     1
  8
LAYOUT_
  6
Continuous
 62
     5
370
    30
100
AcDbLine
 10
193.2539640594
 20
21.4671082202
 30
0.0
 11
196.150846631
 21
21.4671082202
 31
0.0
  0
LINE
  5
428
330
1B
100
AcDbEntity
 67
     1
  8
LAYOUT_
  6
Continuous
 62
     5
370
    30
100
AcDbLine
 10
197.4286534003
 20
19.6840601398
 30
0.0
 11
197.2542465719
 21
18.9856468168
 31
0.0
  0
LINE
  5
429
330
1B
100
AcDbEntity
 67
     1
  8
LAYOUT_
  6
Continuous
 62
     5
370
    30
100
AcDbLine
 10
196.3456897126
 20
22.2470045531
 30
0.0
 11
192.7274248667
 21
22.2470045531
 31
0.0
  0
LINE
  5
42A
330
1B
100
AcDbEntity
 67
     1
  8
LAYOUT_
  6
Continuous
 62
     5
370
    30
100
AcDbLine
 10
200.3522603031
 20
20.3526050927
 30
0.0
 11
200.1847528936
 21
19.6840601398
 31
0.0
  0
LINE
  5
42B
330
1B
100
AcDbEntity
 67
     1
  8
LAYOUT_
  6
Continuous
 62
     5
370
    30
100
AcDbLine
 10
200.6306804877
 20
21.4671673843
 30
0.0
 11
198.1356235631
 21
21.4671673843
 31
0.0
  0
LINE
  5
42C
330
1B
100
AcDbEntity
 67
     1
  8
LAYOUT_
  6
Continuous
 62
     5
370
    30
100
AcDbLine
 10
192.1688212694
 20
20.8156357174
 30
0.0
 11
194.4506075506
 21
18.7635389497
 31
0.0
  0
LINE
  5
42D
330
1B
100
AcDbEntity
 67
     1
  8
LAYOUT_
  6
Continuous
 62
     5
370
    30
100
AcDbLine
 10
197.5575570651
 20
22.2470637172
 30
0.0
 11
200.8255235693
 21
22.2470637172
 31
0.0
  0
LINE
  5
42E
330
1B
100
AcDbEntity
 67
     1
  8
LAYOUT_
  6
Continuous
 62
     5
370
    30
100
AcDbLine
 10
194.3982463234
 20
18.566482045
 30
0.0
 11
191.1805844427
 21
18.566482045
 31
0.0
  0
LINE
  5
42F
330
1B
100
AcDbEntity
 67
     1
  8
LAYOUT_
  6
Continuous
 62
     5
370
    30
100
AcDbLine
 10
191.1805844427
 20
18.566482045
 30
0.0
 11
190.9856540267
 21
17.7864983776
 31
0.0
  0
LINE
  5
430
330
1B
100
AcDbEntity
 67
     1
  8
LAYOUT_
  6
Continuous
 62
     5
370
    30
100
AcDbLine
 10
190.9856540267
 20
17.7864983776
 30
0.0
 11
194.456760382
 21
17.7864983776
 31
0.0
  0
LINE
  5
431
330
1B
100
AcDbEntity
 67
     1
  8
LAYOUT_
  6
Continuous
 62
     5
370
    30
100
AcDbLine
 10
195.1232665766
 20
19.5245845515
 30
0.0
 11
193.1794644845
 21
21.2728448867
 31
0.0
  0
ARC
  5
432
330
1B
100
AcDbEntity
 67
     1
  8
LAYOUT_
370
    30
100
AcDbCircle
 10
93.5495543863
 20
276.8855092333
 30
0.0
 40
3.000000000000014
100
AcDbArc
 50
180.0
 51
270.0
  0
ARC
  5
433
330
1B
100
AcDbEntity
 67
     1
  8
LAYOUT_
370
    30
100
AcDbCircle
 10
87.5495543863
 20
284.8855092333
 30
0.0
 40
3.0
100
AcDbArc
 50
0.0
 51
90.0
  0
ARC
  5
434
330
1B
100
AcDbEntity
 67
     1
  8
LAYOUT_
370
    30
100
AcDbCircle
 10
12.6393342483
 20
284.8855092333
 30
0.0
 40
3.000000000000004
100
AcDbArc
 50
90.0
 51
180.0
  0
ARC
  5
435
330
1B
100
AcDbEntity
 67
     1
  8
LAYOUT_
  6
Continuous
 62
     5
370
    30
100
AcDbCircle
 10
169.8139393226
 20
18.6817287723
 30
0.0
 40
0.8913350474915127
100
AcDbArc
 50
180.0
 51
270.0
  0
ARC
  5
436
330
1B
100
AcDbEntity
 67
     1
  8
LAYOUT_
  6
Continuous
 62
     5
370
    30
100
AcDbCircle
 10
172.5980078949
 20
18.6817287723
 30
0.0
 40
0.891335060555241
100
AcDbArc
 50
270.0098094466
 51
346.0052277623
  0
ARC
  5
437
330
1B
100
AcDbEntity
 67
     1
  8
LAYOUT_
  6
Continuous
 62
     5
370
    30
100
AcDbCircle
 10
172.1518111063
 20
19.12635089
 30
0.0
 40
0.445667523746016
100
AcDbArc
 50
266.074820003
 51
330.6760170475
  0
ARC
  5
438
330
1B
100
AcDbEntity
 67
     1
  8
0
  6
Continuous
 62
   179
370
    30
100
AcDbCircle
 10
165.000198038
 20
10.029215096
 30
0.0
 40
3.000002678143693
100
AcDbArc
 50
270.0
 51
0.0
  0
ARC
  5
439
330
1B
100
AcDbEntity
 67
     1
  8
LAYOUT_
370
    30
100
AcDbCircle
 10
171.0002007161
 20
11.9169709142
 30
0.0
 40
3.000000000000028
100
AcDbArc
 50
90.0
 51
180.0
  0
ARC
  5
43A
330
1B
100
AcDbEntity
 67
     1
  8
0
  6
Continuous
 62
   179
370
    30
100
AcDbCircle
 10
199.9839304216
 20
17.9080509255
 30
0.0
 40
3.000002678143705
100
AcDbArc
 50
274.4200974644
 51
0.0
  0
ARC
  5
43B
330
1B
100
AcDbEntity
 67
     1
  8
LAYOUT_
370
    30
100
AcDbCircle
 10
197.9839330998
 20
270.8855092333
 30
0.0
 40
2.999999999999943
100
AcDbArc
 50
0.0
 51
90.0
  0
ARC
  5
43C
330
1B
100
AcDbEntity
 67
     1
  8
LAYOUT_
  6
Continuous
 62
     5
370
    30
100
AcDbCircle
 10
170.5130402308
 20
19.127396296
 30
0.0
 40
0.4456675237457368
100
AcDbArc
 50
180.4042063829
 51
270.0000000003
  0
ARC
  5
43D
330
1B
100
AcDbEntity
 67
     1
  8
LAYOUT_
  6
Continuous
 62
     5
370
    30
100
AcDbCircle
 10
177.1727103496
 20
20.0207122467
 30
0.0
 40
2.233544233581845
100
AcDbArc
 50
346.6914600051
 51
85.3816733727
  0
ARC
  5
43E
330
1B
100
AcDbEntity
 67
     1
  8
LAYOUT_
370
    30
100
AcDbCircle
 10
199.9839330998
 20
287.0554081804
 30
0.0
 40
3.0
100
AcDbArc
 50
0.0
 51
90.0
  0
ARC
  5
43F
330
1B
100
AcDbEntity
 67
     1
  8
LAYOUT_
  6
Continuous
370
    30
100
AcDbCircle
 10
197.9839330998
 20
28.3658790023
 30
0.0
 40
3.000000000000028
100
AcDbArc
 50
270.0
 51
0.0
  0
ARC
  5
440
330
1B
100
AcDbEntity
 67
     1
  8
LAYOUT_
370
    30
100
AcDbCircle
 10
168.9839087496
 20
22.3658790023
 30
0.0
 40
3.000000000000007
100
AcDbArc
 50
90.0
 51
180.0
  0
ARC
  5
441
330
1B
100
AcDbEntity
 67
     1
  8
0
  6
Continuous
 62
   179
370
    30
100
AcDbCircle
 10
162.9887208729
 20
11.8593161489
 30
0.0
 40
3.000002678143741
100
AcDbArc
 50
270.0
 51
3.2465649992
  0
ARC
  5
442
330
1B
100
AcDbEntity
 67
     1
  8
LAYOUT_
  6
Continuous
 62
     5
370
    30
100
AcDbCircle
 10
177.1727103496
 20
20.0207122467
 30
0.0
 40
2.233544233581874
100
AcDbArc
 50
273.0487696877
 51
346.6914600051
  0
ARC
  5
443
330
1B
100
AcDbEntity
 67
     1
  8
LAYOUT_
  6
Continuous
 62
     5
370
    30
100
AcDbCircle
 10
177.0127774411
 20
19.9412216085
 30
0.0
 40
1.370908742272629
100
AcDbArc
 50
270.0236551432
 51
345.8635575518
  0
ARC
  5
444
330
1B
100
AcDbEntity
 67
     1
  8
LAYOUT_
370
    30
100
AcDbCircle
 10
10.6393342483
 20
10.0292124178
 30
0.0
 40
2.999999999999999
100
AcDbArc
 50
180.0
 51
270.0
  0
ARC
  5
445
330
1B
100
AcDbEntity
 67
     1
  8
LAYOUT_
  6
Continuous
 62
     5
370
    30
100
AcDbCircle
 10
176.9378270463
 20
20.0075385479
 30
0.0
 40
1.459794905866598
100
AcDbArc
 50
345.961061111
 51
90.0
  0
ARC
  5
446
330
1B
100
AcDbEntity
 67
     1
  8
LAYOUT_
370
    30
100
AcDbCircle
 10
10.6393342483
 20
287.0554081804
 30
0.0
 40
3.000000000000057
100
AcDbArc
 50
90.0
 51
180.0
  0
ARC
  5
447
330
1B
100
AcDbEntity
 67
     1
  8
LAYOUT_
  6
Continuous
 62
     5
370
    30
100
AcDbCircle
 10
175.184735437
 20
22.1355876722
 30
0.0
 40
0.1114168809365383
100
AcDbArc
 50
89.9999999999
 51
165.967730555
  0
ARC
  5
448
330
1B
100
AcDbEntity
 67
     1
  8
LAYOUT_
  6
Continuous
 62
     1
370
    30
100
AcDbCircle
 10
180.1829862628
 20
21.0547421387
 30
0.0
 40
1.266760894066332
100
AcDbArc
 50
12.9142283995
 51
70.2523349868
  0
ARC
  5
449
330
1B
100
AcDbEntity
 67
     1
  8
LAYOUT_
  6
Continuous
 62
     5
370
    30
100
AcDbCircle
 10
183.1889346436
 20
21.5785032675
 30
0.0
 40
0.668501285618757
100
AcDbArc
 50
27.1838388889
 51
90.0
  0
ARC
  5
44A
330
1B
100
AcDbEntity
 67
     1
  8
LAYOUT_
  6
Continuous
 62
     5
370
    30
100
AcDbCircle
 10
185.1670614236
 20
18.4586063645
 30
0.0
 40
0.6685012856186513
100
AcDbArc
 50
207.1838119432
 51
269.9475909936
  0
ARC
  5
44B
330
1B
100
AcDbEntity
 67
     1
  8
LAYOUT_
  6
Continuous
 62
     5
370
    30
100
AcDbCircle
 10
188.1390493302
 20
21.5785032675
 30
0.0
 40
0.6685012856187369
100
AcDbArc
 50
90.0
 51
165.9637555556
  0
ARC
  5
44C
330
1B
100
AcDbEntity
 67
     1
  8
LAYOUT_
  6
Continuous
 62
     5
370
    30
100
AcDbCircle
 10
188.7171158283
 20
21.1328575774
 30
0.0
 40
0.3342506428094048
100
AcDbArc
 50
90.0
 51
165.9637555553
  0
ARC
  5
44D
330
1B
100
AcDbEntity
 67
     1
  8
LAYOUT_
  6
Continuous
 62
     5
370
    30
100
AcDbCircle
 10
188.1600028249
 20
18.9044929029
 30
0.0
 40
0.334250642809277
100
AcDbArc
 50
165.958975
 51
270.0
  0
ARC
  5
44E
330
1B
100
AcDbEntity
 67
     1
  8
LAYOUT_
  6
Continuous
 62
     5
370
    30
100
AcDbCircle
 10
187.358523918
 20
18.4587596643
 30
0.0
 40
0.6685012856186544
100
AcDbArc
 50
165.9574885007
 51
270.0458519451
  0
ARC
  5
44F
330
1B
100
AcDbEntity
 67
     1
  8
LAYOUT_
  6
Continuous
 62
     5
370
    30
100
AcDbCircle
 10
192.7177321051
 20
21.4261029653
 30
0.0
 40
0.8209588092300357
100
AcDbArc
 50
89.3235138889
 51
228.0392277776
  0
ARC
  5
450
330
1B
100
AcDbEntity
 67
     1
  8
LAYOUT_
  6
Continuous
 62
     5
370
    30
100
AcDbCircle
 10
194.3809850767
 20
18.6765537067
 30
0.0
 40
0.1114168809364326
100
AcDbArc
 50
278.9124394813
 51
51.3264264757
  0
ARC
  5
451
330
1B
100
AcDbEntity
 67
     1
  8
LAYOUT_
  6
Continuous
 62
     5
370
    30
100
AcDbCircle
 10
194.456760382
 20
18.7833344688
 30
0.0
 40
0.9968360911629807
100
AcDbArc
 50
270.0
 51
48.0392277778
  0
ARC
  5
452
330
1B
100
AcDbEntity
 67
     1
  8
LAYOUT_
  6
Continuous
 62
     5
370
    30
100
AcDbCircle
 10
193.2539640594
 20
21.3556913392
 30
0.0
 40
0.1114168809364989
100
AcDbArc
 50
90.0
 51
228.036575
  0
ARC
  5
453
330
1B
100
AcDbEntity
 67
     1
  8
LAYOUT_
  6
Continuous
 62
     5
370
    30
100
AcDbCircle
 10
198.1356235631
 20
21.1329167414
 30
0.0
 40
0.3342506428093059
100
AcDbArc
 50
90.0
 51
165.9637555556
  0
ARC
  5
454
330
1B
100
AcDbEntity
 67
     1
  8
LAYOUT_
  6
Continuous
 62
     5
370
    30
100
AcDbCircle
 10
196.7770316528
 20
18.4588188284
 30
0.0
 40
0.6685012856186068
100
AcDbArc
 50
165.9574885004
 51
270.0458519451
  0
ARC
  5
455
330
1B
100
AcDbEntity
 67
     1
  8
LAYOUT_
  6
Continuous
 62
     5
370
    30
100
AcDbCircle
 10
197.5575570651
 20
21.5785624316
 30
0.0
 40
0.6685012856185826
100
AcDbArc
 50
90.0
 51
165.9637555556
  0
ARC
  5
456
330
1B
100
AcDbEntity
 67
     1
  8
LAYOUT_
  6
Continuous
 62
     5
370
    30
100
AcDbCircle
 10
197.5785105597
 20
18.904552067
 30
0.0
 40
0.3342506428094048
100
AcDbArc
 50
165.958975
 51
270.0
  0
MTEXT
  5
457
330
1B
100
AcDbEntity
 67
     1
  8
TEXTOS_PORTUGUES
 62
     7
100
AcDbMText
 10
-29.2851579747
 20
243.8553499906
 30
0.0
 40
2.38125
 41
0.0
 71
     1
 72
     1
  1
Textos/Notas
  7
SLDTEXTSTYLE0
 73
     1
 44
1.0
  0
INSERT
  5
45D
330
1B
100
AcDbEntity
 67
     1
  8
TEXTOS_PORTUGUES
 62
     7
100
AcDbBlockReference
  2
SW_NOTE_2
 10
-31.7938001267
 20
233.583481411
 30
0.0
  0
MTEXT
  5
45E
330
1B
100
AcDbEntity
 67
     1
  8
TEXTOS_PORTUGUES
 62
     7
100
AcDbMText
 10
-29.7196341648
 20
229.5706910726
 30
0.0
 40
2.6458333333
 41
0.0
 71
     1
 72
     1
  1
SUBTÍTULO 1
  7
SLDTEXTSTYLE0
 73
     1
 44
1.0
  0
MTEXT
  5
45F
330
1B
100
AcDbEntity
 67
     1
  8
TEXTOS_PORTUGUES
 62
     7
100
AcDbMText
 10
23.2664373611
 20
281.884775423
 30
0.0
 40
3.175
 41
0.0
 71
     1
 72
     1
  1
\LUSINAGEM/MONTAGEM
  7
SLDTEXTSTYLE0
 73
     1
 44
1.0
  0
MTEXT
  5
460
330
1B
100
AcDbEntity
 67
     1
  8
LAYOUT_
 62
     7
100
AcDbMText
 10
5.6133829609
 20
55.758651613
 30
0.0
 40
1.8520833333
 41
0.0
 71
     2
 72
     1
  1
Reservamos o direito de alteração sem aviso prévio
  7
SLDTEXTSTYLE0
 11
-3.269436733918102E-15
 21
1.0
 31
0.0
 73
     1
 44
1.0
  0
MTEXT
  5
461
330
1B
100
AcDbEntity
 67
     1
  8
TEXTOS_PORTUGUES
 62
     7
100
AcDbMText
 10
165.3141722366
 20
28.8434067723
 30
0.0
 40
2.1166666667
 41
0.0
 71
     1
 72
     1
  1
*Todas as medidas em mm.
  7
SLDTEXTSTYLE0
 73
     1
 44
1.0
  0
MTEXT
  5
462
330
1B
100
AcDbEntity
 67
     1
  8
LAYOUT_
 62
     7
100
AcDbMText
 10
189.7438185528
 20
11.5572210479
 30
0.0
 40
2.5
 41
0.0
 71
     1
 72
     1
  1
2/4
  7
SLDTEXTSTYLE0
 73
     1
 44
1.0
  0
MTEXT
  5
463
330
1B
100
AcDbEntity
 67
     1
  8
TEXTOS_PORTUGUES
 62
     7
100
AcDbMText
 10
174.5856658711
 20
11.5572210479
 30
0.0
 40
2.5
 41
0.0
 71
     1
 72
     1
  1
FOLHA:
  7
SLDTEXTSTYLE0
 73
     1
 44
1.0
  0
INSERT
  5
47B
330
1B
100
AcDbEntity
 67
     1
  8
LAYOUT_
 62
     7
100
AcDbBlockReference
  2
SW_NOTE_3
 10
222.9302142857
 20
283.8511825994
 30
0.0
  0
MTEXT
  5
47C
330
1B
100
AcDbEntity
 67
     1
  8
TEXTOS_PORTUGUES
100
AcDbMText
 10
147.1791831691
 20
287.9178607695
 30
0.0
 40
5.2916666667
 41
0.0
 71
     2
 72
     1
  1
PIVO BASCULANTE MASTER
  7
SLDTEXTSTYLE0
 73
     1
 44
1.0
  0
MTEXT
  5
47D
330
1B
100
AcDbEntity
 67
     1
  8
TEXTOS_PORTUGUES
100
AcDbMText
 10
146.6769525348
 20
281.3632687115
 30
0.0
 40
5.2916666667
 41
0.0
 71
     2
 72
     1
  1
PIV-7580
  7
SLDTEXTSTYLE0
 73
     1
 44
1.0
  0
ENDSEC
  0
SECTION
  2
OBJECTS
  0
DICTIONARY
  5
C
330
0
100
AcDbDictionary
281
     1
  3
ACAD_GROUP
350
D
  3
ACAD_LAYOUT
350
1A
  3
ACAD_MLINESTYLE
350
17
  3
ACAD_PLOTSETTINGS
350
19
  3
ACAD_PLOTSTYLENAME
350
E
  3
ACAD_SCALELIST
350
47
  0
DICTIONARY
  5
D
102
{ACAD_REACTORS
330
C
102
}
330
C
100
AcDbDictionary
281
     1
  0
DICTIONARY
  5
1A
102
{ACAD_REACTORS
330
C
102
}
330
C
100
AcDbDictionary
281
     1
  3
DETALHE DE USINAGEM
350
26
  3
INSTRUÇÃO DE MONTAGEM
350
526
  3
Model
350
22
  3
USINAGEM_MONTAGEM
350
1E
  0
DICTIONARY
  5
17
102
{ACAD_REACTORS
330
C
102
}
330
C
100
AcDbDictionary
281
     1
  3
Standard
350
18
  0
DICTIONARY
  5
19
102
{ACAD_REACTORS
330
C
102
}
330
C
100
AcDbDictionary
281
     1
  0
ACDBDICTIONARYWDFLT
  5
E
102
{ACAD_REACTORS
330
C
102
}
330
C
100
AcDbDictionary
281
     1
  3
Normal
350
F
100
AcDbDictionaryWithDefault
340
F
  0
DICTIONARY
  5
47
102
{ACAD_REACTORS
330
C
102
}
330
C
100
AcDbDictionary
281
     1
  3
A0
350
48
  3
A1
350
49
  3
A2
350
4A
  3
A3
350
4B
  3
A4
350
4C
  3
A5
350
4D
  3
A6
350
4E
  3
A7
350
4F
  3
A8
350
50
  3
A9
350
51
  3
B0
350
52
  3
B1
350
53
  3
B2
350
54
  3
B3
350
55
  3
B4
350
56
  3
B5
350
57
  3
B6
350
58
  3
B7
350
59
  3
B8
350
5A
  3
B9
350
5B
  3
C0
350
5C
  3
C1
350
5D
  3
C2
350
5E
  3
C3
350
5F
  3
C4
350
60
  3
C5
350
61
  3
C6
350
62
  3
C7
350
63
  3
C8
350
64
  3
C9
350
65
  3
D0
350
66
  3
D1
350
67
  3
D2
350
68
  0
LAYOUT
  5
26
102
{ACAD_REACTORS
330
1A
102
}
330
1A
100
AcDbPlotSettings
  1

  2
none_device
  4
ISO_A4_(210.00_x_297.00_MM)
  6

 40
7.5
 41
20.0
 42
7.5
 43
20.0
 44
210.0
 45
297.0
 46
0.0
 47
0.0
 48
0.0
 49
0.0
140
0.0
141
0.0
142
1.0
143
1.0
 70
  4832
 72
     1
 73
     0
 74
     1
  7

 75
    16
147
1.0
148
0.0
149
0.0
100
AcDbLayout
  1
DETALHE DE USINAGEM
 70
     1
 71
     2
 10
0.0
 20
0.0
 11
210.0
 21
297.0
 12
0.0
 22
0.0
 32
0.0
 14
0.0
 24
0.0
 34
0.0
 15
210.0
 25
297.0
 35
0.0
146
0.0
 13
0.0
 23
0.0
 33
0.0
 16
1.0
 26
0.0
 36
0.0
 17
0.0
 27
1.0
 37
0.0
 76
     0
330
23
  0
LAYOUT
  5
526
102
{ACAD_REACTORS
330
1A
102
}
330
1A
100
AcDbPlotSettings
  1

  2
none_device
  4
ISO_A4_(210.00_x_297.00_MM)
  6

 40
7.5
 41
20.0
 42
7.5
 43
20.0
 44
210.0
 45
297.0
 46
0.0
 47
0.0
 48
0.0
 49
0.0
140
0.0
141
0.0
142
1.0
143
1.0
 70
  4832
 72
     1
 73
     0
 74
     1
  7

 75
    16
147
1.0
148
0.0
149
0.0
100
AcDbLayout
  1
INSTRUÇÃO DE MONTAGEM
 70
     1
 71
     3
 10
0.0
 20
0.0
 11
210.0
 21
297.0
 12
0.0
 22
0.0
 32
0.0
 14
0.0
 24
0.0
 34
0.0
 15
210.0
 25
297.0
 35
0.0
146
0.0
 13
0.0
 23
0.0
 33
0.0
 16
1.0
 26
0.0
 36
0.0
 17
0.0
 27
1.0
 37
0.0
 76
     0
330
525
  0
LAYOUT
  5
22
102
{ACAD_REACTORS
330
1A
102
}
330
1A
100
AcDbPlotSettings
  1

  2
none_device
  4
Letter_(8.50_x_11.00_Inches)
  6

 40
6.35
 41
6.35
 42
6.35000508
 43
6.35000508
 44
215.9
 45
279.4
 46
0.0
 47
0.0
 48
0.0
 49
0.0
140
0.0
141
0.0
142
1.0
143
1.0
 70
  1712
 72
     1
 73
     0
 74
     0
  7

 75
     0
147
1.0
148
0.0
149
0.0
100
AcDbLayout
  1
Model
 70
     1
 71
     0
 10
0.0
 20
0.0
 11
210.0
 21
297.0
 12
0.0
 22
0.0
 32
0.0
 14
0.0
 24
0.0
 34
0.0
 15
210.0
 25
297.0
 35
0.0
146
0.0
 13
0.0
 23
0.0
 33
0.0
 16
1.0
 26
0.0
 36
0.0
 17
0.0
 27
1.0
 37
0.0
 76
     0
330
1F
331
29
  0
LAYOUT
  5
1E
102
{ACAD_REACTORS
330
1A
102
}
330
1A
100
AcDbPlotSettings
  1

  2
none_device
  4
ISO_A4_(210.00_x_297.00_MM)
  6

 40
7.5
 41
20.0
 42
7.5
 43
20.0
 44
210.0
 45
297.0
 46
0.0
 47
0.0
 48
0.0
 49
0.0
140
0.0
141
0.0
142
1.0
143
1.0
 70
  4832
 72
     0
 73
     0
 74
     1
  7

 75
     0
147
1.0
148
0.0
149
0.0
100
AcDbLayout
  1
USINAGEM_MONTAGEM
 70
     1
 71
     1
 10
0.0
 20
0.0
 11
210.0
 21
297.0
 12
0.0
 22
0.0
 32
0.0
 14
0.0
 24
0.0
 34
0.0
 15
210.0
 25
297.0
 35
0.0
146
0.0
 13
0.0
 23
0.0
 33
0.0
 16
1.0
 26
0.0
 36
0.0
 17
0.0
 27
1.0
 37
0.0
 76
     0
330
1B
  0
MLINESTYLE
  5
18
102
{ACAD_REACTORS
330
17
102
}
330
17
100
AcDbMlineStyle
  2
Standard
 70
     0
  3

 62
   256
 51
90.0
 52
90.0
 71
     2
 49
0.5
 62
   256
  6
BYLAYER
 49
-0.5
 62
   256
  6
BYLAYER
  0
ACDBPLACEHOLDER
  5
F
102
{ACAD_REACTORS
330
E
102
}
330
E
  0
SCALE
  5
48
102
{ACAD_REACTORS
330
47
102
}
330
47
100
AcDbScale
 70
     0
300
1:1
140
1.0
141
1.0
290
     1
  0
SCALE
  5
49
102
{ACAD_REACTORS
330
47
102
}
330
47
100
AcDbScale
 70
     0
300
1:2
140
1.0
141
2.0
290
     0
  0
SCALE
  5
4A
102
{ACAD_REACTORS
330
47
102
}
330
47
100
AcDbScale
 70
     0
300
1:4
140
1.0
141
4.0
290
     0
  0
SCALE
  5
4B
102
{ACAD_REACTORS
330
47
102
}
330
47
100
AcDbScale
 70
     0
300
1:5
140
1.0
141
5.0
290
     0
  0
SCALE
  5
4C
102
{ACAD_REACTORS
330
47
102
}
330
47
100
AcDbScale
 70
     0
300
1:8
140
1.0
141
8.0
290
     0
  0
SCALE
  5
4D
102
{ACAD_REACTORS
330
47
102
}
330
47
100
AcDbScale
 70
     0
300
1:10
140
1.0
141
10.0
290
     0
  0
SCALE
  5
4E
102
{ACAD_REACTORS
330
47
102
}
330
47
100
AcDbScale
 70
     0
300
1:16
140
1.0
141
16.0
290
     0
  0
SCALE
  5
4F
102
{ACAD_REACTORS
330
47
102
}
330
47
100
AcDbScale
 70
     0
300
1:20
140
1.0
141
20.0
290
     0
  0
SCALE
  5
50
102
{ACAD_REACTORS
330
47
102
}
330
47
100
AcDbScale
 70
     0
300
1:30
140
1.0
141
30.0
290
     0
  0
SCALE
  5
51
102
{ACAD_REACTORS
330
47
102
}
330
47
100
AcDbScale
 70
     0
300
1:40
140
1.0
141
40.0
290
     0
  0
SCALE
  5
52
102
{ACAD_REACTORS
330
47
102
}
330
47
100
AcDbScale
 70
     0
300
1:50
140
1.0
141
50.0
290
     0
  0
SCALE
  5
53
102
{ACAD_REACTORS
330
47
102
}
330
47
100
AcDbScale
 70
     0
300
1:100
140
1.0
141
100.0
290
     0
  0
SCALE
  5
54
102
{ACAD_REACTORS
330
47
102
}
330
47
100
AcDbScale
 70
     0
300
2:1
140
2.0
141
1.0
290
     0
  0
SCALE
  5
55
102
{ACAD_REACTORS
330
47
102
}
330
47
100
AcDbScale
 70
     0
300
4:1
140
4.0
141
1.0
290
     0
  0
SCALE
  5
56
102
{ACAD_REACTORS
330
47
102
}
330
47
100
AcDbScale
 70
     0
300
8:1
140
8.0
141
1.0
290
     0
  0
SCALE
  5
57
102
{ACAD_REACTORS
330
47
102
}
330
47
100
AcDbScale
 70
     0
300
10:1
140
10.0
141
1.0
290
     0
  0
SCALE
  5
58
102
{ACAD_REACTORS
330
47
102
}
330
47
100
AcDbScale
 70
     0
300
100:1
140
100.0
141
1.0
290
     0
  0
SCALE
  5
59
102
{ACAD_REACTORS
330
47
102
}
330
47
100
AcDbScale
 70
     0
300
1/128" = 1'-0"
140
0.0078125
141
12.0
290
     0
  0
SCALE
  5
5A
102
{ACAD_REACTORS
330
47
102
}
330
47
100
AcDbScale
 70
     0
300
1/64" = 1'-0"
140
0.015625
141
12.0
290
     0
  0
SCALE
  5
5B
102
{ACAD_REACTORS
330
47
102
}
330
47
100
AcDbScale
 70
     0
300
1/32" = 1'-0"
140
0.03125
141
12.0
290
     0
  0
SCALE
  5
5C
102
{ACAD_REACTORS
330
47
102
}
330
47
100
AcDbScale
 70
     0
300
1/16" = 1'-0"
140
0.0625
141
12.0
290
     0
  0
SCALE
  5
5D
102
{ACAD_REACTORS
330
47
102
}
330
47
100
AcDbScale
 70
     0
300
3/32" = 1'-0"
140
0.09375
141
12.0
290
     0
  0
SCALE
  5
5E
102
{ACAD_REACTORS
330
47
102
}
330
47
100
AcDbScale
 70
     0
300
1/8" = 1'-0"
140
0.125
141
12.0
290
     0
  0
SCALE
  5
5F
102
{ACAD_REACTORS
330
47
102
}
330
47
100
AcDbScale
 70
     0
300
3/16" = 1'-0"
140
0.1875
141
12.0
290
     0
  0
SCALE
  5
60
102
{ACAD_REACTORS
330
47
102
}
330
47
100
AcDbScale
 70
     0
300
1/4" = 1'-0"
140
0.25
141
12.0
290
     0
  0
SCALE
  5
61
102
{ACAD_REACTORS
330
47
102
}
330
47
100
AcDbScale
 70
     0
300
3/8" = 1'-0"
140
0.375
141
12.0
290
     0
  0
SCALE
  5
62
102
{ACAD_REACTORS
330
47
102
}
330
47
100
AcDbScale
 70
     0
300
1/2" = 1'-0"
140
0.5
141
12.0
290
     0
  0
SCALE
  5
63
102
{ACAD_REACTORS
330
47
102
}
330
47
100
AcDbScale
 70
     0
300
3/4" = 1'-0"
140
0.75
141
12.0
290
     0
  0
SCALE
  5
64
102
{ACAD_REACTORS
330
47
102
}
330
47
100
AcDbScale
 70
     0
300
1" = 1'-0"
140
1.0
141
12.0
290
     0
  0
SCALE
  5
65
102
{ACAD_REACTORS
330
47
102
}
330
47
100
AcDbScale
 70
     0
300
1-1/2" = 1'-0"
140
1.5
141
12.0
290
     0
  0
SCALE
  5
66
102
{ACAD_REACTORS
330
47
102
}
330
47
100
AcDbScale
 70
     0
300
3" = 1'-0"
140
3.0
141
12.0
290
     0
  0
SCALE
  5
67
102
{ACAD_REACTORS
330
47
102
}
330
47
100
AcDbScale
 70
     0
300
6" = 1'-0"
140
6.0
141
12.0
290
     0
  0
SCALE
  5
68
102
{ACAD_REACTORS
330
47
102
}
330
47
100
AcDbScale
 70
     0
300
1'-0" = 1'-0"
140
12.0
141
12.0
290
     0
  0
ENDSEC
  0
EOF
