  0
SECTION
  2
HEADER
  9
$ACADVER
  1
AC1015
  9
$ACADMAINTVER
 70
     6
  9
$DWGCODEPAGE
  3
ANSI_1252
  9
$INSBASE
 10
0.0
 20
0.0
 30
0.0
  9
$EXTMIN
 10
0.0
 20
0.0
 30
0.0
  9
$EXTMAX
 10
210.0
 20
297.0
 30
0.0
  9
$LIMMIN
 10
0.0
 20
0.0
  9
$LIMMAX
 10
210.0
 20
297.0
  9
$ORTHOMODE
 70
     0
  9
$REGENMODE
 70
     1
  9
$FILLMODE
 70
     1
  9
$QTEXTMODE
 70
     0
  9
$MIRRTEXT
 70
     1
  9
$LTSCALE
 40
1.0
  9
$ATTMODE
 70
     1
  9
$TEXTSIZE
 40
1.5
  9
$TRACEWID
 40
1.0
  9
$TEXTSTYLE
  7
Standard
  9
$CLAYER
  8
0
  9
$CELTYPE
  6
ByLayer
  9
$CECOLOR
 62
   256
  9
$CELTSCALE
 40
1.0
  9
$DISPSILH
 70
     0
  9
$DIMSCALE
 40
1.0
  9
$DIMASZ
 40
2.0
  9
$DIMEXO
 40
1.0
  9
$DIMDLI
 40
3.75
  9
$DIMRND
 40
0.0
  9
$DIMDLE
 40
0.0
  9
$DIMEXE
 40
1.0
  9
$DIMTP
 40
0.0
  9
$DIMTM
 40
0.0
  9
$DIMTXT
 40
2.5
  9
$DIMCEN
 40
2.5
  9
$DIMTSZ
 40
0.0
  9
$DIMTOL
 70
     0
  9
$DIMLIM
 70
     0
  9
$DIMTIH
 70
     1
  9
$DIMTOH
 70
     1
  9
$DIMSE1
 70
     0
  9
$DIMSE2
 70
     0
  9
$DIMTAD
 70
     1
  9
$DIMZIN
 70
     0
  9
$DIMBLK
  1

  9
$DIMASO
 70
     1
  9
$DIMSHO
 70
     1
  9
$DIMPOST
  1

  9
$DIMAPOST
  1

  9
$DIMALT
 70
     0
  9
$DIMALTD
 70
     3
  9
$DIMALTF
 40
0.0393700787
  9
$DIMLFAC
 40
1.0
  9
$DIMTOFL
 70
     1
  9
$DIMTVP
 40
0.0
  9
$DIMTIX
 70
     0
  9
$DIMSOXD
 70
     0
  9
$DIMSAH
 70
     0
  9
$DIMBLK1
  1

  9
$DIMBLK2
  1

  9
$DIMSTYLE
  2
ISO-25
  9
$DIMCLRD
 70
     0
  9
$DIMCLRE
 70
     0
  9
$DIMCLRT
 70
     0
  9
$DIMTFAC
 40
1.0
  9
$DIMGAP
 40
1.524
  9
$DIMJUST
 70
     0
  9
$DIMSD1
 70
     0
  9
$DIMSD2
 70
     0
  9
$DIMTOLJ
 70
     0
  9
$DIMTZIN
 70
     0
  9
$DIMALTZ
 70
     0
  9
$DIMALTTZ
 70
     0
  9
$DIMUPT
 70
     0
  9
$DIMDEC
 70
     1
  9
$DIMTDEC
 70
     1
  9
$DIMALTU
 70
     2
  9
$DIMALTTD
 70
     3
  9
$DIMTXSTY
  7
Standard
  9
$DIMAUNIT
 70
     0
  9
$DIMADEC
 70
     2
  9
$DIMALTRND
 40
0.0
  9
$DIMAZIN
 70
     0
  9
$DIMDSEP
 70
    44
  9
$DIMATFIT
 70
     3
  9
$DIMFRAC
 70
     0
  9
$DIMLDRBLK
  1

  9
$DIMLUNIT
 70
     2
  9
$DIMLWD
 70
    -2
  9
$DIMLWE
 70
    -2
  9
$DIMTMOVE
 70
     0
  9
$LUNITS
 70
     2
  9
$LUPREC
 70
     2
  9
$SKETCHINC
 40
1.0
  9
$FILLETRAD
 40
10.0
  9
$AUNITS
 70
     0
  9
$AUPREC
 70
     2
  9
$MENU
  1
.
  9
$ELEVATION
 40
0.0
  9
$PELEVATION
 40
0.0
  9
$THICKNESS
 40
0.0
  9
$LIMCHECK
 70
     0
  9
$CHAMFERA
 40
0.0
  9
$CHAMFERB
 40
0.0
  9
$CHAMFERC
 40
0.0
  9
$CHAMFERD
 40
0.0
  9
$SKPOLY
 70
     0
  9
$TDCREATE
 40
2458722.360412315
  9
$TDUCREATE
 40
2458722.485412315
  9
$TDUPDATE
 40
2458722.36041875
  9
$TDUUPDATE
 40
2458722.48541875
  9
$TDINDWG
 40
0.0000000116
  9
$TDUSRTIMER
 40
0.0000000116
  9
$USRTIMER
 70
     1
  9
$ANGBASE
 50
0.0
  9
$ANGDIR
 70
     0
  9
$PDMODE
 70
     0
  9
$PDSIZE
 40
-1.0
  9
$PLINEWID
 40
0.0
  9
$SPLFRAME
 70
     0
  9
$SPLINETYPE
 70
     6
  9
$SPLINESEGS
 70
     8
  9
$HANDSEED
  5
448
  9
$SURFTAB1
 70
     6
  9
$SURFTAB2
 70
     6
  9
$SURFTYPE
 70
     6
  9
$SURFU
 70
     6
  9
$SURFV
 70
     6
  9
$UCSBASE
  2

  9
$UCSNAME
  2

  9
$UCSORG
 10
0.0
 20
0.0
 30
0.0
  9
$UCSXDIR
 10
1.0
 20
0.0
 30
0.0
  9
$UCSYDIR
 10
0.0
 20
1.0
 30
0.0
  9
$UCSORTHOREF
  2

  9
$UCSORTHOVIEW
 70
     0
  9
$UCSORGTOP
 10
0.0
 20
0.0
 30
0.0
  9
$UCSORGBOTTOM
 10
0.0
 20
0.0
 30
0.0
  9
$UCSORGLEFT
 10
0.0
 20
0.0
 30
0.0
  9
$UCSORGRIGHT
 10
0.0
 20
0.0
 30
0.0
  9
$UCSORGFRONT
 10
0.0
 20
0.0
 30
0.0
  9
$UCSORGBACK
 10
0.0
 20
0.0
 30
0.0
  9
$PUCSBASE
  2

  9
$PUCSNAME
  2

  9
$PUCSORG
 10
0.0
 20
0.0
 30
0.0
  9
$PUCSXDIR
 10
1.0
 20
0.0
 30
0.0
  9
$PUCSYDIR
 10
0.0
 20
1.0
 30
0.0
  9
$PUCSORTHOREF
  2

  9
$PUCSORTHOVIEW
 70
     0
  9
$PUCSORGTOP
 10
0.0
 20
0.0
 30
0.0
  9
$PUCSORGBOTTOM
 10
0.0
 20
0.0
 30
0.0
  9
$PUCSORGLEFT
 10
0.0
 20
0.0
 30
0.0
  9
$PUCSORGRIGHT
 10
0.0
 20
0.0
 30
0.0
  9
$PUCSORGFRONT
 10
0.0
 20
0.0
 30
0.0
  9
$PUCSORGBACK
 10
0.0
 20
0.0
 30
0.0
  9
$USERI1
 70
     0
  9
$USERI2
 70
     0
  9
$USERI3
 70
     0
  9
$USERI4
 70
     0
  9
$USERI5
 70
     0
  9
$USERR1
 40
0.0
  9
$USERR2
 40
0.0
  9
$USERR3
 40
0.0
  9
$USERR4
 40
0.0
  9
$USERR5
 40
0.0
  9
$WORLDVIEW
 70
     1
  9
$SHADEDGE
 70
     3
  9
$SHADEDIF
 70
    70
  9
$TILEMODE
 70
     1
  9
$MAXACTVP
 70
    64
  9
$PINSBASE
 10
0.0
 20
0.0
 30
0.0
  9
$PLIMCHECK
 70
     0
  9
$PEXTMIN
 10
1.0000000000E+20
 20
1.0000000000E+20
 30
1.0000000000E+20
  9
$PEXTMAX
 10
-1.0000000000E+20
 20
-1.0000000000E+20
 30
-1.0000000000E+20
  9
$PLIMMIN
 10
0.0
 20
0.0
  9
$PLIMMAX
 10
420.0
 20
297.0
  9
$UNITMODE
 70
     0
  9
$VISRETAIN
 70
     1
  9
$PLINEGEN
 70
     0
  9
$PSLTSCALE
 70
     1
  9
$TREEDEPTH
 70
  3020
  9
$CMLSTYLE
  2
Standard
  9
$CMLJUST
 70
     0
  9
$CMLSCALE
 40
20.0
  9
$PROXYGRAPHICS
 70
     1
  9
$MEASUREMENT
 70
     1
  9
$CELWEIGHT
370
    -1
  9
$ENDCAPS
280
     0
  9
$JOINSTYLE
280
     0
  9
$LWDISPLAY
290
     1
  9
$INSUNITS
 70
     4
  9
$HYPERLINKBASE
  1

  9
$STYLESHEET
  1

  9
$XEDIT
290
     1
  9
$CEPSNTYPE
380
     0
  9
$PSTYLEMODE
290
     1
  9
$FINGERPRINTGUID
  2
{72dd4ccd-66fa-47de-baa5-82a915fde993}
  9
$VERSIONGUID
  2
{FAEB1C32-E019-11D5-929B-00C0DF256EC4}
  9
$EXTNAMES
290
     1
  9
$PSVPSCALE
 40
0.0
  9
$OLESTARTUP
290
     0
  0
ENDSEC
  0
SECTION
  2
CLASSES
  0
CLASS
  1
ACDBDICTIONARYWDFLT
  2
AcDbDictionaryWithDefault
  3
ObjectDBX Classes
 90
        0
280
     0
281
     0
  0
CLASS
  1
VISUALSTYLE
  2
AcDbVisualStyle
  3
ObjectDBX Classes
 90
     4095
280
     0
281
     0
  0
CLASS
  1
MATERIAL
  2
AcDbMaterial
  3
ObjectDBX Classes
 90
     1153
280
     0
281
     0
  0
CLASS
  1
SCALE
  2
AcDbScale
  3
ObjectDBX Classes
 90
     1153
280
     0
281
     0
  0
CLASS
  1
TABLESTYLE
  2
AcDbTableStyle
  3
ObjectDBX Classes
 90
     4095
280
     0
281
     0
  0
CLASS
  1
MLEADERSTYLE
  2
AcDbMLeaderStyle
  3
ACDB_MLEADERSTYLE_CLASS
 90
     4095
280
     0
281
     0
  0
CLASS
  1
SUN
  2
AcDbSun
  3
SCENEOE
 90
     1153
280
     0
281
     0
  0
CLASS
  1
ACDBPLACEHOLDER
  2
AcDbPlaceHolder
  3
ObjectDBX Classes
 90
        0
280
     0
281
     0
  0
CLASS
  1
LAYOUT
  2
AcDbLayout
  3
ObjectDBX Classes
 90
        0
280
     0
281
     0
  0
ENDSEC
  0
SECTION
  2
TABLES
  0
TABLE
  2
VPORT
  5
8
330
0
100
AcDbSymbolTable
 70
     1
  0
VPORT
  5
29
330
8
100
AcDbSymbolTableRecord
100
AcDbViewportTableRecord
  2
*Active
 70
     0
 10
0.0
 20
0.0
 11
1.0
 21
1.0
 12
105.0
 22
148.5
 13
0.0
 23
0.0
 14
10.0
 24
10.0
 15
10.0
 25
10.0
 16
0.0
 26
0.0
 36
1.0
 17
0.0
 27
0.0
 37
0.0
 40
297.0
 41
0.7070707071
 42
50.0
 43
0.0
 44
0.0
 50
0.0
 51
0.0
 71
     0
 72
  2000
 73
     1
 74
     3
 75
     0
 76
     0
 77
     0
 78
     0
281
     0
 65
     1
110
0.0
120
0.0
130
0.0
111
1.0
121
0.0
131
0.0
112
0.0
122
1.0
132
0.0
 79
     0
146
0.0
  0
ENDTAB
  0
TABLE
  2
LTYPE
  5
5
330
0
100
AcDbSymbolTable
 70
     6
  0
LTYPE
  5
14
330
5
100
AcDbSymbolTableRecord
100
AcDbLinetypeTableRecord
  2
ByBlock
 70
     0
  3

 72
    65
 73
     0
 40
0.0
  0
LTYPE
  5
15
330
5
100
AcDbSymbolTableRecord
100
AcDbLinetypeTableRecord
  2
ByLayer
 70
     0
  3

 72
    65
 73
     0
 40
0.0
  0
LTYPE
  5
16
330
5
100
AcDbSymbolTableRecord
100
AcDbLinetypeTableRecord
  2
Continuous
 70
     0
  3
Solid line
 72
    65
 73
     0
 40
0.0
  0
LTYPE
  5
6E
330
5
100
AcDbSymbolTableRecord
100
AcDbLinetypeTableRecord
  2
HIDDEN
 70
     0
  3
Hidden __ __ __ __ __ __ __ __ __ __ __ __ __ __
 72
    65
 73
     2
 40
1.905
 49
1.27
 74
     0
 49
-0.635
 74
     0
  0
LTYPE
  5
6F
330
5
100
AcDbSymbolTableRecord
100
AcDbLinetypeTableRecord
  2
PHANTOM
 70
     0
  3
Phantom ______  __  __  ______  __  __  ______
 72
    65
 73
     6
 40
12.7
 49
6.35
 74
     0
 49
-1.27
 74
     0
 49
1.27
 74
     0
 49
-1.27
 74
     0
 49
1.27
 74
     0
 49
-1.27
 74
     0
  0
LTYPE
  5
70
330
5
100
AcDbSymbolTableRecord
100
AcDbLinetypeTableRecord
  2
CENTER
 70
     0
  3
Center ____ _ ____ _ ____ _ ____ _ ____ _ ____
 72
    65
 73
     4
 40
10.16
 49
6.35
 74
     0
 49
-1.27
 74
     0
 49
1.27
 74
     0
 49
-1.27
 74
     0
  0
LTYPE
  5
71
330
5
100
AcDbSymbolTableRecord
100
AcDbLinetypeTableRecord
  2
CENTERX2
 70
     0
  3
Center (2x) ________  __  ________  __  _____
 72
    65
 73
     4
 40
20.32
 49
12.7
 74
     0
 49
-2.54
 74
     0
 49
2.54
 74
     0
 49
-2.54
 74
     0
  0
LTYPE
  5
72
330
5
100
AcDbSymbolTableRecord
100
AcDbLinetypeTableRecord
  2
DOT2
 70
     0
  3
Dot (.5x) ........................................
 72
    65
 73
     2
 40
0.635
 49
0.0
 74
     0
 49
-0.635
 74
     0
  0
ENDTAB
  0
TABLE
  2
LAYER
  5
2
330
0
100
AcDbSymbolTable
 70
     9
  0
LAYER
  5
10
330
2
100
AcDbSymbolTableRecord
100
AcDbLayerTableRecord
  2
0
 70
     0
 62
     7
  6
Continuous
370
    -3
390
F
  0
LAYER
  5
73
330
2
100
AcDbSymbolTableRecord
100
AcDbLayerTableRecord
  2
ANOTAÇÕES
 70
     0
 62
   179
  6
Continuous
370
    -3
390
F
  0
LAYER
  5
74
330
2
100
AcDbSymbolTableRecord
100
AcDbLayerTableRecord
  2
DESENHO
 70
     0
 62
   179
  6
Continuous
370
    25
390
F
  0
LAYER
  5
75
330
2
100
AcDbSymbolTableRecord
100
AcDbLayerTableRecord
  2
OCULTOS
 70
     0
 62
     7
  6
CENTERX2
290
     0
370
    -3
390
F
  0
LAYER
  5
76
330
2
100
AcDbSymbolTableRecord
100
AcDbLayerTableRecord
  2
COTAS
 70
     0
 62
     7
  6
Continuous
370
    -3
390
F
  0
LAYER
  5
77
330
2
100
AcDbSymbolTableRecord
100
AcDbLayerTableRecord
  2
LAYOUT_
 70
     0
 62
     7
  6
Continuous
370
    35
390
F
  0
LAYER
  5
78
330
2
100
AcDbSymbolTableRecord
100
AcDbLayerTableRecord
  2
LOGOTIPO
 70
     0
 62
     7
  6
Continuous
370
    -3
390
F
  0
LAYER
  5
79
330
2
100
AcDbSymbolTableRecord
100
AcDbLayerTableRecord
  2
TEXTOS_EM_PORTUGUES
 70
     0
 62
     7
  6
Continuous
370
    -3
390
F
  0
LAYER
  5
7A
330
2
100
AcDbSymbolTableRecord
100
AcDbLayerTableRecord
  2
3_1_-_PORTA_E_JANELA_DE_CORRER_2F
 70
     0
 62
     7
  6
Continuous
370
    -3
390
F
  0
ENDTAB
  0
TABLE
  2
STYLE
  5
3
330
0
100
AcDbSymbolTable
 70
     2
  0
STYLE
  5
11
330
3
100
AcDbSymbolTableRecord
100
AcDbTextStyleTableRecord
  2
Standard
 70
     0
 40
0.0
 41
1.0
 50
0.0
 71
     0
 42
1.5
  3
txt
  4

  0
STYLE
  5
1C4
330
3
100
AcDbSymbolTableRecord
100
AcDbTextStyleTableRecord
  2
SLDTEXTSTYLE0
 70
     0
 40
0.0
 41
0.605
 50
0.0
 71
     0
 42
1.5
  3
TXT
  4

  0
ENDTAB
  0
TABLE
  2
VIEW
  5
6
330
0
100
AcDbSymbolTable
 70
     0
  0
ENDTAB
  0
TABLE
  2
UCS
  5
7
330
0
100
AcDbSymbolTable
 70
     0
  0
ENDTAB
  0
TABLE
  2
APPID
  5
9
330
0
100
AcDbSymbolTable
 70
     1
  0
APPID
  5
12
330
9
100
AcDbSymbolTableRecord
100
AcDbRegAppTableRecord
  2
ACAD
 70
     0
  0
ENDTAB
  0
TABLE
  2
DIMSTYLE
  5
A
330
0
100
AcDbSymbolTable
 70
     5
100
AcDbDimStyleTable
  0
DIMSTYLE
105
27
330
A
100
AcDbSymbolTableRecord
100
AcDbDimStyleTableRecord
  2
ISO-25
 70
     0
 41
2.5
 42
0.625
 43
3.75
 44
1.25
 73
     0
 74
     0
 77
     1
 78
     8
140
2.5
141
2.5
143
0.0393700787
147
0.625
171
     3
172
     1
178
     0
271
     2
272
     2
274
     3
278
    44
283
     0
284
     8
340
11
  0
DIMSTYLE
105
34F
102
{ACAD_REACTORS
330
34E
102
}
330
A
100
AcDbSymbolTableRecord
100
AcDbDimStyleTableRecord
  2
SLDDIMSTYLE0
 70
     0
 41
2.0
 44
0.0
 45
0.000000001
 73
     0
 74
     0
 77
     1
 78
    12
 79
     3
140
2.5
144
2.0
147
0.625
173
     1
178
     0
271
     1
272
     1
276
     2
284
    12
340
1C4
  0
DIMSTYLE
105
35A
102
{ACAD_REACTORS
330
359
102
}
330
A
100
AcDbSymbolTableRecord
100
AcDbDimStyleTableRecord
  2
SLDDIMSTYLE1
 70
     0
 41
2.0
 44
0.0
 45
0.000000001
 73
     0
 74
     0
 77
     1
 78
    12
 79
     3
140
2.5
144
2.0
147
0.625
173
     1
178
     0
271
     0
272
     0
276
     2
284
    12
340
1C4
  0
DIMSTYLE
105
388
102
{ACAD_REACTORS
330
387
330
3BF
330
3F4
102
}
330
A
100
AcDbSymbolTableRecord
100
AcDbDimStyleTableRecord
  2
SLDDIMSTYLE2
 70
     0
 41
2.0
 44
0.0
 45
0.000000001
 73
     0
 74
     0
 77
     1
 78
    12
 79
     3
140
2.5
147
0.625
173
     1
178
     0
271
     1
272
     1
276
     2
284
    12
340
1C4
  0
DIMSTYLE
105
3CA
102
{ACAD_REACTORS
330
3C9
330
3FE
102
}
330
A
100
AcDbSymbolTableRecord
100
AcDbDimStyleTableRecord
  2
SLDDIMSTYLE3
 70
     0
 41
2.0
 44
0.0
 45
0.000000001
 73
     0
 74
     0
 77
     1
 78
    12
 79
     3
140
2.5
147
0.625
173
     1
178
     0
271
     0
272
     0
276
     2
284
    12
340
1C4
  0
ENDTAB
  0
TABLE
  2
BLOCK_RECORD
  5
1
330
0
100
AcDbSymbolTable
 70
    18
  0
BLOCK_RECORD
  5
1F
330
1
100
AcDbSymbolTableRecord
100
AcDbBlockTableRecord
  2
*Model_Space
340
22
  0
BLOCK_RECORD
  5
1B
330
1
100
AcDbSymbolTableRecord
100
AcDbBlockTableRecord
  2
*Paper_Space
340
1E
  0
BLOCK_RECORD
  5
23
330
1
100
AcDbSymbolTableRecord
100
AcDbBlockTableRecord
  2
*Paper_Space0
340
26
  0
BLOCK_RECORD
  5
7B
330
1
100
AcDbSymbolTableRecord
100
AcDbBlockTableRecord
  2
Bloco24
340
0
  0
BLOCK_RECORD
  5
7E
330
1
100
AcDbSymbolTableRecord
100
AcDbBlockTableRecord
  2
Bloco26
340
0
  0
BLOCK_RECORD
  5
81
330
1
100
AcDbSymbolTableRecord
100
AcDbBlockTableRecord
  2
Bloco12
340
0
  0
BLOCK_RECORD
  5
1C7
330
1
100
AcDbSymbolTableRecord
100
AcDbBlockTableRecord
  2
SW_NOTE_0
340
0
102
{BLKREFS
331
1CD
102
}
  0
BLOCK_RECORD
  5
1CE
330
1
100
AcDbSymbolTableRecord
100
AcDbBlockTableRecord
  2
SW_NOTE_0_1
340
0
102
{BLKREFS
331
1D5
102
}
  0
BLOCK_RECORD
  5
1DA
330
1
100
AcDbSymbolTableRecord
100
AcDbBlockTableRecord
  2
SW_NOTE_0_2
340
0
102
{BLKREFS
331
1E3
102
}
  0
BLOCK_RECORD
  5
1E4
330
1
100
AcDbSymbolTableRecord
100
AcDbBlockTableRecord
  2
SW_NOTE_0_3
340
0
102
{BLKREFS
331
1FE
102
}
  0
BLOCK_RECORD
  5
1FF
330
1
100
AcDbSymbolTableRecord
100
AcDbBlockTableRecord
  2
SW_NOTE_0_4
340
0
102
{BLKREFS
331
212
102
}
  0
BLOCK_RECORD
  5
213
330
1
100
AcDbSymbolTableRecord
100
AcDbBlockTableRecord
  2
SW_NOTE_0_5
340
0
102
{BLKREFS
331
218
102
}
  0
BLOCK_RECORD
  5
219
330
1
100
AcDbSymbolTableRecord
100
AcDbBlockTableRecord
  2
SW_TABLEANNOTATION_0
340
0
102
{BLKREFS
331
251
102
}
  0
BLOCK_RECORD
  5
350
330
1
100
AcDbSymbolTableRecord
100
AcDbBlockTableRecord
  2
_D
340
0
  0
BLOCK_RECORD
  5
35B
330
1
100
AcDbSymbolTableRecord
100
AcDbBlockTableRecord
  2
_D_1
340
0
  0
BLOCK_RECORD
  5
389
330
1
100
AcDbSymbolTableRecord
100
AcDbBlockTableRecord
  2
_D_2
340
0
  0
BLOCK_RECORD
  5
3C0
330
1
100
AcDbSymbolTableRecord
100
AcDbBlockTableRecord
  2
_D_3
340
0
  0
BLOCK_RECORD
  5
3CB
330
1
100
AcDbSymbolTableRecord
100
AcDbBlockTableRecord
  2
_D_4
340
0
  0
BLOCK_RECORD
  5
3F5
330
1
100
AcDbSymbolTableRecord
100
AcDbBlockTableRecord
  2
_D_5
340
0
  0
BLOCK_RECORD
  5
3FF
330
1
100
AcDbSymbolTableRecord
100
AcDbBlockTableRecord
  2
_D_6
340
0
  0
ENDTAB
  0
ENDSEC
  0
SECTION
  2
BLOCKS
  0
BLOCK
  5
20
330
1F
100
AcDbEntity
  8
0
100
AcDbBlockBegin
  2
*Model_Space
 70
     0
 10
0.0
 20
0.0
 30
0.0
  3
*Model_Space
  1

  0
ENDBLK
  5
21
330
1F
100
AcDbEntity
  8
0
100
AcDbBlockEnd
  0
BLOCK
  5
1C
330
1B
100
AcDbEntity
 67
     1
  8
0
100
AcDbBlockBegin
  2
*Paper_Space
 70
     0
 10
0.0
 20
0.0
 30
0.0
  3
*Paper_Space
  1

  0
ENDBLK
  5
1D
330
1B
100
AcDbEntity
 67
     1
  8
0
100
AcDbBlockEnd
  0
BLOCK
  5
24
330
23
100
AcDbEntity
  8
0
100
AcDbBlockBegin
  2
*Paper_Space0
 70
     0
 10
0.0
 20
0.0
 30
0.0
  3
*Paper_Space0
  1

  0
ENDBLK
  5
25
330
23
100
AcDbEntity
  8
0
100
AcDbBlockEnd
  0
BLOCK
  5
7C
330
7B
100
AcDbEntity
  8
0
100
AcDbBlockBegin
  2
Bloco24
 70
     0
 10
0.0
 20
0.0
 30
0.0
  3
Bloco24
  1

  0
ENDBLK
  5
7D
330
7B
100
AcDbEntity
  8
0
100
AcDbBlockEnd
  0
BLOCK
  5
7F
330
7E
100
AcDbEntity
  8
0
100
AcDbBlockBegin
  2
Bloco26
 70
     0
 10
0.0
 20
0.0
 30
0.0
  3
Bloco26
  1

  0
ENDBLK
  5
80
330
7E
100
AcDbEntity
  8
0
100
AcDbBlockEnd
  0
BLOCK
  5
82
330
81
100
AcDbEntity
  8
0
100
AcDbBlockBegin
  2
Bloco12
 70
     0
 10
0.0
 20
0.0
 30
0.0
  3
Bloco12
  1

  0
ENDBLK
  5
83
330
81
100
AcDbEntity
  8
0
100
AcDbBlockEnd
  0
BLOCK
  5
1C8
330
1C7
100
AcDbEntity
  8
0
100
AcDbBlockBegin
  2
SW_NOTE_0
 70
     0
 10
0.0
 20
0.0
 30
0.0
  3
SW_NOTE_0
  1

  0
MTEXT
  5
1CA
330
1C7
100
AcDbEntity
  8
OCULTOS
 62
     0
100
AcDbMText
 10
18.75234375
 20
4.0927900738
 30
0.0
 40
3.175
 41
0.0
 71
     2
 72
     1
  1
IMAGEM RENDER
  7
SLDTEXTSTYLE0
 73
     1
 44
1.0
  0
MTEXT
  5
1CB
330
1C7
100
AcDbEntity
  8
OCULTOS
 62
     0
100
AcDbMText
 10
19.2521129906
 20
-1.1405433723
 30
0.0
 40
3.175
 41
0.0
 71
     2
 72
     1
  1
DO PRODUTO
  7
SLDTEXTSTYLE0
 73
     1
 44
1.0
  0
MTEXT
  5
1CC
330
1C7
100
AcDbEntity
  8
OCULTOS
 62
     0
100
AcDbMText
 10
19.3972674876
 20
-11.6072102645
 30
0.0
 40
3.175
 41
0.0
 71
     2
 72
     1
  1
BY: SOLIDWORKS
  7
SLDTEXTSTYLE0
 73
     1
 44
1.0
  0
ENDBLK
  5
1C9
330
1C7
100
AcDbEntity
  8
0
100
AcDbBlockEnd
  0
BLOCK
  5
1CF
330
1CE
100
AcDbEntity
  8
0
100
AcDbBlockBegin
  2
SW_NOTE_0_1
 70
     0
 10
0.0
 20
0.0
 30
0.0
  3
SW_NOTE_0_1
  1

  0
MTEXT
  5
1D1
330
1CE
100
AcDbEntity
  8
DESENHO
 62
     0
100
AcDbMText
 10
0.0
 20
1.9336016097
 30
0.0
 40
1.5
 41
0.0
 71
     1
 72
     1
  1
COMPOSIÇÃO/CARACTERÍSTICAS:
  7
SLDTEXTSTYLE0
 73
     1
 44
1.0
  0
MTEXT
  5
1D2
330
1CE
100
AcDbEntity
  8
DESENHO
 62
     0
100
AcDbMText
 10
0.0
 20
-3.0663982786
 30
0.0
 40
1.5
 41
0.0
 71
     1
 72
     1
  1
- TAMPA: POLÍMERO;
  7
SLDTEXTSTYLE0
 73
     1
 44
1.0
  0
MTEXT
  5
1D3
330
1CE
100
AcDbEntity
  8
DESENHO
 62
     0
100
AcDbMText
 10
0.0
 20
-8.0663981668
 30
0.0
 40
1.5
 41
0.0
 71
     1
 72
     1
  1
APLICAÇÃO NOS PERFIS:
  7
SLDTEXTSTYLE0
 73
     1
 44
1.0
  0
MTEXT
  5
1D4
330
1CE
100
AcDbEntity
  8
DESENHO
 62
     0
100
AcDbMText
 10
0.0
 20
-13.0663980551
 30
0.0
 40
1.5
 41
0.0
 71
     1
 72
     1
  1
- ECO-760; ECO-761;
  7
SLDTEXTSTYLE0
 73
     1
 44
1.0
  0
ENDBLK
  5
1D0
330
1CE
100
AcDbEntity
  8
0
100
AcDbBlockEnd
  0
BLOCK
  5
1DB
330
1DA
100
AcDbEntity
  8
0
100
AcDbBlockBegin
  2
SW_NOTE_0_2
 70
     0
 10
0.0
 20
0.0
 30
0.0
  3
SW_NOTE_0_2
  1

  0
MTEXT
  5
1DD
330
1DA
100
AcDbEntity
  8
LAYOUT_
 62
     0
100
AcDbMText
 10
0.0
 20
4.7749217527
 30
0.0
 40
3.7041666667
 41
0.0
 71
     1
 72
     1
  1
ATENÇÃO:
  7
SLDTEXTSTYLE0
 73
     1
 44
1.0
  0
MTEXT
  5
1DE
330
1DA
100
AcDbEntity
  8
LAYOUT_
 62
     0
100
AcDbMText
 10
27.4382717907
 20
4.7749217527
 30
0.0
 40
3.7041666667
 41
0.0
 71
     1
 72
     1
  1
NÃO DEVEM ESTAR ATIVOS
  7
SLDTEXTSTYLE0
 73
     1
 44
1.0
  0
MTEXT
  5
1DF
330
1DA
100
AcDbEntity
  8
LAYOUT_
 62
     0
100
AcDbMText
 10
0.0
 20
-0.1639670765
 30
0.0
 40
3.7041666667
 41
0.0
 71
     1
 72
     1
  1
SIMULTANEAMENTE 2 LAYERS DE
  7
SLDTEXTSTYLE0
 73
     1
 44
1.0
  0
MTEXT
  5
1E0
330
1DA
100
AcDbEntity
  8
LAYOUT_
 62
     0
100
AcDbMText
 10
0.0
 20
-5.1028559057
 30
0.0
 40
3.7041666667
 41
0.0
 71
     1
 72
     1
  1
TIPOLOGIAS OU TIPOS DE TEXTOS
  7
SLDTEXTSTYLE0
 73
     1
 44
1.0
  0
MTEXT
  5
1E1
330
1DA
100
AcDbEntity
  8
LAYOUT_
 62
     0
100
AcDbMText
 10
0.0
 20
-10.0417447349
 30
0.0
 40
3.7041666667
 41
0.0
 71
     1
 72
     1
  1
(PORTUGUES E ESPANHOL), PORTANTO AO
  7
SLDTEXTSTYLE0
 73
     1
 44
1.0
  0
MTEXT
  5
1E2
330
1DA
100
AcDbEntity
  8
LAYOUT_
 62
     0
100
AcDbMText
 10
0.0
 20
-14.9806335641
 30
0.0
 40
3.7041666667
 41
0.0
 71
     1
 72
     1
  1
ATIVAR UM DESATIVE O OUTRO.
  7
SLDTEXTSTYLE0
 73
     1
 44
1.0
  0
ENDBLK
  5
1DC
330
1DA
100
AcDbEntity
  8
0
100
AcDbBlockEnd
  0
BLOCK
  5
1E5
330
1E4
100
AcDbEntity
  8
0
100
AcDbBlockBegin
  2
SW_NOTE_0_3
 70
     0
 10
0.0
 20
0.0
 30
0.0
  3
SW_NOTE_0_3
  1

  0
MTEXT
  5
1E7
330
1E4
100
AcDbEntity
  8
LAYOUT_
 62
     0
100
AcDbMText
 10
0.0
 20
4.7749217527
 30
0.0
 40
3.7041666667
 41
0.0
 71
     1
 72
     1
  1
PARA CATÁLOGO EM PORTUGUES:
  7
SLDTEXTSTYLE0
 73
     1
 44
1.0
  0
MTEXT
  5
1E8
330
1E4
100
AcDbEntity
  8
LAYOUT_
 62
     0
100
AcDbMText
 10
0.0
 20
-5.1028559057
 30
0.0
 40
3.7041666667
 41
0.0
 71
     1
 72
     1
  1
ATIVAR LAYER "TEXTOS EM PORTUGUES"
  7
SLDTEXTSTYLE0
 73
     1
 44
1.0
  0
MTEXT
  5
1E9
330
1E4
100
AcDbEntity
  8
LAYOUT_
 62
     0
100
AcDbMText
 10
0.0
 20
-10.0417447349
 30
0.0
 40
3.7041666667
 41
0.0
 71
     1
 72
     1
  1
E SELECIONAR O LAYER DA TIPOLOGIA
  7
SLDTEXTSTYLE0
 73
     1
 44
1.0
  0
MTEXT
  5
1EA
330
1E4
100
AcDbEntity
  8
LAYOUT_
 62
     0
100
AcDbMText
 10
0.0
 20
-14.9806335641
 30
0.0
 40
3.7041666667
 41
0.0
 71
     1
 72
     1
  1
DESEJADA:
  7
SLDTEXTSTYLE0
 73
     1
 44
1.0
  0
MTEXT
  5
1EB
330
1E4
100
AcDbEntity
  8
LAYOUT_
 62
     0
100
AcDbMText
 10
9.9999997765
 20
-24.8584112225
 30
0.0
 40
3.7041666667
 41
0.0
 71
     1
 72
     1
  1
PORTA DE CORRER
  7
SLDTEXTSTYLE0
 73
     1
 44
1.0
  0
MTEXT
  5
1EC
330
1E4
100
AcDbEntity
  8
LAYOUT_
 62
     0
100
AcDbMText
 10
0.0
 20
-24.8584112225
 30
0.0
 40
3.7041666667
 41
0.0
 71
     1
 72
     1
  1
1.
  7
SLDTEXTSTYLE0
 73
     1
 44
1.0
  0
MTEXT
  5
1ED
330
1E4
100
AcDbEntity
  8
LAYOUT_
 62
     0
100
AcDbMText
 10
9.9999997765
 20
-29.7973000517
 30
0.0
 40
3.7041666667
 41
0.0
 71
     1
 72
     1
  1
JANELA DE CORRER
  7
SLDTEXTSTYLE0
 73
     1
 44
1.0
  0
MTEXT
  5
1EE
330
1E4
100
AcDbEntity
  8
LAYOUT_
 62
     0
100
AcDbMText
 10
0.0
 20
-29.7973000517
 30
0.0
 40
3.7041666667
 41
0.0
 71
     1
 72
     1
  1
2.
  7
SLDTEXTSTYLE0
 73
     1
 44
1.0
  0
MTEXT
  5
1EF
330
1E4
100
AcDbEntity
  8
LAYOUT_
 62
     0
100
AcDbMText
 10
9.9999997765
 20
-34.7361888809
 30
0.0
 40
3.7041666667
 41
0.0
 71
     1
 72
     1
  1
PORTA E JANELA DE CORRER
  7
SLDTEXTSTYLE0
 73
     1
 44
1.0
  0
MTEXT
  5
1F0
330
1E4
100
AcDbEntity
  8
LAYOUT_
 62
     0
100
AcDbMText
 10
0.0
 20
-34.7361888809
 30
0.0
 40
3.7041666667
 41
0.0
 71
     1
 72
     1
  1
3.
  7
SLDTEXTSTYLE0
 73
     1
 44
1.0
  0
MTEXT
  5
1F1
330
1E4
100
AcDbEntity
  8
LAYOUT_
 62
     0
100
AcDbMText
 10
9.9999997765
 20
-39.6750777101
 30
0.0
 40
3.7041666667
 41
0.0
 71
     1
 72
     1
  1
PERSIANAS
  7
SLDTEXTSTYLE0
 73
     1
 44
1.0
  0
MTEXT
  5
1F2
330
1E4
100
AcDbEntity
  8
LAYOUT_
 62
     0
100
AcDbMText
 10
0.0
 20
-39.6750777101
 30
0.0
 40
3.7041666667
 41
0.0
 71
     1
 72
     1
  1
4.
  7
SLDTEXTSTYLE0
 73
     1
 44
1.0
  0
MTEXT
  5
1F3
330
1E4
100
AcDbEntity
  8
LAYOUT_
 62
     0
100
AcDbMText
 10
9.9999997765
 20
-44.6139665393
 30
0.0
 40
3.7041666667
 41
0.0
 71
     1
 72
     1
  1
MAXIM-AR
  7
SLDTEXTSTYLE0
 73
     1
 44
1.0
  0
MTEXT
  5
1F4
330
1E4
100
AcDbEntity
  8
LAYOUT_
 62
     0
100
AcDbMText
 10
0.0
 20
-44.6139665393
 30
0.0
 40
3.7041666667
 41
0.0
 71
     1
 72
     1
  1
5.
  7
SLDTEXTSTYLE0
 73
     1
 44
1.0
  0
MTEXT
  5
1F5
330
1E4
100
AcDbEntity
  8
LAYOUT_
 62
     0
100
AcDbMText
 10
9.9999997765
 20
-49.5528553685
 30
0.0
 40
3.7041666667
 41
0.0
 71
     1
 72
     1
  1
PORTA DE GIRO
  7
SLDTEXTSTYLE0
 73
     1
 44
1.0
  0
MTEXT
  5
1F6
330
1E4
100
AcDbEntity
  8
LAYOUT_
 62
     0
100
AcDbMText
 10
0.0
 20
-49.5528553685
 30
0.0
 40
3.7041666667
 41
0.0
 71
     1
 72
     1
  1
6.
  7
SLDTEXTSTYLE0
 73
     1
 44
1.0
  0
MTEXT
  5
1F7
330
1E4
100
AcDbEntity
  8
LAYOUT_
 62
     0
100
AcDbMText
 10
9.9999997765
 20
-54.4917441977
 30
0.0
 40
3.7041666667
 41
0.0
 71
     1
 72
     1
  1
JANELA BASCULANTE
  7
SLDTEXTSTYLE0
 73
     1
 44
1.0
  0
MTEXT
  5
1F8
330
1E4
100
AcDbEntity
  8
LAYOUT_
 62
     0
100
AcDbMText
 10
0.0
 20
-54.4917441977
 30
0.0
 40
3.7041666667
 41
0.0
 71
     1
 72
     1
  1
7.
  7
SLDTEXTSTYLE0
 73
     1
 44
1.0
  0
MTEXT
  5
1F9
330
1E4
100
AcDbEntity
  8
LAYOUT_
 62
     0
100
AcDbMText
 10
0.0
 20
-64.3695218561
 30
0.0
 40
3.7041666667
 41
0.0
 71
     1
 72
     1
  1
IMPORTANTE:
  7
SLDTEXTSTYLE0
 73
     1
 44
1.0
  0
MTEXT
  5
1FA
330
1E4
100
AcDbEntity
  8
LAYOUT_
 62
     0
100
AcDbMText
 10
35.6869013071
 20
-64.3695218561
 30
0.0
 40
3.7041666667
 41
0.0
 71
     1
 72
     1
  1
PARA ATUALIZAÇÃO DA
  7
SLDTEXTSTYLE0
 73
     1
 44
1.0
  0
MTEXT
  5
1FB
330
1E4
100
AcDbEntity
  8
LAYOUT_
 62
     0
100
AcDbMText
 10
0.0
 20
-69.3084106853
 30
0.0
 40
3.7041666667
 41
0.0
 71
     1
 72
     1
  1
PÁGINA APÓS SELECIONAR O LAYER,
  7
SLDTEXTSTYLE0
 73
     1
 44
1.0
  0
MTEXT
  5
1FC
330
1E4
100
AcDbEntity
  8
LAYOUT_
 62
     0
100
AcDbMText
 10
0.0
 20
-74.2472995145
 30
0.0
 40
3.7041666667
 41
0.0
 71
     1
 72
     1
  1
PRESSIONE:
  7
SLDTEXTSTYLE0
 73
     1
 44
1.0
  0
MTEXT
  5
1FD
330
1E4
100
AcDbEntity
  8
LAYOUT_
 62
     0
100
AcDbMText
 10
31.5540134907
 20
-74.2472995145
 30
0.0
 40
3.7041666667
 41
0.0
 71
     1
 72
     1
  1
"CTRL+Q"
  7
SLDTEXTSTYLE0
 73
     1
 44
1.0
  0
ENDBLK
  5
1E6
330
1E4
100
AcDbEntity
  8
0
100
AcDbBlockEnd
  0
BLOCK
  5
200
330
1FF
100
AcDbEntity
  8
0
100
AcDbBlockBegin
  2
SW_NOTE_0_4
 70
     0
 10
0.0
 20
0.0
 30
0.0
  3
SW_NOTE_0_4
  1

  0
MTEXT
  5
202
330
1FF
100
AcDbEntity
  8
LAYOUT_
 62
     0
100
AcDbMText
 10
0.0
 20
4.7749217527
 30
0.0
 40
3.7041666667
 41
0.0
 71
     1
 72
     1
  1
PARA CATÁLOGO EM ESPANHOL:
  7
SLDTEXTSTYLE0
 73
     1
 44
1.0
  0
MTEXT
  5
203
330
1FF
100
AcDbEntity
  8
LAYOUT_
 62
     0
100
AcDbMText
 10
0.0
 20
-5.1028559057
 30
0.0
 40
3.7041666667
 41
0.0
 71
     1
 72
     1
  1
ATIVAR LAYER "TEXTOS EM ESPANHOL",
  7
SLDTEXTSTYLE0
 73
     1
 44
1.0
  0
MTEXT
  5
204
330
1FF
100
AcDbEntity
  8
LAYOUT_
 62
     0
100
AcDbMText
 10
0.0
 20
-10.0417447349
 30
0.0
 40
3.7041666667
 41
0.0
 71
     1
 72
     1
  1
E SELECIONAR O LAYER DA TIPOLOGIA
  7
SLDTEXTSTYLE0
 73
     1
 44
1.0
  0
MTEXT
  5
205
330
1FF
100
AcDbEntity
  8
LAYOUT_
 62
     0
100
AcDbMText
 10
0.0
 20
-14.9806335641
 30
0.0
 40
3.7041666667
 41
0.0
 71
     1
 72
     1
  1
DESEJADA:
  7
SLDTEXTSTYLE0
 73
     1
 44
1.0
  0
MTEXT
  5
206
330
1FF
100
AcDbEntity
  8
LAYOUT_
 62
     0
100
AcDbMText
 10
0.0
 20
-24.8584112225
 30
0.0
 40
3.7041666667
 41
0.0
 71
     1
 72
     1
  1
1.1 - PORTA DE CORRER
  7
SLDTEXTSTYLE0
 73
     1
 44
1.0
  0
MTEXT
  5
207
330
1FF
100
AcDbEntity
  8
LAYOUT_
 62
     0
100
AcDbMText
 10
0.0
 20
-29.7973000517
 30
0.0
 40
3.7041666667
 41
0.0
 71
     1
 72
     1
  1
2.1 - JANELA DE CORRER
  7
SLDTEXTSTYLE0
 73
     1
 44
1.0
  0
MTEXT
  5
208
330
1FF
100
AcDbEntity
  8
LAYOUT_
 62
     0
100
AcDbMText
 10
0.0
 20
-34.7361888809
 30
0.0
 40
3.7041666667
 41
0.0
 71
     1
 72
     1
  1
3.1 - PORTA E JANELA DE CORRER
  7
SLDTEXTSTYLE0
 73
     1
 44
1.0
  0
MTEXT
  5
209
330
1FF
100
AcDbEntity
  8
LAYOUT_
 62
     0
100
AcDbMText
 10
0.0
 20
-39.6750777101
 30
0.0
 40
3.7041666667
 41
0.0
 71
     1
 72
     1
  1
4.1 - PERSIANAS
  7
SLDTEXTSTYLE0
 73
     1
 44
1.0
  0
MTEXT
  5
20A
330
1FF
100
AcDbEntity
  8
LAYOUT_
 62
     0
100
AcDbMText
 10
0.0
 20
-44.6139665393
 30
0.0
 40
3.7041666667
 41
0.0
 71
     1
 72
     1
  1
5.1 - MAXIM-AR
  7
SLDTEXTSTYLE0
 73
     1
 44
1.0
  0
MTEXT
  5
20B
330
1FF
100
AcDbEntity
  8
LAYOUT_
 62
     0
100
AcDbMText
 10
0.0
 20
-49.5528553685
 30
0.0
 40
3.7041666667
 41
0.0
 71
     1
 72
     1
  1
6.1 - PORTA DE GIRO
  7
SLDTEXTSTYLE0
 73
     1
 44
1.0
  0
MTEXT
  5
20C
330
1FF
100
AcDbEntity
  8
LAYOUT_
 62
     0
100
AcDbMText
 10
0.0
 20
-54.4917441977
 30
0.0
 40
3.7041666667
 41
0.0
 71
     1
 72
     1
  1
7.1 - JANELA BASCULANTE
  7
SLDTEXTSTYLE0
 73
     1
 44
1.0
  0
MTEXT
  5
20D
330
1FF
100
AcDbEntity
  8
LAYOUT_
 62
     0
100
AcDbMText
 10
0.0
 20
-64.3695218561
 30
0.0
 40
3.7041666667
 41
0.0
 71
     1
 72
     1
  1
IMPORTANTE:
  7
SLDTEXTSTYLE0
 73
     1
 44
1.0
  0
MTEXT
  5
20E
330
1FF
100
AcDbEntity
  8
LAYOUT_
 62
     0
100
AcDbMText
 10
35.6869013071
 20
-64.3695218561
 30
0.0
 40
3.7041666667
 41
0.0
 71
     1
 72
     1
  1
PARA ATUALIZAÇÃO DA
  7
SLDTEXTSTYLE0
 73
     1
 44
1.0
  0
MTEXT
  5
20F
330
1FF
100
AcDbEntity
  8
LAYOUT_
 62
     0
100
AcDbMText
 10
0.0
 20
-69.3084106853
 30
0.0
 40
3.7041666667
 41
0.0
 71
     1
 72
     1
  1
PÁGINA APÓS SELECIONAR O LAYER,
  7
SLDTEXTSTYLE0
 73
     1
 44
1.0
  0
MTEXT
  5
210
330
1FF
100
AcDbEntity
  8
LAYOUT_
 62
     0
100
AcDbMText
 10
0.0
 20
-74.2472995145
 30
0.0
 40
3.7041666667
 41
0.0
 71
     1
 72
     1
  1
PRESSIONE:
  7
SLDTEXTSTYLE0
 73
     1
 44
1.0
  0
MTEXT
  5
211
330
1FF
100
AcDbEntity
  8
LAYOUT_
 62
     0
100
AcDbMText
 10
31.5540134907
 20
-74.2472995145
 30
0.0
 40
3.7041666667
 41
0.0
 71
     1
 72
     1
  1
"CTRL+Q"
  7
SLDTEXTSTYLE0
 73
     1
 44
1.0
  0
ENDBLK
  5
201
330
1FF
100
AcDbEntity
  8
0
100
AcDbBlockEnd
  0
BLOCK
  5
214
330
213
100
AcDbEntity
  8
0
100
AcDbBlockBegin
  2
SW_NOTE_0_5
 70
     0
 10
0.0
 20
0.0
 30
0.0
  3
SW_NOTE_0_5
  1

  0
MTEXT
  5
216
330
213
100
AcDbEntity
  8
3_1_-_PORTA_E_JANELA_DE_CORRER_2F
 62
     0
100
AcDbMText
 10
15.2135416667
 20
3.4106583948
 30
0.0
 40
2.6458333333
 41
0.0
 71
     2
 72
     1
  1
PORTA E JANELA
  7
SLDTEXTSTYLE0
 73
     1
 44
1.0
  0
MTEXT
  5
217
330
213
100
AcDbEntity
  8
3_1_-_PORTA_E_JANELA_DE_CORRER_2F
 62
     0
100
AcDbMText
 10
15.7157614604
 20
-0.1171193403
 30
0.0
 40
2.6458333333
 41
0.0
 71
     2
 72
     1
  1
DE CORRER
  7
SLDTEXTSTYLE0
 73
     1
 44
1.0
  0
ENDBLK
  5
215
330
213
100
AcDbEntity
  8
0
100
AcDbBlockEnd
  0
BLOCK
  5
21A
330
219
100
AcDbEntity
  8
0
100
AcDbBlockBegin
  2
SW_TABLEANNOTATION_0
 70
     0
 10
0.0
 20
0.0
 30
0.0
  3
SW_TABLEANNOTATION_0
  1

  0
LINE
  5
21C
330
219
100
AcDbEntity
  8
TEXTOS_EM_PORTUGUES
 62
     0
100
AcDbLine
 10
0.0
 20
0.0
 30
0.0
 11
0.0
 21
-5.0
 31
0.0
  0
LINE
  5
21D
330
219
100
AcDbEntity
  8
TEXTOS_EM_PORTUGUES
 62
     0
100
AcDbLine
 10
0.0
 20
-5.0
 30
0.0
 11
0.0
 21
-10.0
 31
0.0
  0
LINE
  5
21E
330
219
100
AcDbEntity
  8
TEXTOS_EM_PORTUGUES
 62
     0
100
AcDbLine
 10
10.0
 20
-5.0
 30
0.0
 11
10.0
 21
-10.0
 31
0.0
  0
LINE
  5
21F
330
219
100
AcDbEntity
  8
TEXTOS_EM_PORTUGUES
 62
     0
100
AcDbLine
 10
0.0
 20
-10.0
 30
0.0
 11
0.0
 21
-15.0
 31
0.0
  0
LINE
  5
220
330
219
100
AcDbEntity
  8
TEXTOS_EM_PORTUGUES
 62
     0
100
AcDbLine
 10
10.0
 20
-10.0
 30
0.0
 11
10.0
 21
-15.0
 31
0.0
  0
LINE
  5
221
330
219
100
AcDbEntity
  8
TEXTOS_EM_PORTUGUES
 62
     0
100
AcDbLine
 10
0.0
 20
-15.0
 30
0.0
 11
0.0
 21
-20.0
 31
0.0
  0
LINE
  5
222
330
219
100
AcDbEntity
  8
TEXTOS_EM_PORTUGUES
 62
     0
100
AcDbLine
 10
10.0
 20
-15.0
 30
0.0
 11
10.0
 21
-20.0
 31
0.0
  0
LINE
  5
223
330
219
100
AcDbEntity
  8
TEXTOS_EM_PORTUGUES
 62
     0
100
AcDbLine
 10
20.0
 20
-5.0
 30
0.0
 11
20.0
 21
-10.0
 31
0.0
  0
LINE
  5
224
330
219
100
AcDbEntity
  8
TEXTOS_EM_PORTUGUES
 62
     0
100
AcDbLine
 10
20.0
 20
-10.0
 30
0.0
 11
20.0
 21
-15.0
 31
0.0
  0
LINE
  5
225
330
219
100
AcDbEntity
  8
TEXTOS_EM_PORTUGUES
 62
     0
100
AcDbLine
 10
20.0
 20
-15.0
 30
0.0
 11
20.0
 21
-20.0
 31
0.0
  0
LINE
  5
226
330
219
100
AcDbEntity
  8
TEXTOS_EM_PORTUGUES
 62
     0
100
AcDbLine
 10
45.0
 20
-5.0
 30
0.0
 11
45.0
 21
-10.0
 31
0.0
  0
LINE
  5
227
330
219
100
AcDbEntity
  8
TEXTOS_EM_PORTUGUES
 62
     0
100
AcDbLine
 10
45.0
 20
-10.0
 30
0.0
 11
45.0
 21
-15.0
 31
0.0
  0
LINE
  5
228
330
219
100
AcDbEntity
  8
TEXTOS_EM_PORTUGUES
 62
     0
100
AcDbLine
 10
45.0
 20
-15.0
 30
0.0
 11
45.0
 21
-20.0
 31
0.0
  0
LINE
  5
229
330
219
100
AcDbEntity
  8
TEXTOS_EM_PORTUGUES
 62
     0
100
AcDbLine
 10
60.0
 20
0.0
 30
0.0
 11
60.0
 21
-5.0
 31
0.0
  0
LINE
  5
22A
330
219
100
AcDbEntity
  8
TEXTOS_EM_PORTUGUES
 62
     0
100
AcDbLine
 10
60.0
 20
-5.0
 30
0.0
 11
60.0
 21
-10.0
 31
0.0
  0
LINE
  5
22B
330
219
100
AcDbEntity
  8
TEXTOS_EM_PORTUGUES
 62
     0
100
AcDbLine
 10
60.0
 20
-10.0
 30
0.0
 11
60.0
 21
-15.0
 31
0.0
  0
LINE
  5
22C
330
219
100
AcDbEntity
  8
TEXTOS_EM_PORTUGUES
 62
     0
100
AcDbLine
 10
60.0
 20
-15.0
 30
0.0
 11
60.0
 21
-20.0
 31
0.0
  0
LINE
  5
22D
330
219
100
AcDbEntity
  8
TEXTOS_EM_PORTUGUES
 62
     0
100
AcDbLine
 10
0.0
 20
0.0
 30
0.0
 11
10.0
 21
0.0
 31
0.0
  0
LINE
  5
22E
330
219
100
AcDbEntity
  8
TEXTOS_EM_PORTUGUES
 62
     0
100
AcDbLine
 10
0.0
 20
-5.0
 30
0.0
 11
10.0
 21
-5.0
 31
0.0
  0
LINE
  5
22F
330
219
100
AcDbEntity
  8
TEXTOS_EM_PORTUGUES
 62
     0
100
AcDbLine
 10
10.0
 20
0.0
 30
0.0
 11
20.0
 21
0.0
 31
0.0
  0
LINE
  5
230
330
219
100
AcDbEntity
  8
TEXTOS_EM_PORTUGUES
 62
     0
100
AcDbLine
 10
10.0
 20
-5.0
 30
0.0
 11
20.0
 21
-5.0
 31
0.0
  0
LINE
  5
231
330
219
100
AcDbEntity
  8
TEXTOS_EM_PORTUGUES
 62
     0
100
AcDbLine
 10
20.0
 20
0.0
 30
0.0
 11
45.0
 21
0.0
 31
0.0
  0
LINE
  5
232
330
219
100
AcDbEntity
  8
TEXTOS_EM_PORTUGUES
 62
     0
100
AcDbLine
 10
20.0
 20
-5.0
 30
0.0
 11
45.0
 21
-5.0
 31
0.0
  0
LINE
  5
233
330
219
100
AcDbEntity
  8
TEXTOS_EM_PORTUGUES
 62
     0
100
AcDbLine
 10
45.0
 20
0.0
 30
0.0
 11
60.0
 21
0.0
 31
0.0
  0
LINE
  5
234
330
219
100
AcDbEntity
  8
TEXTOS_EM_PORTUGUES
 62
     0
100
AcDbLine
 10
45.0
 20
-5.0
 30
0.0
 11
60.0
 21
-5.0
 31
0.0
  0
LINE
  5
235
330
219
100
AcDbEntity
  8
TEXTOS_EM_PORTUGUES
 62
     0
100
AcDbLine
 10
0.0
 20
-10.0
 30
0.0
 11
10.0
 21
-10.0
 31
0.0
  0
LINE
  5
236
330
219
100
AcDbEntity
  8
TEXTOS_EM_PORTUGUES
 62
     0
100
AcDbLine
 10
10.0
 20
-10.0
 30
0.0
 11
20.0
 21
-10.0
 31
0.0
  0
LINE
  5
237
330
219
100
AcDbEntity
  8
TEXTOS_EM_PORTUGUES
 62
     0
100
AcDbLine
 10
20.0
 20
-10.0
 30
0.0
 11
45.0
 21
-10.0
 31
0.0
  0
LINE
  5
238
330
219
100
AcDbEntity
  8
TEXTOS_EM_PORTUGUES
 62
     0
100
AcDbLine
 10
45.0
 20
-10.0
 30
0.0
 11
60.0
 21
-10.0
 31
0.0
  0
LINE
  5
239
330
219
100
AcDbEntity
  8
TEXTOS_EM_PORTUGUES
 62
     0
100
AcDbLine
 10
0.0
 20
-15.0
 30
0.0
 11
10.0
 21
-15.0
 31
0.0
  0
LINE
  5
23A
330
219
100
AcDbEntity
  8
TEXTOS_EM_PORTUGUES
 62
     0
100
AcDbLine
 10
10.0
 20
-15.0
 30
0.0
 11
20.0
 21
-15.0
 31
0.0
  0
LINE
  5
23B
330
219
100
AcDbEntity
  8
TEXTOS_EM_PORTUGUES
 62
     0
100
AcDbLine
 10
20.0
 20
-15.0
 30
0.0
 11
45.0
 21
-15.0
 31
0.0
  0
LINE
  5
23C
330
219
100
AcDbEntity
  8
TEXTOS_EM_PORTUGUES
 62
     0
100
AcDbLine
 10
45.0
 20
-10.0
 30
0.0
 11
60.0
 21
-10.0
 31
0.0
  0
LINE
  5
23D
330
219
100
AcDbEntity
  8
TEXTOS_EM_PORTUGUES
 62
     0
100
AcDbLine
 10
0.0
 20
-20.0
 30
0.0
 11
10.0
 21
-20.0
 31
0.0
  0
LINE
  5
23E
330
219
100
AcDbEntity
  8
TEXTOS_EM_PORTUGUES
 62
     0
100
AcDbLine
 10
10.0
 20
-20.0
 30
0.0
 11
20.0
 21
-20.0
 31
0.0
  0
LINE
  5
23F
330
219
100
AcDbEntity
  8
TEXTOS_EM_PORTUGUES
 62
     0
100
AcDbLine
 10
20.0
 20
-20.0
 30
0.0
 11
45.0
 21
-20.0
 31
0.0
  0
LINE
  5
240
330
219
100
AcDbEntity
  8
TEXTOS_EM_PORTUGUES
 62
     0
100
AcDbLine
 10
45.0
 20
-20.0
 30
0.0
 11
60.0
 21
-20.0
 31
0.0
  0
LINE
  5
241
330
219
100
AcDbEntity
  8
TEXTOS_EM_PORTUGUES
 62
     0
100
AcDbLine
 10
0.0
 20
0.0
 30
0.0
 11
0.0
 21
-20.0
 31
0.0
  0
LINE
  5
242
330
219
100
AcDbEntity
  8
TEXTOS_EM_PORTUGUES
 62
     0
100
AcDbLine
 10
0.0
 20
-20.0
 30
0.0
 11
60.0
 21
-20.0
 31
0.0
  0
LINE
  5
243
330
219
100
AcDbEntity
  8
TEXTOS_EM_PORTUGUES
 62
     0
100
AcDbLine
 10
60.0
 20
-20.0
 30
0.0
 11
60.0
 21
0.0
 31
0.0
  0
LINE
  5
244
330
219
100
AcDbEntity
  8
TEXTOS_EM_PORTUGUES
 62
     0
100
AcDbLine
 10
60.0
 20
0.0
 30
0.0
 11
0.0
 21
0.0
 31
0.0
  0
MTEXT
  5
245
330
219
100
AcDbEntity
  8
TEXTOS_EM_PORTUGUES
 62
     0
100
AcDbMText
 10
20.3111103922
 20
-1.4733611731
 30
0.0
 40
2.0
 41
0.0
 71
     1
 72
     1
  1
CODIFICAÇÃO
  7
SLDTEXTSTYLE0
 73
     1
 44
1.0
  0
MTEXT
  5
246
330
219
100
AcDbEntity
  8
TEXTOS_EM_PORTUGUES
 62
     0
100
AcDbMText
 10
2.7114582434
 20
-6.7300208507
 30
0.0
 40
1.5
 41
0.0
 71
     1
 72
     1
  1
COR
  7
SLDTEXTSTYLE0
 73
     1
 44
1.0
  0
MTEXT
  5
247
330
219
100
AcDbEntity
  8
TEXTOS_EM_PORTUGUES
 62
     0
100
AcDbMText
 10
10.8229167387
 20
-6.7300208507
 30
0.0
 40
1.5
 41
0.0
 71
     1
 72
     1
  1
CÓDIGO
  7
SLDTEXTSTYLE0
 73
     1
 44
1.0
  0
MTEXT
  5
248
330
219
100
AcDbEntity
  8
TEXTOS_EM_PORTUGUES
 62
     0
100
AcDbMText
 10
26.6072915681
 20
-6.7300208507
 30
0.0
 40
1.5
 41
0.0
 71
     1
 72
     1
  1
CATÁLOGO
  7
SLDTEXTSTYLE0
 73
     1
 44
1.0
  0
MTEXT
  5
249
330
219
100
AcDbEntity
  8
TEXTOS_EM_PORTUGUES
 62
     0
100
AcDbMText
 10
46.3166667707
 20
-6.7300208507
 30
0.0
 40
1.5
 41
0.0
 71
     1
 72
     1
  1
SISTEMISTA
  7
SLDTEXTSTYLE0
 73
     1
 44
1.0
  0
MTEXT
  5
24A
330
219
100
AcDbEntity
  8
TEXTOS_EM_PORTUGUES
 62
     0
100
AcDbMText
 10
2.7677082643
 20
-11.7300208507
 30
0.0
 40
1.5
 41
0.0
 71
     1
 72
     1
  1
BCO
  7
SLDTEXTSTYLE0
 73
     1
 44
1.0
  0
MTEXT
  5
24B
330
219
100
AcDbEntity
  8
TEXTOS_EM_PORTUGUES
 62
     0
100
AcDbMText
 10
10.9895834327
 20
-11.7300208507
 30
0.0
 40
1.5
 41
0.0
 71
     1
 72
     1
  1
9302290
  7
SLDTEXTSTYLE0
 73
     1
 44
1.0
  0
MTEXT
  5
24C
330
219
100
AcDbEntity
  8
TEXTOS_EM_PORTUGUES
 62
     0
100
AcDbMText
 10
21.2197911739
 20
-11.7300208507
 30
0.0
 40
1.5
 41
0.0
 71
     1
 72
     1
  1
TAM760761NYBCO1PC
  7
SLDTEXTSTYLE0
 73
     1
 44
1.0
  0
MTEXT
  5
24D
330
219
100
AcDbEntity
  8
TEXTOS_EM_PORTUGUES
 62
     0
100
AcDbMText
 10
48.2635416649
 20
-14.2300208507
 30
0.0
 40
1.5
 41
0.0
 71
     1
 72
     1
  1
TAM-761
  7
SLDTEXTSTYLE0
 73
     1
 44
1.0
  0
MTEXT
  5
24E
330
219
100
AcDbEntity
  8
TEXTOS_EM_PORTUGUES
 62
     0
100
AcDbMText
 10
2.9395833798
 20
-16.7300208507
 30
0.0
 40
1.5
 41
0.0
 71
     1
 72
     1
  1
PRT
  7
SLDTEXTSTYLE0
 73
     1
 44
1.0
  0
MTEXT
  5
24F
330
219
100
AcDbEntity
  8
TEXTOS_EM_PORTUGUES
 62
     0
100
AcDbMText
 10
10.9895834327
 20
-16.7300208507
 30
0.0
 40
1.5
 41
0.0
 71
     1
 72
     1
  1
9302289
  7
SLDTEXTSTYLE0
 73
     1
 44
1.0
  0
MTEXT
  5
250
330
219
100
AcDbEntity
  8
TEXTOS_EM_PORTUGUES
 62
     0
100
AcDbMText
 10
21.3916648924
 20
-16.7300208507
 30
0.0
 40
1.5
 41
0.0
 71
     1
 72
     1
  1
TAM760761NYPRT1PC
  7
SLDTEXTSTYLE0
 73
     1
 44
1.0
  0
ENDBLK
  5
21B
330
219
100
AcDbEntity
  8
0
100
AcDbBlockEnd
  0
BLOCK
  5
351
330
350
100
AcDbEntity
  8
0
100
AcDbBlockBegin
  2
_D
 70
     0
 10
0.0
 20
0.0
 30
0.0
  3
_D
  1

  0
SOLID
  5
353
330
350
100
AcDbEntity
  8
DESENHO
100
AcDbTrace
 10
62.5011529322
 20
130.2929382139
 30
0.0
 11
62.8511529322
 21
132.2929382139
 31
0.0
 12
62.1511529322
 22
132.2929382139
 32
0.0
 13
62.1511529322
 23
132.2929382139
 33
0.0
  0
SOLID
  5
354
330
350
100
AcDbEntity
  8
DESENHO
100
AcDbTrace
 10
62.5011529322
 20
150.2929382139
 30
0.0
 11
62.1511529322
 21
148.2929382139
 31
0.0
 12
62.8511529322
 22
148.2929382139
 32
0.0
 13
62.8511529322
 23
148.2929382139
 33
0.0
  0
LINE
  5
355
330
350
100
AcDbEntity
  8
DESENHO
100
AcDbLine
 10
55.5011516074
 20
130.2929382139
 30
0.0
 11
63.5011529322
 21
130.2929382139
 31
0.0
  0
LINE
  5
356
330
350
100
AcDbEntity
  8
DESENHO
100
AcDbLine
 10
37.3012851378
 20
150.2929382139
 30
0.0
 11
63.5011529322
 21
150.2929382139
 31
0.0
  0
LINE
  5
357
330
350
100
AcDbEntity
  8
DESENHO
100
AcDbLine
 10
62.5011529322
 20
130.2929382139
 30
0.0
 11
62.5011529322
 21
150.2929382139
 31
0.0
  0
MTEXT
  5
358
330
350
100
AcDbEntity
  8
DESENHO
100
AcDbMText
 10
59.2784837574
 20
138.3832159891
 30
0.0
 40
2.5
 41
0.0
 71
     1
 72
     1
  1
40
  7
SLDTEXTSTYLE0
 11
3.835990623682900E-15
 21
1.0
 31
0.0
 73
     1
 44
1.0
  0
ENDBLK
  5
352
330
350
100
AcDbEntity
  8
0
100
AcDbBlockEnd
  0
BLOCK
  5
35C
330
35B
100
AcDbEntity
  8
0
100
AcDbBlockBegin
  2
_D_1
 70
     0
 10
0.0
 20
0.0
 30
0.0
  3
_D_1
  1

  0
SOLID
  5
35E
330
35B
100
AcDbEntity
  8
DESENHO
100
AcDbTrace
 10
36.3013338143
 20
158.2929909186
 30
0.0
 11
38.3013316847
 21
157.9429787495
 31
0.0
 12
38.3013359439
 22
158.6429787495
 32
0.0
 13
38.3013359439
 23
158.6429787495
 33
0.0
  0
SOLID
  5
35F
330
35B
100
AcDbEntity
  8
DESENHO
100
AcDbTrace
 10
54.5013219739
 20
158.2928801802
 30
0.0
 11
52.5013241035
 21
158.6428923493
 31
0.0
 12
52.5013198444
 22
157.9428923493
 32
0.0
 13
52.5013198444
 23
157.9428923493
 33
0.0
  0
LINE
  5
360
330
35B
100
AcDbEntity
  8
DESENHO
100
AcDbLine
 10
36.3012912223
 20
151.2929368816
 30
0.0
 11
36.3013398989
 21
159.2929909186
 31
0.0
  0
LINE
  5
361
330
35B
100
AcDbEntity
  8
DESENHO
100
AcDbLine
 10
54.5011576919
 20
131.2929373286
 30
0.0
 11
54.5013280584
 21
159.2928801802
 31
0.0
  0
LINE
  5
362
330
35B
100
AcDbEntity
  8
DESENHO
100
AcDbLine
 10
36.3013338143
 20
158.2929909186
 30
0.0
 11
54.5013219739
 21
158.2928801802
 31
0.0
  0
MTEXT
  5
363
330
35B
100
AcDbEntity
  8
DESENHO
100
AcDbMText
 10
43.4916858865
 20
161.5156163435
 30
0.0
 40
2.5
 41
0.0
 71
     1
 72
     1
  1
36
  7
SLDTEXTSTYLE0
 11
0.9999999999814893
 21
-6.084531324320515E-6
 31
0.0
 73
     1
 44
1.0
  0
ENDBLK
  5
35D
330
35B
100
AcDbEntity
  8
0
100
AcDbBlockEnd
  0
BLOCK
  5
38A
330
389
100
AcDbEntity
  8
0
100
AcDbBlockBegin
  2
_D_2
 70
     0
 10
0.0
 20
0.0
 30
0.0
  3
_D_2
  1

  0
SOLID
  5
38C
330
389
100
AcDbEntity
  8
DESENHO
100
AcDbTrace
 10
80.8033854936
 20
157.8318284281
 30
0.0
 11
80.4533854936
 21
155.8318284281
 31
0.0
 12
81.1533854936
 22
155.8318284281
 32
0.0
 13
81.1533854936
 23
155.8318284281
 33
0.0
  0
SOLID
  5
38D
330
389
100
AcDbEntity
  8
DESENHO
100
AcDbTrace
 10
80.8033854936
 20
102.8318284281
 30
0.0
 11
81.1533854936
 21
104.8318284281
 31
0.0
 12
80.4533854936
 22
104.8318284281
 32
0.0
 13
80.4533854936
 23
104.8318284281
 33
0.0
  0
LINE
  5
38E
330
389
100
AcDbEntity
  8
DESENHO
100
AcDbLine
 10
87.8930216502
 20
157.8318284281
 30
0.0
 11
79.8033854936
 21
157.8318284281
 31
0.0
  0
LINE
  5
38F
330
389
100
AcDbEntity
  8
DESENHO
100
AcDbLine
 10
89.853405672
 20
102.8318284281
 30
0.0
 11
79.8033854936
 21
102.8318284281
 31
0.0
  0
LINE
  5
390
330
389
100
AcDbEntity
  8
DESENHO
100
AcDbLine
 10
80.8033854936
 20
157.8318284281
 30
0.0
 11
80.8033854936
 21
102.8318284281
 31
0.0
  0
MTEXT
  5
391
330
389
100
AcDbEntity
  8
DESENHO
100
AcDbMText
 10
77.5807163187
 20
128.4221062033
 30
0.0
 40
2.5
 41
0.0
 71
     1
 72
     1
  1
55
  7
SLDTEXTSTYLE0
 11
-7.044195017643634E-15
 21
1.0
 31
0.0
 73
     1
 44
1.0
  0
ENDBLK
  5
38B
330
389
100
AcDbEntity
  8
0
100
AcDbBlockEnd
  0
BLOCK
  5
3C1
330
3C0
100
AcDbEntity
  8
0
100
AcDbBlockBegin
  2
_D_3
 70
     0
 10
0.0
 20
0.0
 30
0.0
  3
_D_3
  1

  0
SOLID
  5
3C3
330
3C0
100
AcDbEntity
  8
DESENHO
100
AcDbTrace
 10
143.4595449974
 20
157.8318284281
 30
0.0
 11
143.1095449974
 21
155.8318284281
 31
0.0
 12
143.8095449974
 22
155.8318284281
 32
0.0
 13
143.8095449974
 23
155.8318284281
 33
0.0
  0
SOLID
  5
3C4
330
3C0
100
AcDbEntity
  8
DESENHO
100
AcDbTrace
 10
143.4595449974
 20
117.8318284281
 30
0.0
 11
143.8095449974
 21
119.8318284281
 31
0.0
 12
143.1095449974
 22
119.8318284281
 32
0.0
 13
143.1095449974
 23
119.8318284281
 33
0.0
  0
LINE
  5
3C5
330
3C0
100
AcDbEntity
  8
DESENHO
100
AcDbLine
 10
148.5732525179
 20
157.8318284281
 30
0.0
 11
142.4595449974
 21
157.8318284281
 31
0.0
  0
LINE
  5
3C6
330
3C0
100
AcDbEntity
  8
DESENHO
100
AcDbLine
 10
150.8827813738
 20
117.8318284281
 30
0.0
 11
142.4595449974
 21
117.8318284281
 31
0.0
  0
LINE
  5
3C7
330
3C0
100
AcDbEntity
  8
DESENHO
100
AcDbLine
 10
143.4595449974
 20
157.8318284281
 30
0.0
 11
143.4595449974
 21
117.8318284281
 31
0.0
  0
MTEXT
  5
3C8
330
3C0
100
AcDbEntity
  8
DESENHO
100
AcDbMText
 10
140.2368758226
 20
135.9221062033
 30
0.0
 40
2.5
 41
0.0
 71
     1
 72
     1
  1
40
  7
SLDTEXTSTYLE0
 11
-2.603302919143008E-15
 21
1.0
 31
0.0
 73
     1
 44
1.0
  0
ENDBLK
  5
3C2
330
3C0
100
AcDbEntity
  8
0
100
AcDbBlockEnd
  0
BLOCK
  5
3CC
330
3CB
100
AcDbEntity
  8
0
100
AcDbBlockBegin
  2
_D_4
 70
     0
 10
0.0
 20
0.0
 30
0.0
  3
_D_4
  1

  0
SOLID
  5
3CE
330
3CB
100
AcDbEntity
  8
DESENHO
 62
     7
100
AcDbTrace
 10
151.8827813738
 20
94.8318284281
 30
0.0
 11
153.8827813738
 21
94.4818284281
 31
0.0
 12
153.8827813738
 22
95.1818284281
 32
0.0
 13
153.8827813738
 23
95.1818284281
 33
0.0
  0
SOLID
  5
3CF
330
3CB
100
AcDbEntity
  8
DESENHO
 62
     7
100
AcDbTrace
 10
187.9948808046
 20
94.8318284281
 30
0.0
 11
185.9948808046
 21
95.1818284281
 31
0.0
 12
185.9948808046
 22
94.4818284281
 32
0.0
 13
185.9948808046
 23
94.4818284281
 33
0.0
  0
LINE
  5
3D0
330
3CB
100
AcDbEntity
  8
DESENHO
 62
     7
100
AcDbLine
 10
151.8827813738
 20
116.8318284281
 30
0.0
 11
151.8827813738
 21
93.8318284281
 31
0.0
  0
LINE
  5
3D1
330
3CB
100
AcDbEntity
  8
DESENHO
 62
     7
100
AcDbLine
 10
187.9948808046
 20
116.8318284281
 30
0.0
 11
187.9948808046
 21
93.8318284281
 31
0.0
  0
LINE
  5
3D2
330
3CB
100
AcDbEntity
  8
DESENHO
 62
     7
100
AcDbLine
 10
151.8827813738
 20
94.8318284281
 30
0.0
 11
187.9948808046
 21
94.8318284281
 31
0.0
  0
MTEXT
  5
3D3
330
3CB
100
AcDbEntity
  8
DESENHO
 62
     7
100
AcDbMText
 10
168.0291088644
 20
98.0544976029
 30
0.0
 40
2.5
 41
0.0
 71
     1
 72
     1
  1
36
  7
SLDTEXTSTYLE0
 73
     1
 44
1.0
  0
ENDBLK
  5
3CD
330
3CB
100
AcDbEntity
  8
0
100
AcDbBlockEnd
  0
BLOCK
  5
3F6
330
3F5
100
AcDbEntity
  8
0
100
AcDbBlockBegin
  2
_D_5
 70
     0
 10
0.0
 20
0.0
 30
0.0
  3
_D_5
  1

  0
SOLID
  5
3F8
330
3F5
100
AcDbEntity
  8
DESENHO
100
AcDbTrace
 10
128.8033854936
 20
89.7625579022
 30
0.0
 11
126.8033854936
 21
90.1125579022
 31
0.0
 12
126.8033854936
 22
89.4125579022
 32
0.0
 13
126.8033854936
 23
89.4125579022
 33
0.0
  0
SOLID
  5
3F9
330
3F5
100
AcDbEntity
  8
DESENHO
100
AcDbTrace
 10
88.8033854936
 20
89.7625579022
 30
0.0
 11
90.8033854936
 21
89.4125579022
 31
0.0
 12
90.8033854936
 22
90.1125579022
 32
0.0
 13
90.8033854936
 23
90.1125579022
 33
0.0
  0
LINE
  5
3FA
330
3F5
100
AcDbEntity
  8
DESENHO
100
AcDbLine
 10
128.8033854936
 20
81.1039045351
 30
0.0
 11
128.8033854936
 21
90.7625579022
 31
0.0
  0
LINE
  5
3FB
330
3F5
100
AcDbEntity
  8
DESENHO
100
AcDbLine
 10
88.8033854936
 20
81.3069386073
 30
0.0
 11
88.8033854936
 21
90.7625579022
 31
0.0
  0
LINE
  5
3FC
330
3F5
100
AcDbEntity
  8
DESENHO
100
AcDbLine
 10
128.8033854936
 20
89.7625579022
 30
0.0
 11
88.8033854936
 21
89.7625579022
 31
0.0
  0
MTEXT
  5
3FD
330
3F5
100
AcDbEntity
  8
DESENHO
100
AcDbMText
 10
106.8936632687
 20
92.985227077
 30
0.0
 40
2.5
 41
0.0
 71
     1
 72
     1
  1
40
  7
SLDTEXTSTYLE0
 73
     1
 44
1.0
  0
ENDBLK
  5
3F7
330
3F5
100
AcDbEntity
  8
0
100
AcDbBlockEnd
  0
BLOCK
  5
400
330
3FF
100
AcDbEntity
  8
0
100
AcDbBlockBegin
  2
_D_6
 70
     0
 10
0.0
 20
0.0
 30
0.0
  3
_D_6
  1

  0
SOLID
  5
402
330
3FF
100
AcDbEntity
  8
DESENHO
 62
     7
100
AcDbTrace
 10
80.8033854936
 20
80.849859826
 30
0.0
 11
80.4533854936
 21
78.849859826
 31
0.0
 12
81.1533854936
 22
78.849859826
 32
0.0
 13
81.1533854936
 23
78.849859826
 33
0.0
  0
SOLID
  5
403
330
3FF
100
AcDbEntity
  8
DESENHO
 62
     7
100
AcDbTrace
 10
80.8033854936
 20
43.3409296155
 30
0.0
 11
81.1533854936
 21
45.3409296155
 31
0.0
 12
80.4533854936
 22
45.3409296155
 32
0.0
 13
80.4533854936
 23
45.3409296155
 33
0.0
  0
LINE
  5
404
330
3FF
100
AcDbEntity
  8
DESENHO
 62
     7
100
AcDbLine
 10
87.8930216502
 20
80.849859826
 30
0.0
 11
79.8033854936
 21
80.849859826
 31
0.0
  0
LINE
  5
405
330
3FF
100
AcDbEntity
  8
DESENHO
 62
     7
100
AcDbLine
 10
108.1316537032
 20
43.3409296155
 30
0.0
 11
79.8033854936
 21
43.3409296155
 31
0.0
  0
LINE
  5
406
330
3FF
100
AcDbEntity
  8
DESENHO
 62
     7
100
AcDbLine
 10
80.8033854936
 20
80.849859826
 30
0.0
 11
80.8033854936
 21
43.3409296155
 31
0.0
  0
MTEXT
  5
407
330
3FF
100
AcDbEntity
  8
DESENHO
 62
     7
100
AcDbMText
 10
77.5807163187
 20
60.1856724959
 30
0.0
 40
2.5
 41
0.0
 71
     1
 72
     1
  1
38
  7
SLDTEXTSTYLE0
 11
-1.414962237524464E-14
 21
1.0
 31
0.0
 73
     1
 44
1.0
  0
ENDBLK
  5
401
330
3FF
100
AcDbEntity
  8
0
100
AcDbBlockEnd
  0
ENDSEC
  0
SECTION
  2
ENTITIES
  0
HATCH
  5
84
330
1F
100
AcDbEntity
  8
DESENHO
100
AcDbHatch
 10
0.0
 20
0.0
 30
0.0
210
0.0
220
0.0
230
1.0
  2
SOLID
 70
     1
 71
     0
 91
        1
 92
        0
 93
       10
 72
     2
 10
173.0684250131818
 20
23.29000118422208
 40
1.305025806819293
 50
270.0000000000008
 51
450.0000000000395
 73
     0
 72
     1
 10
173.0684250131809
 20
21.98497537740273
 11
172.1642530947954
 21
21.98497537740273
 72
     1
 10
172.1642530947954
 20
21.98497537740273
 11
171.9777407844268
 21
21.203761218053
 72
     1
 10
171.9777407844268
 20
21.203761218053
 11
173.6389758047752
 21
21.203761218053
 72
     2
 10
173.1653614073343
 20
23.29230760379885
 40
2.141573394230017
 50
282.7767362723677
 51
449.4062933728175
 73
     1
 72
     1
 10
173.1875522837649
 20
25.43376602456703
 11
171.1202979706501
 21
25.43376602456703
 72
     1
 10
171.1202979706501
 20
25.43376602456703
 11
170.1742234505242
 21
21.203761218053
 72
     1
 10
170.1742234505242
 20
21.203761218053
 11
171.1202979706235
 21
21.203761218053
 72
     1
 10
171.1202979706235
 20
21.203761218053
 11
171.8787817751477
 21
24.59502699104132
 72
     1
 10
171.8787817751477
 20
24.59502699104132
 11
173.0684250131818
 21
24.59502699104132
 97
        0
 75
     0
 76
     1
 98
        1
 10
0.0
 20
0.0
  0
HATCH
  5
85
330
1F
100
AcDbEntity
  8
DESENHO
100
AcDbHatch
 10
0.0
 20
0.0
 30
0.0
210
0.0
220
0.0
230
1.0
  2
SOLID
 70
     1
 71
     0
 91
        1
 92
        0
 93
        4
 72
     1
 10
175.338497399967
 20
21.203761218053
 11
176.3171615034782
 21
21.203761218053
 72
     1
 10
176.3171615034782
 20
21.203761218053
 11
176.9967893531393
 21
24.2951784177593
 72
     1
 10
176.9967893531393
 20
24.2951784177593
 11
176.0724954776008
 21
24.29517841775929
 72
     1
 10
176.0724954776008
 20
24.29517841775929
 11
175.338497399967
 21
21.203761218053
 97
        0
 75
     0
 76
     1
 98
        1
 10
0.0
 20
0.0
  0
HATCH
  5
86
330
1F
100
AcDbEntity
  8
DESENHO
100
AcDbHatch
 10
0.0
 20
0.0
 30
0.0
210
0.0
220
0.0
230
1.0
  2
SOLID
 70
     1
 71
     0
 91
        2
 92
        0
 93
        8
 72
     1
 10
179.2288116172136
 20
12.67157072663148
 11
180.0740441388316
 21
12.6715707266315
 72
     1
 10
180.0740441388316
 20
12.6715707266315
 11
180.3471078647086
 21
13.52713872254815
 72
     1
 10
180.3471078647086
 20
13.52713872254815
 11
181.8563708855514
 21
13.52713872254817
 72
     1
 10
181.8563708855514
 20
13.52713872254817
 11
182.1781729678423
 21
12.67157072663149
 72
     1
 10
182.1781729678423
 20
12.67157072663149
 11
183.0170826779596
 21
12.67157072663149
 72
     1
 10
183.0170826779596
 20
12.67157072663149
 11
181.560838694931
 21
16.54325402108591
 72
     1
 10
181.560838694931
 20
16.54325402108591
 11
180.657115207227
 21
16.54325402108591
 72
     1
 10
180.657115207227
 20
16.54325402108591
 11
179.2288116172136
 21
12.67157072663148
 97
        0
 92
        0
 93
        3
 72
     1
 10
181.1409884525537
 20
15.60234446556585
 11
181.6248616978804
 21
14.17456005438976
 72
     1
 10
181.6248616978804
 20
14.17456005438976
 11
180.657115207227
 21
14.17456005438978
 72
     1
 10
180.657115207227
 20
14.17456005438978
 11
181.1409884525537
 21
15.60234446556585
 97
        0
 75
     0
 76
     1
 98
        1
 10
0.0
 20
0.0
  0
HATCH
  5
87
330
1F
100
AcDbEntity
  8
DESENHO
100
AcDbHatch
 10
0.0
 20
0.0
 30
0.0
210
0.0
220
0.0
230
1.0
  2
SOLID
 70
     1
 71
     0
 91
        1
 92
        0
 93
        9
 72
     1
 10
194.3764965259245
 20
16.54197763011278
 11
193.4559785567753
 21
14.98661122411193
 72
     1
 10
193.4559785567753
 20
14.98661122411193
 11
192.5091895126645
 21
16.54197763011278
 72
     1
 10
192.5091895126645
 20
16.54197763011278
 11
191.567987558539
 21
16.54197763011278
 72
     1
 10
191.567987558539
 20
16.54197763011278
 11
192.9887530626573
 21
14.19876986350521
 72
     1
 10
192.9887530626573
 20
14.19876986350521
 11
192.9887530626573
 21
12.67157072663149
 72
     1
 10
192.9887530626573
 20
12.67157072663149
 11
193.9162375413499
 21
12.67157072663149
 72
     1
 10
193.9162375413499
 20
12.67157072663149
 11
193.9162375413499
 21
14.19876986350521
 72
     1
 10
193.9162375413499
 20
14.19876986350521
 11
195.3030264332086
 21
16.54197763011278
 72
     1
 10
195.3030264332086
 20
16.54197763011278
 11
194.3764965259245
 21
16.54197763011278
 97
        0
 75
     0
 76
     1
 98
        1
 10
0.0
 20
0.0
  0
HATCH
  5
88
330
1F
100
AcDbEntity
  8
DESENHO
100
AcDbHatch
 10
0.0
 20
0.0
 30
0.0
210
0.0
220
0.0
230
1.0
  2
SOLID
 70
     1
 71
     0
 91
        3
 92
        0
 93
       10
 72
     1
 10
183.0170826779596
 20
12.67157072663149
 11
185.1904232790736
 21
12.67157072663149
 72
     2
 10
185.1904232790736
 20
13.68569072376413
 40
1.014119997132617
 50
270.0000000000008
 51
351.0052235615959
 73
     1
 72
     1
 10
186.1920722352926
 20
13.52713872254817
 11
186.1920722352926
 21
13.95242198100099
 72
     2
 10
185.3654793970749
 20
13.95242198100099
 40
0.8265928382174673
 50
0.0
 51
79.93505949432449
 73
     1
 72
     1
 10
185.509938292892
 20
14.76629380605176
 11
185.509938292892
 21
14.80997344700074
 72
     2
 10
185.322142833055
 20
15.48312155189845
 40
0.6988529930269587
 50
285.5880866537503
 51
352.3471735812969
 73
     1
 72
     1
 10
186.0147712677374
 20
15.39005513834312
 11
186.0147712677374
 21
15.67677860801697
 72
     2
 10
185.1495722456416
 20
15.67677860801697
 40
0.8651990220958083
 50
0.0
 51
90.0
 73
     1
 72
     1
 10
185.1495722456416
 20
16.54197763011278
 11
183.0170826779596
 21
16.54197763011278
 72
     1
 10
183.0170826779596
 20
16.54197763011278
 11
183.0170826779596
 21
12.67157072663149
 97
        0
 92
        0
 93
        4
 72
     2
 10
184.8191175237228
 20
13.85092762921502
 40
0.5517768147976221
 50
270.0000000000008
 51
450.0000000000008
 73
     0
 72
     1
 10
184.8191175237228
 20
13.29915081441745
 11
183.8190205885919
 21
13.29915081441745
 72
     1
 10
183.8190205885919
 20
13.29915081441745
 11
183.8190205885919
 21
14.4027044440127
 72
     1
 10
183.8190205885919
 20
14.4027044440127
 11
184.8191175237228
 21
14.4027044440127
 97
        0
 92
        0
 93
        4
 72
     2
 10
184.7647119134894
 20
15.44498484228218
 40
0.458373618170271
 50
263.6832764160837
 51
450.0000000000008
 73
     0
 72
     1
 10
184.7647119134894
 20
14.98661122411193
 11
183.8190205885919
 21
14.98661122411193
 72
     1
 10
183.8190205885919
 20
14.98661122411193
 11
183.8190205885919
 21
15.90057562090263
 72
     1
 10
183.8190205885919
 20
15.90057562090263
 11
184.7142796195645
 21
15.90057562090263
 97
        0
 75
     0
 76
     1
 98
        1
 10
0.0
 20
0.0
  0
HATCH
  5
89
330
1F
100
AcDbEntity
  8
DESENHO
100
AcDbHatch
 10
0.0
 20
0.0
 30
0.0
210
0.0
220
0.0
230
1.0
  2
SOLID
 70
     1
 71
     0
 91
        1
 92
        0
 93
       16
 72
     1
 10
183.4266616539111
 20
23.70430219666387
 11
183.6241906570653
 21
24.41143193046147
 72
     2
 10
184.0169274114629
 20
24.30172518799233
 40
0.4077716611022109
 50
195.6071280636315
 51
270.0000000000008
 73
     0
 72
     1
 10
184.0169274114629
 20
24.70949684909462
 11
186.3342281596952
 21
24.70949684909462
 72
     1
 10
186.3342281596952
 20
24.70949684909462
 11
186.4917199656176
 21
25.43540528437848
 72
     1
 10
186.4917199656176
 20
25.43540528437848
 11
183.3012600750537
 21
25.43540528437848
 72
     2
 10
183.3012600750537
 20
24.93613796349758
 40
0.4992673208808899
 50
90.0
 51
166.8022057871365
 73
     1
 72
     1
 10
182.8151795557971
 20
25.05012737747458
 11
182.0956109109968
 21
21.98169945682858
 72
     2
 10
182.7124622416863
 20
21.83704333729574
 40
0.6335857930000013
 50
166.8022057871468
 51
268.2259906923874
 73
     1
 72
     1
 10
182.6928481003933
 20
21.203761218053
 11
185.4316939995382
 21
21.203761218053
 72
     1
 10
185.4316939995382
 20
21.203761218053
 11
185.638121829344
 21
21.90571976581002
 72
     1
 10
185.638121829344
 20
21.90571976581002
 11
183.4354848477196
 21
21.90571976581001
 72
     2
 10
183.4354848477196
 20
22.21736647237115
 40
0.3116467065608197
 50
90.0
 51
192.2410777502558
 73
     0
 72
     1
 10
183.1309236984575
 20
22.28344351884114
 11
183.2961914296325
 21
23.04519261072179
 72
     1
 10
183.2961914296325
 20
23.04519261072179
 11
185.9217621187757
 21
23.04519261072179
 72
     1
 10
185.9217621187757
 20
23.04519261072179
 11
186.1058772157058
 21
23.70430219666385
 72
     1
 10
186.1058772157058
 20
23.70430219666385
 11
183.4266616539111
 21
23.70430219666387
 97
        0
 75
     0
 76
     1
 98
        1
 10
0.0
 20
0.0
  0
HATCH
  5
8A
330
1F
100
AcDbEntity
  8
DESENHO
100
AcDbHatch
 10
0.0
 20
0.0
 30
0.0
210
0.0
220
0.0
230
1.0
  2
SOLID
 70
     1
 71
     0
 91
        1
 92
        0
 93
       12
 72
     2
 10
180.8759081558602
 20
21.89820197604752
 40
0.6982300656115565
 50
207.1936721057637
 51
264.0280674355271
 73
     1
 72
     1
 10
180.8032634164771
 20
21.203761218053
 11
181.3019931561835
 21
21.203761218053
 72
     1
 10
181.3019931561835
 20
21.203761218053
 11
182.2372939680137
 21
25.518184935714
 72
     1
 10
182.2372939680137
 20
25.518184935714
 11
181.3019931561835
 21
25.518184935714
 72
     1
 10
181.3019931561835
 20
25.518184935714
 11
180.657115207227
 21
22.73933901021108
 72
     1
 10
180.657115207227
 20
22.73933901021108
 11
179.294068543233
 21
25.25101464946621
 72
     2
 10
178.7284336358539
 20
24.77612243620252
 40
0.7385563368248844
 50
40.01593694048333
 51
94.19377315961732
 73
     1
 72
     1
 10
178.6744231514979
 20
25.51270123731197
 11
178.0173583130216
 21
25.51270123731197
 72
     1
 10
178.0173583130216
 20
25.51270123731197
 11
176.9967893531393
 21
21.203761218053
 72
     1
 10
176.9967893531393
 20
21.203761218053
 11
177.9338807914242
 21
21.203761218053
 72
     1
 10
177.9338807914242
 20
21.203761218053
 11
178.7009632101522
 21
24.44245675167776
 72
     1
 10
178.7009632101522
 20
24.44245675167776
 11
180.2548556581654
 21
21.57911104914611
 97
        0
 75
     0
 76
     1
 98
        1
 10
0.0
 20
0.0
  0
HATCH
  5
8B
330
1F
100
AcDbEntity
  8
DESENHO
100
AcDbHatch
 10
0.0
 20
0.0
 30
0.0
210
0.0
220
0.0
230
1.0
  2
SOLID
 70
     1
 71
     0
 91
        1
 92
        0
 93
       12
 72
     1
 10
166.2719923067999
 20
25.44851014947391
 11
165.5000224177528
 21
21.90571976581012
 72
     2
 10
166.0601728990536
 20
21.78366362980676
 40
0.5732942194352403
 50
167.7074622073168
 51
271.0168977182062
 73
     1
 72
     2
 10
167.3341206368298
 20
-49.98772803277897
 40
71.20940288803499
 50
268.9831022817926
 51
271.2851977310887
 73
     0
 72
     2
 10
168.9491065948281
 20
21.99836217798978
 40
0.7948009022819319
 50
268.7148022688893
 51
351.0868508344587
 73
     1
 72
     1
 10
169.7343097471174
 20
21.87521801895997
 11
170.5097132035869
 21
25.4337660245445
 72
     1
 10
170.5097132035869
 20
25.4337660245445
 11
169.5598886115773
 21
25.4337660245445
 72
     1
 10
169.5598886115773
 20
25.4337660245445
 11
168.8891472226404
 21
22.46634729608809
 72
     2
 10
168.1595963667793
 20
22.63125154423817
 40
0.7479557890313745
 50
12.73683110763711
 51
61.02938093758575
 73
     0
 72
     1
 10
168.5218770231192
 20
21.97688880967318
 11
166.7649822455362
 21
21.97688880967318
 72
     2
 10
167.0350299815144
 20
22.37214836213296
 40
0.4787023015586591
 50
124.3415228132398
 51
193.346307780738
 73
     0
 72
     1
 10
166.5692561732932
 20
22.48265018606598
 11
167.2728872699789
 21
25.44851014947391
 72
     1
 10
167.2728872699789
 20
25.44851014947391
 11
166.2719923067999
 21
25.44851014947391
 97
        0
 75
     0
 76
     1
 98
        1
 10
0.0
 20
0.0
  0
HATCH
  5
8C
330
1F
100
AcDbEntity
  8
DESENHO
100
AcDbHatch
 10
0.0
 20
0.0
 30
0.0
210
0.0
220
0.0
230
1.0
  2
SOLID
 70
     1
 71
     0
 91
        1
 92
        0
 93
       14
 72
     1
 10
187.2093446852849
 20
24.06125580098827
 11
189.4842027716069
 21
22.0441418610999
 72
     2
 10
189.4375679349354
 20
21.99154808679315
 40
0.0702916288558194
 50
311.5633658068828
 51
408.4366341931477
 73
     0
 72
     1
 10
189.4842027716068
 20
21.93895431248637
 11
186.3465279144055
 21
21.93895431248639
 72
     1
 10
186.3465279144055
 20
21.93895431248639
 11
186.1265911727657
 21
21.18968129243881
 72
     1
 10
186.1265911727657
 20
21.18968129243881
 11
189.7321172038589
 21
21.18968129243881
 72
     2
 10
189.7321172038589
 20
21.94981641678084
 40
0.7601351243420318
 50
270.0000000000008
 51
360.0000000000008
 73
     1
 72
     1
 10
190.4922523282009
 20
21.94981641678084
 11
190.4922523282009
 21
22.20359557290174
 72
     2
 10
190.1252663489972
 20
22.20359557290163
 40
0.3669859792037138
 50
0.0000000000171947
 51
46.81757321183044
 73
     1
 72
     1
 10
190.3764034756064
 20
22.47119387740034
 11
188.1441150444547
 21
24.5661641852781
 72
     2
 10
188.2008390356793
 20
24.62660623970902
 40
0.0828906093854735
 50
133.1824267881008
 51
270.0000000000008
 73
     0
 72
     1
 10
188.2008390356793
 20
24.70949684909462
 11
190.8702324204281
 21
24.70949684909462
 72
     1
 10
190.8702324204281
 20
24.70949684909462
 11
191.1038043415934
 21
25.4354052843785
 72
     1
 10
191.1038043415934
 20
25.4354052843785
 11
187.7308324704119
 21
25.43540528437848
 72
     2
 10
187.7308324704119
 20
24.64937860429394
 40
0.7860266800845418
 50
90.0
 51
228.4366341933596
 73
     1
 97
        0
 75
     0
 76
     1
 98
        1
 10
0.0
 20
0.0
  0
HATCH
  5
8D
330
1F
100
AcDbEntity
  8
DESENHO
100
AcDbHatch
 10
0.0
 20
0.0
 30
0.0
210
0.0
220
0.0
230
1.0
  2
SOLID
 70
     1
 71
     0
 91
        1
 92
        0
 93
       16
 72
     2
 10
192.839518723436
 20
24.34858890435786
 40
0.3609079447365545
 50
203.7463083835042
 51
270.0000000000008
 73
     0
 72
     1
 10
192.839518723436
 20
24.70949684909462
 11
195.1523311190311
 21
24.70949684909462
 72
     1
 10
195.1523311190311
 20
24.70949684909462
 11
195.3030264332086
 21
25.43540528437848
 72
     1
 10
195.3030264332086
 20
25.43540528437848
 11
192.2295261232359
 21
25.43540528437848
 72
     2
 10
192.2295261232359
 20
24.82508645337433
 40
0.6103188310040094
 50
90.0
 51
167.3223162817401
 73
     1
 72
     1
 10
191.6340868052671
 20
24.95903082277739
 11
190.9577523618725
 21
21.95243844798133
 72
     2
 10
191.567987558539
 20
21.8151657383393
 40
0.6254844459003837
 50
167.3223162817523
 51
270.0000000000008
 73
     1
 72
     1
 10
191.567987558539
 20
21.18968129243881
 11
194.2887052632134
 21
21.18968129243881
 72
     1
 10
194.2887052632134
 20
21.18968129243881
 11
194.4950073133192
 21
21.94981641678084
 72
     1
 10
194.4950073133192
 20
21.94981641678084
 11
192.2762991588254
 21
21.94981641678084
 72
     2
 10
192.2762991588254
 20
22.28185506002577
 40
0.3320386432447198
 50
90.0
 51
195.2944284970691
 73
     0
 72
     1
 10
191.956020303905
 20
22.36943996568051
 11
192.1411313584383
 21
23.04635062894843
 72
     1
 10
192.1411313584383
 20
23.04635062894843
 11
194.7676184268392
 21
23.04635062894844
 72
     1
 10
194.7676184268392
 20
23.04635062894844
 11
194.9478615181733
 21
23.70546021487674
 72
     1
 10
194.9478615181733
 20
23.70546021487674
 11
192.2935498174425
 21
23.70546021487673
 72
     1
 10
192.2935498174425
 20
23.70546021487673
 11
192.5091661740845
 21
24.49392209984613
 97
        0
 75
     0
 76
     1
 98
        1
 10
0.0
 20
0.0
  0
HATCH
  5
8E
330
1F
100
AcDbEntity
  8
DESENHO
100
AcDbHatch
 10
0.0
 20
0.0
 30
0.0
210
0.0
220
0.0
230
1.0
  2
SOLID
 70
     1
 71
     0
 91
        1
 92
        0
 93
        3
 72
     1
 10
177.3246711396164
 20
25.518184935714
 11
176.3771777340342
 21
25.518184935714
 72
     2
 10
175.8892416399825
 20
24.34349082683195
 40
1.272001525675369
 50
292.5566739760716
 51
345.4251522208027
 73
     0
 72
     1
 10
177.1203098168437
 20
24.66358304048266
 11
177.3246711396164
 21
25.518184935714
 97
        0
 75
     0
 76
     1
 98
        1
 10
0.0
 20
0.0
  0
HATCH
  5
8F
330
1F
100
AcDbEntity
  8
DESENHO
100
AcDbHatch
 10
0.0
 20
0.0
 30
0.0
210
0.0
220
0.0
230
1.0
  2
SOLID
 70
     1
 71
     0
 91
        2
 92
        0
 93
       10
 72
     1
 10
168.3759472712172
 20
12.67157072663149
 11
169.2580455481414
 21
12.67157072663149
 72
     1
 10
169.2580455481414
 20
12.67157072663149
 11
169.1131389287622
 21
13.06921030479413
 72
     1
 10
169.1131389287622
 20
13.06921030479413
 11
168.7912815855195
 21
13.95242198100098
 72
     1
 10
168.7912815855195
 20
13.95242198100098
 11
167.8471383640536
 21
16.54325402108591
 72
     1
 10
167.8471383640536
 20
16.54325402108591
 11
166.928495457201
 21
16.54325402108591
 72
     1
 10
166.928495457201
 20
16.54325402108591
 11
165.5000224177528
 21
12.6715707266315
 72
     1
 10
165.5000224177528
 20
12.6715707266315
 11
166.2719923067999
 21
12.67157072663149
 72
     1
 10
166.2719923067999
 20
12.67157072663149
 11
166.5692561732932
 21
13.53920837606525
 72
     1
 10
166.5692561732932
 20
13.53920837606525
 11
168.1595963667793
 21
13.53920837606525
 72
     1
 10
168.1595963667793
 20
13.53920837606525
 11
168.3759472712172
 21
12.67157072663149
 97
        0
 92
        0
 93
        3
 72
     1
 10
166.8617984659311
 20
14.17456005438977
 11
167.3865801534822
 21
15.60234446556585
 72
     1
 10
167.3865801534822
 20
15.60234446556585
 11
167.8782675003774
 21
14.17456005438976
 72
     1
 10
167.8782675003774
 20
14.17456005438976
 11
166.8617984659311
 21
14.17456005438977
 97
        0
 75
     0
 76
     1
 98
        1
 10
0.0
 20
0.0
  0
HATCH
  5
90
330
1F
100
AcDbEntity
  8
DESENHO
100
AcDbHatch
 10
0.0
 20
0.0
 30
0.0
210
0.0
220
0.0
230
1.0
  2
SOLID
 70
     1
 71
     0
 91
        1
 92
        0
 93
       25
 72
     2
 10
170.2860126755583
 20
13.86282050446096
 40
0.6484024177036284
 50
93.91463020234652
 51
187.9430110159402
 73
     0
 72
     1
 10
169.6438310262676
 20
13.95242198100099
 11
168.7912815855195
 21
13.95242198100098
 72
     1
 10
168.7912815855195
 20
13.95242198100098
 11
169.1131389287622
 21
13.06921030479413
 72
     2
 10
170.2484260874178
 20
14.10498301049844
 40
1.536783013470256
 50
222.3755813376623
 51
269.088145475632
 73
     1
 72
     1
 10
170.2239694275854
 20
12.56839461334035
 11
170.7295367494304
 21
12.56839461334035
 72
     2
 10
170.8281502148932
 20
13.82937594366684
 40
1.264831423946627
 50
265.5283564423802
 51
335.2155205564163
 73
     1
 72
     2
 10
170.8281502148932
 20
13.82937594366684
 40
1.264831423946627
 50
335.2155205564163
 51
365.5801129463613
 73
     1
 72
     2
 10
171.0262590996119
 20
13.81144086924734
 40
1.070049117599742
 50
7.567763998835667
 51
7.570845461985082
 73
     1
 72
     2
 10
171.0262590996119
 20
13.81144086924734
 40
1.070049117599742
 50
7.570845461985082
 51
74.79511182071398
 73
     1
 72
     1
 10
171.3069024952097
 20
14.84403197834294
 11
170.0123664844515
 21
15.19586822657537
 72
     2
 10
170.1052444267579
 20
15.53760061351638
 40
0.3541289827893871
 50
105.2048881792625
 51
195.9801346085318
 73
     0
 72
     2
 10
170.2239694275854
 20
15.50360131146077
 40
0.4776262635763435
 50
195.9801346085205
 51
270.0000000000008
 73
     0
 72
     1
 10
170.2239694275854
 20
15.98122757503728
 11
170.7001842115444
 21
15.98122757503728
 72
     2
 10
170.6103367595775
 20
15.47344121289473
 40
0.5156738835765453
 50
280.0340315360072
 51
371.1317214410728
 73
     0
 72
     1
 10
171.1163087160595
 20
15.37388251936788
 11
171.9605921778511
 21
15.37388251936788
 72
     1
 10
171.9605921778511
 20
15.37388251936788
 11
171.9605921778511
 21
15.46297482154312
 72
     2
 10
170.7987083024878
 20
15.46297482154312
 40
1.161883875363257
 50
0.0
 51
90.0
 73
     1
 72
     1
 10
170.7987083024878
 20
16.62485869690632
 11
170.0665533085069
 21
16.62485869690632
 72
     2
 10
170.0665533085069
 20
15.48840188984601
 40
1.1364568070604
 50
90.0
 51
192.7888499479132
 73
     1
 72
     2
 10
169.8125457957858
 20
15.43074477921335
 40
0.8759876938716616
 50
192.7888499479107
 51
251.8134818904939
 73
     1
 72
     1
 10
169.5391400693351
 20
14.59851659622613
 11
170.887780553144
 21
14.15545778286963
 72
     2
 10
170.6621223532468
 20
13.46856977904198
 40
0.7230053616559301
 50
288.1865181094966
 51
327.3783608239891
 73
     0
 72
     1
 10
171.2710727925209
 20
13.85833395837498
 11
171.2710727925209
 21
13.57806235249625
 72
     2
 10
170.7295367494304
 20
13.80190659747037
 40
0.5859757093721164
 50
22.4577836430715
 51
90.0
 73
     0
 72
     1
 10
170.7295367494304
 20
13.21593088809824
 11
170.2417462150496
 21
13.21593088809824
 97
        0
 75
     0
 76
     1
 98
        1
 10
0.0
 20
0.0
  0
HATCH
  5
91
330
1F
100
AcDbEntity
  8
DESENHO
100
AcDbHatch
 10
0.0
 20
0.0
 30
0.0
210
0.0
220
0.0
230
1.0
  2
SOLID
 70
     1
 71
     0
 91
        1
 92
        0
 93
        7
 72
     3
 10
190.2582777580589
 20
14.59497658415897
 11
0.0
 21
-2.074329288377141
 40
0.9311589483714064
 50
44.70424042237113
 51
52.28045398615841
 73
     0
 72
     1
 10
188.6909150602588
 20
13.38272670707518
 11
187.209344685285
 21
13.38272670707518
 72
     1
 10
187.209344685285
 20
13.38272670707518
 11
187.209344685285
 21
16.54197763011278
 72
     1
 10
187.209344685285
 20
16.54197763011278
 11
186.3465279144054
 21
16.54197763011278
 72
     1
 10
186.3465279144054
 20
16.54197763011278
 11
186.3465279144054
 21
12.67157072663149
 72
     1
 10
186.3465279144054
 20
12.67157072663149
 11
188.8514886853861
 21
12.67157072663149
 72
     1
 10
188.8514886853861
 20
12.67157072663149
 11
188.8514886853861
 21
13.17358839179531
 97
        0
 75
     0
 76
     1
 98
        1
 10
0.0
 20
0.0
  0
HATCH
  5
93
330
1F
100
AcDbEntity
  8
DESENHO
100
AcDbHatch
 10
0.0
 20
0.0
 30
0.0
210
0.0
220
0.0
230
1.0
  2
SOLID
 70
     1
 71
     0
 91
        1
 92
        0
 93
        3
 72
     1
 10
188.8514886853861
 20
13.38272670707518
 11
188.6909150602588
 21
13.38272670707518
 72
     3
 10
190.2582777580589
 20
14.59497658415897
 11
0.0
 21
-2.074329288377141
 40
0.9311589483714064
 50
307.7195460138424
 51
315.2957595776297
 73
     1
 72
     1
 10
188.8514886853861
 20
13.17358839179531
 11
188.8514886853861
 21
13.38272670707518
 97
        0
 75
     0
 76
     1
 98
        1
 10
0.0
 20
0.0
  0
HATCH
  5
95
330
1F
100
AcDbEntity
  8
DESENHO
100
AcDbHatch
 10
0.0
 20
0.0
 30
0.0
210
0.0
220
0.0
230
1.0
  2
SOLID
 70
     1
 71
     0
 91
        1
 92
        0
 93
        6
 72
     1
 10
164.550959706165
 20
20.03435531297892
 11
164.550959706165
 21
18.96422373319872
 72
     2
 10
164.720650691196
 20
18.96422373319872
 40
0.1696909850309156
 50
180.0
 51
269.4770850789441
 73
     1
 72
     1
 10
164.719102013144
 20
18.79453981528954
 11
164.8039086893425
 21
19.04847281607901
 72
     1
 10
164.8039086893425
 20
19.04847281607901
 11
164.8039086893425
 21
19.04986440984879
 72
     1
 10
164.8039086893425
 20
19.04986440984879
 11
164.8039086893425
 21
20.03435531297892
 72
     1
 10
164.8039086893425
 20
20.03435531297892
 11
164.550959706165
 21
20.03435531297892
 97
        0
 75
     0
 76
     1
 98
        1
 10
0.0
 20
0.0
  0
HATCH
  5
96
330
1F
100
AcDbEntity
  8
DESENHO
100
AcDbHatch
 10
0.0
 20
0.0
 30
0.0
210
0.0
220
0.0
230
1.0
  2
SOLID
 70
     1
 71
     0
 91
        1
 92
        0
 93
        5
 72
     1
 10
164.8039086893425
 20
19.04847281607901
 11
164.719102013144
 21
18.79453981528954
 72
     1
 10
164.719102013144
 20
18.79453981528954
 11
196.0139073296947
 21
18.79453981528955
 72
     1
 10
196.0139073296947
 20
18.79453981528955
 11
196.0989951983563
 21
19.0498644098488
 72
     1
 10
196.0989951983563
 20
19.0498644098488
 11
164.8039086893425
 21
19.04986440984879
 72
     1
 10
164.8039086893425
 20
19.04986440984879
 11
164.8039086893425
 21
19.04847281607901
 97
        0
 75
     0
 76
     1
 98
        1
 10
0.0
 20
0.0
  0
HATCH
  5
97
330
1F
100
AcDbEntity
  8
DESENHO
100
AcDbHatch
 10
0.0
 20
0.0
 30
0.0
210
0.0
220
0.0
230
1.0
  2
SOLID
 70
     1
 71
     0
 91
        1
 92
        0
 93
        3
 72
     1
 10
175.1313706066747
 20
13.71995681918568
 11
174.937069566228
 21
13.20737624124536
 72
     2
 10
175.0510540330679
 20
13.46432435159125
 40
0.2810956956111486
 50
246.0775003099444
 51
248.2421866122009
 73
     1
 72
     2
 10
173.8118403886451
 20
13.89986417256305
 40
1.331738207040926
 50
328.4607004015017
 51
352.2360525444682
 73
     1
 97
        0
 75
     0
 76
     1
 98
        1
 10
0.0
 20
0.0
  0
HATCH
  5
98
330
1F
100
AcDbEntity
  8
DESENHO
100
AcDbHatch
 10
0.0
 20
0.0
 30
0.0
210
0.0
220
0.0
230
1.0
  2
SOLID
 70
     1
 71
     0
 91
        1
 92
        0
 93
       26
 72
     1
 10
172.6993864887963
 20
13.95242198100099
 11
172.0869802883343
 21
13.95242198100099
 72
     2
 10
171.0262590996119
 20
13.81144086924734
 40
1.070049117599742
 50
352.4291545380157
 51
352.4322360011652
 73
     0
 72
     2
 10
170.8281502148932
 20
13.82937594366684
 40
1.264831423946627
 50
354.4198870536403
 51
384.7844794435853
 73
     0
 72
     2
 10
173.2849281136133
 20
14.10516812810003
 40
1.536783013470412
 50
211.633478359136
 51
269.7985515603569
 73
     1
 72
     1
 10
173.2795248901136
 20
12.56839461334035
 11
173.7850922119586
 21
12.56839461334035
 72
     2
 10
173.8118403886451
 20
13.89986417256305
 40
1.331738207040926
 50
268.8491276386978
 51
326.2440801459377
 73
     1
 72
     1
 10
174.9190637889402
 20
13.15987566323901
 11
174.937069566228
 21
13.20737624124536
 72
     2
 10
175.0510540330679
 20
13.46432435159125
 40
0.2810956956111486
 50
113.9224996900565
 51
286.9717335693342
 73
     0
 72
     2
 10
173.8118403886451
 20
13.89986417256305
 40
1.331738207040926
 50
352.8097526413648
 51
362.2593417500278
 73
     1
 72
     2
 10
174.0818145621406
 20
13.81144086924734
 40
1.070049117599464
 50
7.567763998838037
 51
74.79511182073757
 73
     1
 72
     1
 10
174.3624579577379
 20
14.84403197834295
 11
173.0679219469798
 21
15.19586822657538
 72
     2
 10
173.1607998892866
 20
15.53760061351638
 40
0.3541289827896589
 50
105.204888179325
 51
195.9801346085117
 73
     0
 72
     2
 10
173.2795248901136
 20
15.50360131146077
 40
0.4776262635763435
 50
195.9801346085197
 51
270.0000000000008
 73
     0
 72
     1
 10
173.2795248901136
 20
15.98122757503728
 11
173.755739674073
 21
15.98122757503728
 72
     2
 10
173.6658922221057
 20
15.47344121289473
 40
0.515673883576584
 50
280.0340315360539
 51
371.1317214410728
 73
     0
 72
     1
 10
174.1718641785877
 20
15.37388251936788
 11
175.0161476403793
 21
15.37388251936788
 72
     2
 10
173.8542637650165
 20
15.4598023237572
 40
1.165056373148939
 50
355.770749361558
 51
450.0000000000008
 73
     1
 72
     1
 10
173.8542637650165
 20
16.62485869690632
 11
173.1221087710351
 21
16.62485869690632
 72
     2
 10
173.1221087710351
 20
15.48840188984601
 40
1.136456807060184
 50
90.0
 51
192.7888499479176
 73
     1
 72
     2
 10
172.868101258314
 20
15.43074477921335
 40
0.875987693871445
 50
192.7888499479167
 51
251.8134818904958
 73
     1
 72
     1
 10
172.5946955318634
 20
14.59851659622612
 11
173.9433360156726
 21
14.15545778286963
 72
     2
 10
173.717677815775
 20
13.46856977904198
 40
0.7230053616561865
 50
288.1865181095286
 51
327.3783608240086
 73
     0
 72
     1
 10
174.3266282550495
 20
13.85833395837498
 11
174.3266282550495
 21
13.57806235249625
 72
     2
 10
173.7850922119586
 20
13.80190659747037
 40
0.5859757093723216
 50
22.4577836430545
 51
90.0
 73
     0
 72
     1
 10
173.7850922119586
 20
13.21593088809824
 11
173.2973016775779
 21
13.21593088809824
 72
     2
 10
173.3415681380866
 20
13.86282050446096
 40
0.6484024177034085
 50
93.91463020234399
 51
187.9430110159454
 73
     0
 97
        0
 75
     0
 76
     1
 98
        1
 10
0.0
 20
0.0
  0
HATCH
  5
99
330
1F
100
AcDbEntity
  8
DESENHO
100
AcDbHatch
 10
0.0
 20
0.0
 30
0.0
210
0.0
220
0.0
230
1.0
  2
SOLID
 70
     1
 71
     0
 91
        1
 92
        0
 93
        3
 72
     2
 10
173.8118403886451
 20
13.89986417256305
 40
1.331738207040926
 50
352.2360525444682
 51
352.8097526413648
 73
     1
 72
     2
 10
175.0510540330679
 20
13.46432435159125
 40
0.2810956956111486
 50
73.02826643066663
 51
246.0775003099444
 73
     1
 72
     1
 10
174.937069566228
 20
13.20737624124536
 11
175.1313706066747
 21
13.71995681918568
 97
        0
 75
     0
 76
     1
 98
        1
 10
0.0
 20
0.0
  0
HATCH
  5
9A
330
1F
100
AcDbEntity
  8
DESENHO
100
AcDbHatch
 10
0.0
 20
0.0
 30
0.0
210
0.0
220
0.0
230
1.0
  2
SOLID
 70
     1
 71
     0
 91
        1
 92
        0
 93
        3
 72
     2
 10
173.8118403886451
 20
13.89986417256305
 40
1.331738207040926
 50
7.763947455532613
 51
31.53929959849913
 73
     0
 72
     2
 10
175.0510540330679
 20
13.46432435159125
 40
0.2810956956111486
 50
248.2421866122009
 51
432.4026323804619
 73
     1
 72
     1
 10
175.1360365976953
 20
13.73226605010133
 11
175.1313706066747
 21
13.71995681918568
 97
        0
 75
     0
 76
     1
 98
        1
 10
0.0
 20
0.0
  0
HATCH
  5
9B
330
1F
100
AcDbEntity
  8
DESENHO
100
AcDbHatch
 10
0.0
 20
0.0
 30
0.0
210
0.0
220
0.0
230
1.0
  2
SOLID
 70
     1
 71
     0
 91
        2
 92
        0
 93
       11
 72
     2
 10
175.0510540330679
 20
13.46432435159125
 40
0.2810956956111486
 50
287.5973676195397
 51
471.7578133878007
 73
     0
 72
     2
 10
173.8118403886451
 20
13.89986417256305
 40
1.331738207040926
 50
31.53929959849913
 51
33.75591985406313
 73
     0
 72
     1
 10
174.9190637889402
 20
13.15987566323901
 11
174.7339647794939
 21
12.67157072663149
 72
     1
 10
174.7339647794939
 20
12.67157072663149
 11
175.5747747301113
 21
12.67157072663149
 72
     1
 10
175.5747747301113
 20
12.67157072663149
 11
175.8892416399825
 21
13.50115779438166
 72
     1
 10
175.8892416399825
 20
13.50115779438166
 11
177.3246711396164
 21
13.50115779438165
 72
     1
 10
177.3246711396164
 20
13.50115779438165
 11
177.6563254214079
 21
12.67157072663149
 72
     1
 10
177.6563254214079
 20
12.67157072663149
 11
178.5446200658663
 21
12.67157072663149
 72
     1
 10
178.5446200658663
 20
12.67157072663149
 11
176.9967893531393
 21
16.54325402108591
 72
     1
 10
176.9967893531393
 20
16.54325402108591
 11
176.2015820181642
 21
16.54325402108591
 72
     1
 10
176.2015820181642
 20
16.54325402108591
 11
175.1360365976953
 21
13.73226605010133
 97
        0
 92
        0
 93
        3
 72
     1
 10
176.6262406580834
 20
15.60234446556585
 11
177.1203098168437
 21
14.17456005438977
 72
     1
 10
177.1203098168437
 20
14.17456005438977
 11
176.0724954776008
 21
14.17456005438977
 72
     1
 10
176.0724954776008
 20
14.17456005438977
 11
176.6262406580834
 21
15.60234446556585
 97
        0
 75
     0
 76
     1
 98
        1
 10
0.0
 20
0.0
  0
LINE
  5
9C
330
1F
100
AcDbEntity
  8
LAYOUT_
 62
     7
370
    35
100
AcDbLine
 10
199.981196913
 20
269.9985938959
 30
0.0
 11
79.981196913
 21
269.9985938959
 31
0.0
  0
LINE
  5
9D
330
1F
100
AcDbEntity
  8
LAYOUT_
 62
     7
370
    35
100
AcDbLine
 10
196.981196913
 20
9.9985938959
 30
0.0
 11
12.981196913
 21
9.9985938959
 31
0.0
  0
LINE
  5
9E
330
1F
100
AcDbEntity
  8
LAYOUT_
 62
     7
370
    35
100
AcDbLine
 10
199.981196913
 20
12.9985938959
 30
0.0
 11
199.981196913
 21
283.9985938959
 31
0.0
  0
LINE
  5
9F
330
1F
100
AcDbEntity
  8
LAYOUT_
 62
     7
370
    35
100
AcDbLine
 10
196.981196913
 20
286.9985938959
 30
0.0
 11
12.981196913
 21
286.9985938959
 31
0.0
  0
LINE
  5
A0
330
1F
100
AcDbEntity
  8
LAYOUT_
 62
     7
370
    35
100
AcDbLine
 10
9.981196913
 20
12.9985938959
 30
0.0
 11
9.981196913
 21
283.9985938959
 31
0.0
  0
LINE
  5
A1
330
1F
100
AcDbEntity
  8
LAYOUT_
 62
     7
370
    35
100
AcDbLine
 10
74.981196913
 20
264.9985938959
 30
0.0
 11
74.981196913
 21
223.9985938959
 31
0.0
  0
LINE
  5
A2
330
1F
100
AcDbEntity
  8
LAYOUT_
 62
     7
370
    35
100
AcDbLine
 10
71.981196913
 20
220.9985938959
 30
0.0
 11
9.981196913
 21
220.9985938959
 31
0.0
  0
LINE
  5
A3
330
1F
100
AcDbEntity
  8
LAYOUT_
 62
     7
370
    35
100
AcDbLine
 10
46.981196913
 20
11.4985938959
 30
0.0
 11
12.981196913
 21
11.4985938959
 31
0.0
  0
LINE
  5
A4
330
1F
100
AcDbEntity
  8
LAYOUT_
 62
     7
370
    35
100
AcDbLine
 10
48.481196913
 20
12.9985938959
 30
0.0
 11
48.481196913
 21
26.9985938959
 31
0.0
  0
LINE
  5
A5
330
1F
100
AcDbEntity
  8
LAYOUT_
 62
     7
370
    35
100
AcDbLine
 10
46.981196913
 20
28.4985938959
 30
0.0
 11
12.981196913
 21
28.4985938959
 31
0.0
  0
LINE
  5
A6
330
1F
100
AcDbEntity
  8
LAYOUT_
 62
     7
370
    35
100
AcDbLine
 10
11.481196913
 20
12.9985938959
 30
0.0
 11
11.481196913
 21
26.9985938959
 31
0.0
  0
LINE
  5
A7
330
1F
100
AcDbEntity
  8
LAYOUT_
 62
     7
370
    35
100
AcDbLine
 10
73.481196913
 20
11.4985938959
 30
0.0
 11
51.481196913
 21
11.4985938959
 31
0.0
  0
LINE
  5
A8
330
1F
100
AcDbEntity
  8
LAYOUT_
 62
     7
370
    35
100
AcDbLine
 10
74.981196913
 20
12.9985938959
 30
0.0
 11
74.981196913
 21
26.9985938959
 31
0.0
  0
LINE
  5
A9
330
1F
100
AcDbEntity
  8
LAYOUT_
 62
     7
370
    35
100
AcDbLine
 10
73.481196913
 20
28.4985938959
 30
0.0
 11
51.481196913
 21
28.4985938959
 31
0.0
  0
LINE
  5
AA
330
1F
100
AcDbEntity
  8
LAYOUT_
 62
     7
370
    35
100
AcDbLine
 10
49.981196913
 20
12.9985938959
 30
0.0
 11
49.981196913
 21
26.9985938959
 31
0.0
  0
LINE
  5
AB
330
1F
100
AcDbEntity
  8
LOGOTIPO
 62
     7
100
AcDbLine
 10
180.218144208
 20
13.9272656635
 30
0.0
 11
180.2245901452
 21
13.9532072275
 31
0.0
  0
LINE
  5
AC
330
1F
100
AcDbEntity
  8
LOGOTIPO
 62
     7
100
AcDbLine
 10
174.2715672652
 20
15.7599918464
 30
0.0
 11
174.990163728
 21
15.7599918464
 31
0.0
  0
LINE
  5
AD
330
1F
100
AcDbEntity
  8
LOGOTIPO
 62
     7
100
AcDbLine
 10
189.3256612421
 20
15.7599918464
 30
0.0
 11
189.1897270609
 21
15.2162421038
 31
0.0
  0
LINE
  5
AE
330
1F
100
AcDbEntity
  8
LOGOTIPO
 62
     7
100
AcDbLine
 10
188.9958707484
 20
14.4393083435
 30
0.0
 11
188.879031202
 21
13.973112842
 31
0.0
  0
LINE
  5
AF
330
1F
100
AcDbEntity
  8
LOGOTIPO
 62
     7
100
AcDbLine
 10
186.957143044
 20
13.9731626584
 30
0.0
 11
186.8367460158
 21
13.4912153596
 31
0.0
  0
LINE
  5
B0
330
1F
100
AcDbEntity
  8
LOGOTIPO
 62
     7
100
AcDbLine
 10
187.0627153831
 20
13.2018514358
 30
0.0
 11
188.6909719358
 21
13.2018514358
 31
0.0
  0
LINE
  5
B1
330
1F
100
AcDbEntity
  8
LOGOTIPO
 62
     7
100
AcDbLine
 10
188.6909719358
 20
13.2018514358
 30
0.0
 11
188.5487535148
 21
12.6522868628
 31
0.0
  0
LINE
  5
B2
330
1F
100
AcDbEntity
  8
LOGOTIPO
 62
     7
100
AcDbLine
 10
191.4056891951
 20
13.2018514358
 30
0.0
 11
189.1716208612
 21
13.2018514358
 31
0.0
  0
LINE
  5
B3
330
1F
100
AcDbEntity
  8
DESENHO
 62
     7
100
AcDbLine
 10
173.2795248901
 20
12.5683946133
 30
0.0
 11
173.785092212
 21
12.5683946133
 31
0.0
  0
LINE
  5
B4
330
1F
100
AcDbEntity
  8
DESENHO
 62
     7
100
AcDbLine
 10
164.7191020131
 20
18.7945398153
 30
0.0
 11
164.8039086893
 21
19.0484728161
 31
0.0
  0
LINE
  5
B5
330
1F
100
AcDbEntity
  8
DESENHO
 62
     7
100
AcDbLine
 10
196.0139073297
 20
18.7945398153
 30
0.0
 11
196.0989951984
 21
19.0498644098
 31
0.0
  0
LINE
  5
B6
330
1F
100
AcDbEntity
  8
DESENHO
 62
     7
100
AcDbLine
 10
173.067921947
 20
15.1958682266
 30
0.0
 11
174.3624579577
 21
14.8440319783
 31
0.0
  0
LINE
  5
B7
330
1F
100
AcDbEntity
  8
DESENHO
 62
     7
100
AcDbLine
 10
173.7557396741
 20
15.981227575
 30
0.0
 11
173.2795248901
 21
15.981227575
 31
0.0
  0
LINE
  5
B8
330
1F
100
AcDbEntity
  8
DESENHO
 62
     7
100
AcDbLine
 10
173.9433360157
 20
14.1554577829
 30
0.0
 11
172.5946955319
 21
14.5985165962
 31
0.0
  0
LINE
  5
B9
330
1F
100
AcDbEntity
  8
DESENHO
 62
     7
100
AcDbLine
 10
173.854263765
 20
16.6248586969
 30
0.0
 11
173.122108771
 21
16.6248586969
 31
0.0
  0
LINE
  5
BA
330
1F
100
AcDbEntity
  8
DESENHO
 62
     7
100
AcDbLine
 10
174.1718641786
 20
15.3738825194
 30
0.0
 11
175.0161476404
 21
15.3738825194
 31
0.0
  0
LINE
  5
BB
330
1F
100
AcDbEntity
  8
DESENHO
 62
     7
100
AcDbLine
 10
174.326628255
 20
13.5780623525
 30
0.0
 11
174.326628255
 21
13.8583339584
 31
0.0
  0
LINE
  5
BC
330
1F
100
AcDbEntity
  8
DESENHO
 62
     7
100
AcDbLine
 10
173.2973016776
 20
13.2159308881
 30
0.0
 11
173.785092212
 21
13.2159308881
 31
0.0
  0
LINE
  5
BD
330
1F
100
AcDbEntity
  8
DESENHO
 62
     7
100
AcDbLine
 10
172.0869802883
 20
13.952421981
 30
0.0
 11
172.6993864888
 21
13.952421981
 31
0.0
  0
LINE
  5
BE
330
1F
100
AcDbEntity
  8
DESENHO
 62
     7
100
AcDbLine
 10
170.2239694276
 20
12.5683946133
 30
0.0
 11
170.7295367494
 21
12.5683946133
 31
0.0
  0
LINE
  5
BF
330
1F
100
AcDbEntity
  8
DESENHO
 62
     7
100
AcDbLine
 10
168.7912815855
 20
13.952421981
 30
0.0
 11
169.1131389288
 21
13.0692103048
 31
0.0
  0
LINE
  5
C0
330
1F
100
AcDbEntity
  8
DESENHO
 62
     7
100
AcDbLine
 10
170.0123664845
 20
15.1958682266
 30
0.0
 11
171.3069024952
 21
14.8440319783
 31
0.0
  0
LINE
  5
C1
330
1F
100
AcDbEntity
  8
DESENHO
 62
     7
100
AcDbLine
 10
170.7001842115
 20
15.981227575
 30
0.0
 11
170.2239694276
 21
15.981227575
 31
0.0
  0
LINE
  5
C2
330
1F
100
AcDbEntity
  8
DESENHO
 62
     7
100
AcDbLine
 10
170.8877805531
 20
14.1554577829
 30
0.0
 11
169.5391400693
 21
14.5985165962
 31
0.0
  0
LINE
  5
C3
330
1F
100
AcDbEntity
  8
DESENHO
 62
     7
100
AcDbLine
 10
170.7987083025
 20
16.6248586969
 30
0.0
 11
170.0665533085
 21
16.6248586969
 31
0.0
  0
LINE
  5
C4
330
1F
100
AcDbEntity
  8
DESENHO
 62
     7
100
AcDbLine
 10
171.9605921779
 20
15.3738825194
 30
0.0
 11
171.9605921779
 21
15.4629748215
 31
0.0
  0
LINE
  5
C5
330
1F
100
AcDbEntity
  8
DESENHO
 62
     7
100
AcDbLine
 10
171.1163087161
 20
15.3738825194
 30
0.0
 11
171.9605921779
 21
15.3738825194
 31
0.0
  0
LINE
  5
C6
330
1F
100
AcDbEntity
  8
DESENHO
 62
     7
100
AcDbLine
 10
171.2710727925
 20
13.5780623525
 30
0.0
 11
171.2710727925
 21
13.8583339584
 31
0.0
  0
LINE
  5
C7
330
1F
100
AcDbEntity
  8
DESENHO
 62
     7
100
AcDbLine
 10
170.241746215
 20
13.2159308881
 30
0.0
 11
170.7295367494
 21
13.2159308881
 31
0.0
  0
LINE
  5
C8
330
1F
100
AcDbEntity
  8
DESENHO
 62
     7
100
AcDbLine
 10
192.5091895127
 20
16.5419776301
 30
0.0
 11
193.4559785568
 21
14.9866112241
 31
0.0
  0
LINE
  5
C9
330
1F
100
AcDbEntity
  8
DESENHO
 62
     7
100
AcDbLine
 10
191.5679875585
 20
16.5419776301
 30
0.0
 11
192.5091895127
 21
16.5419776301
 31
0.0
  0
LINE
  5
CA
330
1F
100
AcDbEntity
  8
DESENHO
 62
     7
100
AcDbLine
 10
192.9887530627
 20
14.1987698635
 30
0.0
 11
191.5679875585
 21
16.5419776301
 31
0.0
  0
LINE
  5
CB
330
1F
100
AcDbEntity
  8
DESENHO
 62
     7
100
AcDbLine
 10
192.9887530627
 20
12.6715707266
 30
0.0
 11
192.9887530627
 21
14.1987698635
 31
0.0
  0
LINE
  5
CC
330
1F
100
AcDbEntity
  8
DESENHO
 62
     7
100
AcDbLine
 10
193.9162375413
 20
12.6715707266
 30
0.0
 11
192.9887530627
 21
12.6715707266
 31
0.0
  0
LINE
  5
CD
330
1F
100
AcDbEntity
  8
DESENHO
 62
     7
100
AcDbLine
 10
193.9162375413
 20
14.1987698635
 30
0.0
 11
193.9162375413
 21
12.6715707266
 31
0.0
  0
LINE
  5
CE
330
1F
100
AcDbEntity
  8
DESENHO
 62
     7
100
AcDbLine
 10
195.3030264332
 20
16.5419776301
 30
0.0
 11
193.9162375413
 21
14.1987698635
 31
0.0
  0
LINE
  5
CF
330
1F
100
AcDbEntity
  8
DESENHO
 62
     7
100
AcDbLine
 10
194.3764965259
 20
16.5419776301
 30
0.0
 11
195.3030264332
 21
16.5419776301
 31
0.0
  0
LINE
  5
D0
330
1F
100
AcDbEntity
  8
DESENHO
 62
     7
100
AcDbLine
 10
193.4559785568
 20
14.9866112241
 30
0.0
 11
194.3764965259
 21
16.5419776301
 31
0.0
  0
LINE
  5
D1
330
1F
100
AcDbEntity
  8
DESENHO
 62
     7
100
AcDbLine
 10
188.8514886854
 20
13.3827267071
 30
0.0
 11
188.8514886854
 21
12.6715707266
 31
0.0
  0
LINE
  5
D2
330
1F
100
AcDbEntity
  8
DESENHO
 62
     7
100
AcDbLine
 10
187.2093446853
 20
13.3827267071
 30
0.0
 11
188.8514886854
 21
13.3827267071
 31
0.0
  0
LINE
  5
D3
330
1F
100
AcDbEntity
  8
DESENHO
 62
     7
100
AcDbLine
 10
187.2093446853
 20
16.5419776301
 30
0.0
 11
187.2093446853
 21
13.3827267071
 31
0.0
  0
LINE
  5
D4
330
1F
100
AcDbEntity
  8
DESENHO
 62
     7
100
AcDbLine
 10
186.3465279144
 20
16.5419776301
 30
0.0
 11
187.2093446853
 21
16.5419776301
 31
0.0
  0
LINE
  5
D5
330
1F
100
AcDbEntity
  8
DESENHO
 62
     7
100
AcDbLine
 10
186.3465279144
 20
12.6271984705
 30
0.0
 11
186.3465279144
 21
16.5419776301
 31
0.0
  0
LINE
  5
D6
330
1F
100
AcDbEntity
  8
DESENHO
 62
     7
100
AcDbLine
 10
188.8514886854
 20
12.6715707266
 30
0.0
 11
186.3461349456
 21
12.6715707266
 31
0.0
  0
LINE
  5
D7
330
1F
100
AcDbEntity
  8
DESENHO
 62
     7
100
AcDbLine
 10
184.8191175237
 20
14.402704444
 30
0.0
 11
183.8190205886
 21
14.402704444
 31
0.0
  0
LINE
  5
D8
330
1F
100
AcDbEntity
  8
DESENHO
 62
     7
100
AcDbLine
 10
183.8190205886
 20
13.2991508144
 30
0.0
 11
184.8191175237
 21
13.2991508144
 31
0.0
  0
LINE
  5
D9
330
1F
100
AcDbEntity
  8
DESENHO
 62
     7
100
AcDbLine
 10
183.8190205886
 20
14.402704444
 30
0.0
 11
183.8190205886
 21
13.2991508144
 31
0.0
  0
LINE
  5
DA
330
1F
100
AcDbEntity
  8
DESENHO
 62
     7
100
AcDbLine
 10
184.7142796196
 20
15.9005756209
 30
0.0
 11
183.8190205886
 21
15.9005756209
 31
0.0
  0
LINE
  5
DB
330
1F
100
AcDbEntity
  8
DESENHO
 62
     7
100
AcDbLine
 10
183.8190205886
 20
14.9866112241
 30
0.0
 11
184.7647119135
 21
14.9866112241
 31
0.0
  0
LINE
  5
DC
330
1F
100
AcDbEntity
  8
DESENHO
 62
     7
100
AcDbLine
 10
183.8190205886
 20
15.9005756209
 30
0.0
 11
183.8190205886
 21
14.9866112241
 31
0.0
  0
LINE
  5
DD
330
1F
100
AcDbEntity
  8
DESENHO
 62
     7
100
AcDbLine
 10
183.017082678
 20
16.5419776301
 30
0.0
 11
185.1495722456
 21
16.5419776301
 31
0.0
  0
LINE
  5
DE
330
1F
100
AcDbEntity
  8
DESENHO
 62
     7
100
AcDbLine
 10
186.0147712677
 20
15.3900551383
 30
0.0
 11
186.0147712677
 21
15.676778608
 31
0.0
  0
LINE
  5
DF
330
1F
100
AcDbEntity
  8
DESENHO
 62
     7
100
AcDbLine
 10
185.5099382929
 20
14.7662938061
 30
0.0
 11
185.5099382929
 21
14.809973447
 31
0.0
  0
LINE
  5
E0
330
1F
100
AcDbEntity
  8
DESENHO
 62
     7
100
AcDbLine
 10
186.1920722353
 20
13.5271387225
 30
0.0
 11
186.1920722353
 21
13.952421981
 31
0.0
  0
LINE
  5
E1
330
1F
100
AcDbEntity
  8
DESENHO
 62
     7
100
AcDbLine
 10
183.017082678
 20
12.6715707266
 30
0.0
 11
185.1904232791
 21
12.6715707266
 31
0.0
  0
LINE
  5
E2
330
1F
100
AcDbEntity
  8
DESENHO
 62
     7
100
AcDbLine
 10
183.017082678
 20
16.5419776301
 30
0.0
 11
183.017082678
 21
12.6715707266
 31
0.0
  0
LINE
  5
E3
330
1F
100
AcDbEntity
  8
DESENHO
 62
     7
100
AcDbLine
 10
181.1409884526
 20
15.6023444656
 30
0.0
 11
181.6248616979
 21
14.1745600544
 31
0.0
  0
LINE
  5
E4
330
1F
100
AcDbEntity
  8
DESENHO
 62
     7
100
AcDbLine
 10
180.6571152072
 20
14.1745600544
 30
0.0
 11
181.1409884526
 21
15.6023444656
 31
0.0
  0
LINE
  5
E5
330
1F
100
AcDbEntity
  8
DESENHO
 62
     7
100
AcDbLine
 10
181.6248616979
 20
14.1745600544
 30
0.0
 11
180.6571152072
 21
14.1745600544
 31
0.0
  0
LINE
  5
E6
330
1F
100
AcDbEntity
  8
DESENHO
 62
     7
100
AcDbLine
 10
180.3471078647
 20
13.5271387225
 30
0.0
 11
180.0740441388
 21
12.6715707266
 31
0.0
  0
LINE
  5
E7
330
1F
100
AcDbEntity
  8
DESENHO
 62
     7
100
AcDbLine
 10
181.8563708856
 20
13.5271387225
 30
0.0
 11
180.3471078647
 21
13.5271387225
 31
0.0
  0
LINE
  5
E8
330
1F
100
AcDbEntity
  8
DESENHO
 62
     7
100
AcDbLine
 10
182.1781729678
 20
12.6715707266
 30
0.0
 11
181.8563708856
 21
13.5271387225
 31
0.0
  0
LINE
  5
E9
330
1F
100
AcDbEntity
  8
DESENHO
 62
     7
100
AcDbLine
 10
183.017082678
 20
12.6715707266
 30
0.0
 11
182.1781729678
 21
12.6715707266
 31
0.0
  0
LINE
  5
EA
330
1F
100
AcDbEntity
  8
DESENHO
 62
     7
100
AcDbLine
 10
181.5608386949
 20
16.5432540211
 30
0.0
 11
183.017082678
 21
12.6715707266
 31
0.0
  0
LINE
  5
EB
330
1F
100
AcDbEntity
  8
DESENHO
 62
     7
100
AcDbLine
 10
180.6571152072
 20
16.5432540211
 30
0.0
 11
181.5608386949
 21
16.5432540211
 31
0.0
  0
LINE
  5
EC
330
1F
100
AcDbEntity
  8
DESENHO
 62
     7
100
AcDbLine
 10
179.2288116172
 20
12.6715707266
 30
0.0
 11
180.6571152072
 21
16.5432540211
 31
0.0
  0
LINE
  5
ED
330
1F
100
AcDbEntity
  8
DESENHO
 62
     7
100
AcDbLine
 10
180.0740441388
 20
12.6715707266
 30
0.0
 11
179.2288116172
 21
12.6715707266
 31
0.0
  0
LINE
  5
EE
330
1F
100
AcDbEntity
  8
DESENHO
 62
     7
100
AcDbLine
 10
176.6262406581
 20
15.6023444656
 30
0.0
 11
177.1203098168
 21
14.1745600544
 31
0.0
  0
LINE
  5
EF
330
1F
100
AcDbEntity
  8
DESENHO
 62
     7
100
AcDbLine
 10
176.0724954776
 20
14.1745600544
 30
0.0
 11
176.6262406581
 21
15.6023444656
 31
0.0
  0
LINE
  5
F0
330
1F
100
AcDbEntity
  8
DESENHO
 62
     7
100
AcDbLine
 10
177.1203098168
 20
14.1745600544
 30
0.0
 11
176.0724954776
 21
14.1745600544
 31
0.0
  0
LINE
  5
F1
330
1F
100
AcDbEntity
  8
DESENHO
 62
     7
100
AcDbLine
 10
175.5747747301
 20
12.6715707266
 30
0.0
 11
174.7339647795
 21
12.6715707266
 31
0.0
  0
LINE
  5
F2
330
1F
100
AcDbEntity
  8
DESENHO
 62
     7
100
AcDbLine
 10
175.88924164
 20
13.5011577944
 30
0.0
 11
175.5747747301
 21
12.6715707266
 31
0.0
  0
LINE
  5
F3
330
1F
100
AcDbEntity
  8
DESENHO
 62
     7
100
AcDbLine
 10
177.3246711396
 20
13.5011577944
 30
0.0
 11
175.88924164
 21
13.5011577944
 31
0.0
  0
LINE
  5
F4
330
1F
100
AcDbEntity
  8
DESENHO
 62
     7
100
AcDbLine
 10
177.6563254214
 20
12.6715707266
 30
0.0
 11
177.3246711396
 21
13.5011577944
 31
0.0
  0
LINE
  5
F5
330
1F
100
AcDbEntity
  8
DESENHO
 62
     7
100
AcDbLine
 10
178.5446200659
 20
12.6715707266
 30
0.0
 11
177.6563254214
 21
12.6715707266
 31
0.0
  0
LINE
  5
F6
330
1F
100
AcDbEntity
  8
DESENHO
 62
     7
100
AcDbLine
 10
176.9967893531
 20
16.5432540211
 30
0.0
 11
178.5446200659
 21
12.6715707266
 31
0.0
  0
LINE
  5
F7
330
1F
100
AcDbEntity
  8
DESENHO
 62
     7
100
AcDbLine
 10
176.2015820182
 20
16.5432540211
 30
0.0
 11
176.9967893531
 21
16.5432540211
 31
0.0
  0
LINE
  5
F8
330
1F
100
AcDbEntity
  8
DESENHO
 62
     7
100
AcDbLine
 10
174.7339647795
 20
12.6715707266
 30
0.0
 11
176.2015820182
 21
16.5432540211
 31
0.0
  0
LINE
  5
F9
330
1F
100
AcDbEntity
  8
DESENHO
 62
     7
100
AcDbLine
 10
167.8782675004
 20
14.1745600544
 30
0.0
 11
167.3865801535
 21
15.6023444656
 31
0.0
  0
LINE
  5
FA
330
1F
100
AcDbEntity
  8
DESENHO
 62
     7
100
AcDbLine
 10
166.8617984659
 20
14.1745600544
 30
0.0
 11
167.8782675004
 21
14.1745600544
 31
0.0
  0
LINE
  5
FB
330
1F
100
AcDbEntity
  8
DESENHO
 62
     7
100
AcDbLine
 10
167.3865801535
 20
15.6023444656
 30
0.0
 11
166.8617984659
 21
14.1745600544
 31
0.0
  0
LINE
  5
FC
330
1F
100
AcDbEntity
  8
DESENHO
 62
     7
100
AcDbLine
 10
168.7912815855
 20
13.952421981
 30
0.0
 11
169.6438310263
 21
13.952421981
 31
0.0
  0
LINE
  5
FD
330
1F
100
AcDbEntity
  8
DESENHO
 62
     7
100
AcDbLine
 10
167.8471383641
 20
16.5432540211
 30
0.0
 11
169.2580455481
 21
12.6715707266
 31
0.0
  0
LINE
  5
FE
330
1F
100
AcDbEntity
  8
DESENHO
 62
     7
100
AcDbLine
 10
166.9284954572
 20
16.5432540211
 30
0.0
 11
167.8471383641
 21
16.5432540211
 31
0.0
  0
LINE
  5
FF
330
1F
100
AcDbEntity
  8
DESENHO
 62
     7
100
AcDbLine
 10
165.5000224178
 20
12.6715707266
 30
0.0
 11
166.9284954572
 21
16.5432540211
 31
0.0
  0
LINE
  5
100
330
1F
100
AcDbEntity
  8
DESENHO
 62
     7
100
AcDbLine
 10
166.2719923068
 20
12.6715707266
 30
0.0
 11
165.5000224178
 21
12.6715707266
 31
0.0
  0
LINE
  5
101
330
1F
100
AcDbEntity
  8
DESENHO
 62
     7
100
AcDbLine
 10
166.5692561733
 20
13.5392083761
 30
0.0
 11
166.2719923068
 21
12.6715707266
 31
0.0
  0
LINE
  5
102
330
1F
100
AcDbEntity
  8
DESENHO
 62
     7
100
AcDbLine
 10
168.1595963668
 20
13.5392083761
 30
0.0
 11
166.5692561733
 21
13.5392083761
 31
0.0
  0
LINE
  5
103
330
1F
100
AcDbEntity
  8
DESENHO
 62
     7
100
AcDbLine
 10
168.3759472712
 20
12.6715707266
 30
0.0
 11
168.1595963668
 21
13.5392083761
 31
0.0
  0
LINE
  5
104
330
1F
100
AcDbEntity
  8
DESENHO
 62
     7
100
AcDbLine
 10
169.2580455481
 20
12.6715707266
 30
0.0
 11
168.3759472712
 21
12.6715707266
 31
0.0
  0
LINE
  5
105
330
1F
100
AcDbEntity
  8
DESENHO
 62
     7
100
AcDbLine
 10
191.6340868053
 20
24.9590308228
 30
0.0
 11
190.9577523619
 21
21.952438448
 31
0.0
  0
LINE
  5
106
330
1F
100
AcDbEntity
  8
DESENHO
 62
     7
100
AcDbLine
 10
194.2887052632
 20
21.1896812924
 30
0.0
 11
191.5679875585
 21
21.1896812924
 31
0.0
  0
LINE
  5
107
330
1F
100
AcDbEntity
  8
DESENHO
 62
     7
100
AcDbLine
 10
194.4950073133
 20
21.9498164168
 30
0.0
 11
194.2887052632
 21
21.1896812924
 31
0.0
  0
LINE
  5
108
330
1F
100
AcDbEntity
  8
DESENHO
 62
     7
100
AcDbLine
 10
192.2762991588
 20
21.9498164168
 30
0.0
 11
194.4950073133
 21
21.9498164168
 31
0.0
  0
LINE
  5
109
330
1F
100
AcDbEntity
  8
DESENHO
 62
     7
100
AcDbLine
 10
192.1411313584
 20
23.0463506289
 30
0.0
 11
191.9560203039
 21
22.3694399657
 31
0.0
  0
LINE
  5
10A
330
1F
100
AcDbEntity
  8
DESENHO
 62
     7
100
AcDbLine
 10
194.7676184268
 20
23.0463506289
 30
0.0
 11
192.1411313584
 21
23.0463506289
 31
0.0
  0
LINE
  5
10B
330
1F
100
AcDbEntity
  8
DESENHO
 62
     7
100
AcDbLine
 10
194.9478615182
 20
23.7054602149
 30
0.0
 11
194.7676184268
 21
23.0463506289
 31
0.0
  0
LINE
  5
10C
330
1F
100
AcDbEntity
  8
DESENHO
 62
     7
100
AcDbLine
 10
192.2935498174
 20
23.7054602149
 30
0.0
 11
194.9478615182
 21
23.7054602149
 31
0.0
  0
LINE
  5
10D
330
1F
100
AcDbEntity
  8
DESENHO
 62
     7
100
AcDbLine
 10
192.5091661741
 20
24.4939220998
 30
0.0
 11
192.2935498174
 21
23.7054602149
 31
0.0
  0
LINE
  5
10E
330
1F
100
AcDbEntity
  8
DESENHO
 62
     7
100
AcDbLine
 10
195.152331119
 20
24.7094968491
 30
0.0
 11
192.8395187234
 21
24.7094968491
 31
0.0
  0
LINE
  5
10F
330
1F
100
AcDbEntity
  8
DESENHO
 62
     7
100
AcDbLine
 10
195.3030264332
 20
25.4354052844
 30
0.0
 11
195.152331119
 21
24.7094968491
 31
0.0
  0
LINE
  5
110
330
1F
100
AcDbEntity
  8
DESENHO
 62
     7
100
AcDbLine
 10
192.2295261232
 20
25.4354052844
 30
0.0
 11
195.3030264332
 21
25.4354052844
 31
0.0
  0
LINE
  5
111
330
1F
100
AcDbEntity
  8
DESENHO
 62
     7
100
AcDbLine
 10
190.4922523282
 20
22.2035955729
 30
0.0
 11
190.4922523282
 21
21.9498164168
 31
0.0
  0
LINE
  5
112
330
1F
100
AcDbEntity
  8
DESENHO
 62
     7
100
AcDbLine
 10
188.1441150445
 20
24.5661641853
 30
0.0
 11
190.3764034756
 21
22.4711938774
 31
0.0
  0
LINE
  5
113
330
1F
100
AcDbEntity
  8
DESENHO
 62
     7
100
AcDbLine
 10
190.8702324204
 20
24.7094968491
 30
0.0
 11
188.2008390357
 21
24.7094968491
 31
0.0
  0
LINE
  5
114
330
1F
100
AcDbEntity
  8
DESENHO
 62
     7
100
AcDbLine
 10
191.1038043416
 20
25.4354052844
 30
0.0
 11
190.8702324204
 21
24.7094968491
 31
0.0
  0
LINE
  5
115
330
1F
100
AcDbEntity
  8
DESENHO
 62
     7
100
AcDbLine
 10
187.7308324704
 20
25.4354052844
 30
0.0
 11
191.1038043416
 21
25.4354052844
 31
0.0
  0
LINE
  5
116
330
1F
100
AcDbEntity
  8
DESENHO
 62
     7
100
AcDbLine
 10
186.1265911728
 20
21.1896812924
 30
0.0
 11
189.7321172039
 21
21.1896812924
 31
0.0
  0
LINE
  5
117
330
1F
100
AcDbEntity
  8
DESENHO
 62
     7
100
AcDbLine
 10
186.3465279144
 20
21.9389543125
 30
0.0
 11
186.1265911728
 21
21.1896812924
 31
0.0
  0
LINE
  5
118
330
1F
100
AcDbEntity
  8
DESENHO
 62
     7
100
AcDbLine
 10
189.4842027716
 20
21.9389543125
 30
0.0
 11
186.3465279144
 21
21.9389543125
 31
0.0
  0
LINE
  5
119
330
1F
100
AcDbEntity
  8
DESENHO
 62
     7
100
AcDbLine
 10
187.2093446853
 20
24.061255801
 30
0.0
 11
189.4842027716
 21
22.0441418611
 31
0.0
  0
LINE
  5
11A
330
1F
100
AcDbEntity
  8
DESENHO
 62
     7
100
AcDbLine
 10
182.8151795558
 20
25.0501273775
 30
0.0
 11
182.095610911
 21
21.9816994568
 31
0.0
  0
LINE
  5
11B
330
1F
100
AcDbEntity
  8
DESENHO
 62
     7
100
AcDbLine
 10
186.4917199656
 20
25.4354052844
 30
0.0
 11
183.3012600751
 21
25.4354052844
 31
0.0
  0
LINE
  5
11C
330
1F
100
AcDbEntity
  8
DESENHO
 62
     7
100
AcDbLine
 10
185.4316939995
 20
21.2037612181
 30
0.0
 11
182.6928481004
 21
21.2037612181
 31
0.0
  0
LINE
  5
11D
330
1F
100
AcDbEntity
  8
DESENHO
 62
     7
100
AcDbLine
 10
185.6381218293
 20
21.9057197658
 30
0.0
 11
185.4316939995
 21
21.2037612181
 31
0.0
  0
LINE
  5
11E
330
1F
100
AcDbEntity
  8
DESENHO
 62
     7
100
AcDbLine
 10
185.6381218293
 20
21.9057197658
 30
0.0
 11
183.4354848477
 21
21.9057197658
 31
0.0
  0
LINE
  5
11F
330
1F
100
AcDbEntity
  8
DESENHO
 62
     7
100
AcDbLine
 10
183.2961914296
 20
23.0451926107
 30
0.0
 11
183.1309236985
 21
22.2834435188
 31
0.0
  0
LINE
  5
120
330
1F
100
AcDbEntity
  8
DESENHO
 62
     7
100
AcDbLine
 10
185.9217621188
 20
23.0451926107
 30
0.0
 11
183.2961914296
 21
23.0451926107
 31
0.0
  0
LINE
  5
121
330
1F
100
AcDbEntity
  8
DESENHO
 62
     7
100
AcDbLine
 10
186.1058772157
 20
23.7043021967
 30
0.0
 11
185.9217621188
 21
23.0451926107
 31
0.0
  0
LINE
  5
122
330
1F
100
AcDbEntity
  8
DESENHO
 62
     7
100
AcDbLine
 10
183.4266616539
 20
23.7043021967
 30
0.0
 11
183.6241906571
 21
24.4114319305
 31
0.0
  0
LINE
  5
123
330
1F
100
AcDbEntity
  8
DESENHO
 62
     7
100
AcDbLine
 10
186.1058772157
 20
23.7043021967
 30
0.0
 11
183.4266616539
 21
23.7043021967
 31
0.0
  0
LINE
  5
124
330
1F
100
AcDbEntity
  8
DESENHO
 62
     7
100
AcDbLine
 10
186.3342281597
 20
24.7094968491
 30
0.0
 11
184.0169274115
 21
24.7094968491
 31
0.0
  0
LINE
  5
125
330
1F
100
AcDbEntity
  8
DESENHO
 62
     7
100
AcDbLine
 10
186.4917199656
 20
25.4354052844
 30
0.0
 11
186.3342281597
 21
24.7094968491
 31
0.0
  0
LINE
  5
126
330
1F
100
AcDbEntity
  8
DESENHO
 62
     7
100
AcDbLine
 10
180.6571152072
 20
22.7393390102
 30
0.0
 11
179.2940685432
 21
25.2510146495
 31
0.0
  0
LINE
  5
127
330
1F
100
AcDbEntity
  8
DESENHO
 62
     7
100
AcDbLine
 10
181.3019931562
 20
21.2037612181
 30
0.0
 11
180.8032634165
 21
21.2037612181
 31
0.0
  0
LINE
  5
128
330
1F
100
AcDbEntity
  8
DESENHO
 62
     7
100
AcDbLine
 10
182.237293968
 20
25.5181849357
 30
0.0
 11
181.3019931562
 21
21.2037612181
 31
0.0
  0
LINE
  5
129
330
1F
100
AcDbEntity
  8
DESENHO
 62
     7
100
AcDbLine
 10
181.3019931562
 20
25.5181849357
 30
0.0
 11
182.237293968
 21
25.5181849357
 31
0.0
  0
LINE
  5
12A
330
1F
100
AcDbEntity
  8
DESENHO
 62
     7
100
AcDbLine
 10
180.6571152072
 20
22.7393390102
 30
0.0
 11
181.3019931562
 21
25.5181849357
 31
0.0
  0
LINE
  5
12B
330
1F
100
AcDbEntity
  8
DESENHO
 62
     7
100
AcDbLine
 10
178.7009632102
 20
24.4424567517
 30
0.0
 11
180.2548556582
 21
21.5791110491
 31
0.0
  0
LINE
  5
12C
330
1F
100
AcDbEntity
  8
DESENHO
 62
     7
100
AcDbLine
 10
177.9338807914
 20
21.2037612181
 30
0.0
 11
178.7009632102
 21
24.4424567517
 31
0.0
  0
LINE
  5
12D
330
1F
100
AcDbEntity
  8
DESENHO
 62
     7
100
AcDbLine
 10
176.9967893531
 20
21.2037612181
 30
0.0
 11
177.9338807914
 21
21.2037612181
 31
0.0
  0
LINE
  5
12E
330
1F
100
AcDbEntity
  8
DESENHO
 62
     7
100
AcDbLine
 10
178.017358313
 20
25.5127012373
 30
0.0
 11
178.6744231515
 21
25.5127012373
 31
0.0
  0
LINE
  5
12F
330
1F
100
AcDbEntity
  8
DESENHO
 62
     7
100
AcDbLine
 10
176.9967893531
 20
21.2037612181
 30
0.0
 11
178.017358313
 21
25.5127012373
 31
0.0
  0
LINE
  5
130
330
1F
100
AcDbEntity
  8
DESENHO
 62
     7
100
AcDbLine
 10
177.3246711396
 20
25.5181849357
 30
0.0
 11
177.1203098168
 21
24.6635830405
 31
0.0
  0
LINE
  5
131
330
1F
100
AcDbEntity
  8
DESENHO
 62
     7
100
AcDbLine
 10
176.377177734
 20
25.5181849357
 30
0.0
 11
177.3246711396
 21
25.5181849357
 31
0.0
  0
LINE
  5
132
330
1F
100
AcDbEntity
  8
DESENHO
 62
     7
100
AcDbLine
 10
176.9967893531
 20
24.2951784178
 30
0.0
 11
176.3171615035
 21
21.2037612181
 31
0.0
  0
LINE
  5
133
330
1F
100
AcDbEntity
  8
DESENHO
 62
     7
100
AcDbLine
 10
176.0724954776
 20
24.2951784178
 30
0.0
 11
176.9967893531
 21
24.2951784178
 31
0.0
  0
LINE
  5
134
330
1F
100
AcDbEntity
  8
DESENHO
 62
     7
100
AcDbLine
 10
175.3384974
 20
21.2037612181
 30
0.0
 11
176.0724954776
 21
24.2951784178
 31
0.0
  0
LINE
  5
135
330
1F
100
AcDbEntity
  8
DESENHO
 62
     7
100
AcDbLine
 10
176.3171615035
 20
21.2037612181
 30
0.0
 11
175.3384974
 21
21.2037612181
 31
0.0
  0
LINE
  5
136
330
1F
100
AcDbEntity
  8
DESENHO
 62
     7
100
AcDbLine
 10
172.1642530948
 20
21.9849753774
 30
0.0
 11
173.0684250132
 21
21.9849753774
 31
0.0
  0
LINE
  5
137
330
1F
100
AcDbEntity
  8
DESENHO
 62
     7
100
AcDbLine
 10
171.9777407844
 20
21.2037612181
 30
0.0
 11
173.6389758048
 21
21.2037612181
 31
0.0
  0
LINE
  5
138
330
1F
100
AcDbEntity
  8
DESENHO
 62
     7
100
AcDbLine
 10
172.1642530948
 20
21.9849753774
 30
0.0
 11
171.9777407844
 21
21.2037612181
 31
0.0
  0
LINE
  5
139
330
1F
100
AcDbEntity
  8
DESENHO
 62
     7
100
AcDbLine
 10
171.8787817751
 20
24.595026991
 30
0.0
 11
173.0684250132
 21
24.595026991
 31
0.0
  0
LINE
  5
13A
330
1F
100
AcDbEntity
  8
DESENHO
 62
     7
100
AcDbLine
 10
171.1202979706
 20
21.2037612181
 30
0.0
 11
171.8787817751
 21
24.595026991
 31
0.0
  0
LINE
  5
13B
330
1F
100
AcDbEntity
  8
DESENHO
 62
     7
100
AcDbLine
 10
171.1202979707
 20
25.4337660246
 30
0.0
 11
173.1875522838
 21
25.4337660246
 31
0.0
  0
LINE
  5
13C
330
1F
100
AcDbEntity
  8
DESENHO
 62
     7
100
AcDbLine
 10
170.1742234505
 20
21.2037612181
 30
0.0
 11
171.1202979707
 21
25.4337660246
 31
0.0
  0
LINE
  5
13D
330
1F
100
AcDbEntity
  8
DESENHO
 62
     7
100
AcDbLine
 10
171.1202979706
 20
21.2037612181
 30
0.0
 11
170.1742234505
 21
21.2037612181
 31
0.0
  0
LINE
  5
13E
330
1F
100
AcDbEntity
  8
DESENHO
 62
     7
100
AcDbLine
 10
167.27288727
 20
25.4485101495
 30
0.0
 11
166.5692561733
 21
22.4826501861
 31
0.0
  0
LINE
  5
13F
330
1F
100
AcDbEntity
  8
DESENHO
 62
     7
100
AcDbLine
 10
166.2719923068
 20
25.4485101495
 30
0.0
 11
167.27288727
 21
25.4485101495
 31
0.0
  0
LINE
  5
140
330
1F
100
AcDbEntity
  8
DESENHO
 62
     7
100
AcDbLine
 10
168.5218770231
 20
21.9768888097
 30
0.0
 11
166.7649822455
 21
21.9768888097
 31
0.0
  0
LINE
  5
141
330
1F
100
AcDbEntity
  8
DESENHO
 62
     7
100
AcDbLine
 10
169.5598886116
 20
25.4337660245
 30
0.0
 11
168.8891472226
 21
22.4663472961
 31
0.0
  0
LINE
  5
142
330
1F
100
AcDbEntity
  8
DESENHO
 62
     7
100
AcDbLine
 10
170.5097132036
 20
25.4337660245
 30
0.0
 11
169.5598886116
 21
25.4337660245
 31
0.0
  0
LINE
  5
143
330
1F
100
AcDbEntity
  8
DESENHO
 62
     7
100
AcDbLine
 10
169.7343097471
 20
21.875218019
 30
0.0
 11
170.5097132036
 21
25.4337660245
 31
0.0
  0
LINE
  5
144
330
1F
100
AcDbEntity
  8
DESENHO
 62
     7
100
AcDbLine
 10
166.2719923068
 20
25.4485101495
 30
0.0
 11
165.5000224178
 21
21.9057197658
 31
0.0
  0
LINE
  5
145
330
1F
100
AcDbEntity
  8
DESENHO
 62
     7
100
AcDbLine
 10
164.8039086893
 20
20.034355313
 30
0.0
 11
164.5509597062
 21
20.034355313
 31
0.0
  0
LINE
  5
146
330
1F
100
AcDbEntity
  8
DESENHO
 62
     7
100
AcDbLine
 10
164.8039086893
 20
19.0484728161
 30
0.0
 11
164.8039086893
 21
20.034355313
 31
0.0
  0
LINE
  5
147
330
1F
100
AcDbEntity
  8
DESENHO
 62
     7
100
AcDbLine
 10
196.0989951984
 20
19.0498644098
 30
0.0
 11
164.8039086893
 21
19.0498644098
 31
0.0
  0
LINE
  5
148
330
1F
100
AcDbEntity
  8
DESENHO
 62
     7
100
AcDbLine
 10
196.257613295
 20
17.8257411625
 30
0.0
 11
196.257613295
 21
18.8930052175
 31
0.0
  0
LINE
  5
149
330
1F
100
AcDbEntity
  8
DESENHO
 62
     7
100
AcDbLine
 10
196.0139073297
 20
17.8257411625
 30
0.0
 11
196.257613295
 21
17.8257411625
 31
0.0
  0
LINE
  5
14A
330
1F
100
AcDbEntity
  8
DESENHO
 62
     7
100
AcDbLine
 10
196.0139073297
 20
18.7945398153
 30
0.0
 11
196.0139073297
 21
17.8257411625
 31
0.0
  0
LINE
  5
14B
330
1F
100
AcDbEntity
  8
DESENHO
 62
     7
100
AcDbLine
 10
164.7191020131
 20
18.7945398153
 30
0.0
 11
196.0139073297
 21
18.7945398153
 31
0.0
  0
LINE
  5
14C
330
1F
100
AcDbEntity
  8
DESENHO
 62
     7
100
AcDbLine
 10
164.5509597062
 20
20.034355313
 30
0.0
 11
164.5509597062
 21
18.9642237332
 31
0.0
  0
LINE
  5
14D
330
1F
100
AcDbEntity
  8
3_1_-_PORTA_E_JANELA_DE_CORRER_2F
  6
Continuous
 62
   179
100
AcDbLine
 10
57.8205894113
 20
20.4453690582
 30
0.0
 11
57.8205894113
 21
19.3567290582
 31
0.0
  0
LINE
  5
14E
330
1F
100
AcDbEntity
  8
3_1_-_PORTA_E_JANELA_DE_CORRER_2F
  6
Continuous
 62
   179
100
AcDbLine
 10
57.8969769113
 20
19.2803415582
 30
0.0
 11
58.1547519113
 21
19.2803415582
 31
0.0
  0
LINE
  5
14F
330
1F
100
AcDbEntity
  8
3_1_-_PORTA_E_JANELA_DE_CORRER_2F
  6
Continuous
 62
   179
100
AcDbLine
 10
58.1547519113
 20
19.2803415582
 30
0.0
 11
58.1547326785
 21
18.7775069989
 31
0.0
  0
LINE
  5
150
330
1F
100
AcDbEntity
  8
3_1_-_PORTA_E_JANELA_DE_CORRER_2F
  6
Continuous
 62
   179
100
AcDbLine
 10
58.2901494113
 20
18.7290915582
 30
0.0
 11
59.2130994113
 21
19.8525390582
 31
0.0
  0
LINE
  5
151
330
1F
100
AcDbEntity
  8
3_1_-_PORTA_E_JANELA_DE_CORRER_2F
  6
Continuous
 62
   179
100
AcDbLine
 10
59.2130994113
 20
19.9495065582
 30
0.0
 11
58.2901554413
 21
21.0730253229
 31
0.0
  0
LINE
  5
152
330
1F
100
AcDbEntity
  8
3_1_-_PORTA_E_JANELA_DE_CORRER_2F
  6
Continuous
 62
   179
100
AcDbLine
 10
58.1547519113
 20
21.0244965582
 30
0.0
 11
58.1547519113
 21
20.5217565582
 31
0.0
  0
LINE
  5
153
330
1F
100
AcDbEntity
  8
3_1_-_PORTA_E_JANELA_DE_CORRER_2F
  6
Continuous
 62
   179
100
AcDbLine
 10
58.1547519113
 20
20.5217565582
 30
0.0
 11
57.8969769113
 21
20.5217565582
 31
0.0
  0
LINE
  5
154
330
1F
100
AcDbEntity
  8
3_1_-_PORTA_E_JANELA_DE_CORRER_2F
  6
Continuous
 62
   179
100
AcDbLine
 10
67.1053989749
 20
20.4453690582
 30
0.0
 11
67.1053989749
 21
19.3567290582
 31
0.0
  0
LINE
  5
155
330
1F
100
AcDbEntity
  8
3_1_-_PORTA_E_JANELA_DE_CORRER_2F
  6
Continuous
 62
   179
100
AcDbLine
 10
67.0290114749
 20
19.2803415582
 30
0.0
 11
66.7712364749
 21
19.2803415582
 31
0.0
  0
LINE
  5
156
330
1F
100
AcDbEntity
  8
3_1_-_PORTA_E_JANELA_DE_CORRER_2F
  6
Continuous
 62
   179
100
AcDbLine
 10
66.7712364749
 20
19.2803415582
 30
0.0
 11
66.7712364749
 21
18.7774965582
 31
0.0
  0
LINE
  5
157
330
1F
100
AcDbEntity
  8
3_1_-_PORTA_E_JANELA_DE_CORRER_2F
  6
Continuous
 62
   179
100
AcDbLine
 10
66.6358389749
 20
18.7290915582
 30
0.0
 11
65.7128889749
 21
19.8525390582
 31
0.0
  0
LINE
  5
158
330
1F
100
AcDbEntity
  8
3_1_-_PORTA_E_JANELA_DE_CORRER_2F
  6
Continuous
 62
   179
100
AcDbLine
 10
65.7128889749
 20
19.9495065582
 30
0.0
 11
66.6358437688
 21
21.0730253229
 31
0.0
  0
LINE
  5
159
330
1F
100
AcDbEntity
  8
3_1_-_PORTA_E_JANELA_DE_CORRER_2F
  6
Continuous
 62
   179
100
AcDbLine
 10
66.7712364749
 20
21.0244965582
 30
0.0
 11
66.7712364749
 21
20.5217565582
 31
0.0
  0
LINE
  5
15A
330
1F
100
AcDbEntity
  8
3_1_-_PORTA_E_JANELA_DE_CORRER_2F
  6
Continuous
 62
   179
100
AcDbLine
 10
66.7712364749
 20
20.5217565582
 30
0.0
 11
67.0290114749
 21
20.5217565582
 31
0.0
  0
LINE
  5
15B
330
1F
100
AcDbEntity
  8
3_1_-_PORTA_E_JANELA_DE_CORRER_2F
 62
     7
100
AcDbLine
 10
54.5879968991
 20
26.4635352341
 30
0.0
 11
62.4629968991
 21
26.4635352341
 31
0.0
  0
LINE
  5
15C
330
1F
100
AcDbEntity
  8
3_1_-_PORTA_E_JANELA_DE_CORRER_2F
 62
     7
100
AcDbLine
 10
55.1129968991
 20
25.9385352341
 30
0.0
 11
61.9379968991
 21
25.9385352341
 31
0.0
  0
LINE
  5
15D
330
1F
100
AcDbEntity
  8
3_1_-_PORTA_E_JANELA_DE_CORRER_2F
 62
     7
100
AcDbLine
 10
55.1129968991
 20
25.9385352341
 30
0.0
 11
55.1129968991
 21
13.8635352341
 31
0.0
  0
LINE
  5
15E
330
1F
100
AcDbEntity
  8
3_1_-_PORTA_E_JANELA_DE_CORRER_2F
 62
     7
100
AcDbLine
 10
55.1129968991
 20
13.8635352341
 30
0.0
 11
61.9379968991
 21
13.8635352341
 31
0.0
  0
LINE
  5
15F
330
1F
100
AcDbEntity
  8
3_1_-_PORTA_E_JANELA_DE_CORRER_2F
 62
     7
100
AcDbLine
 10
61.9379968991
 20
25.9385352341
 30
0.0
 11
61.9379968991
 21
13.8635352341
 31
0.0
  0
LINE
  5
160
330
1F
100
AcDbEntity
  8
3_1_-_PORTA_E_JANELA_DE_CORRER_2F
 62
     7
100
AcDbLine
 10
62.4629968991
 20
26.4635352341
 30
0.0
 11
62.4629968991
 21
13.3385352341
 31
0.0
  0
LINE
  5
161
330
1F
100
AcDbEntity
  8
3_1_-_PORTA_E_JANELA_DE_CORRER_2F
 62
     7
100
AcDbLine
 10
54.5879968991
 20
13.3385352341
 30
0.0
 11
62.4629968991
 21
13.3385352341
 31
0.0
  0
LINE
  5
162
330
1F
100
AcDbEntity
  8
3_1_-_PORTA_E_JANELA_DE_CORRER_2F
 62
     7
100
AcDbLine
 10
54.5879968991
 20
26.4635352341
 30
0.0
 11
54.5879968991
 21
13.3385352341
 31
0.0
  0
LINE
  5
163
330
1F
100
AcDbEntity
  8
3_1_-_PORTA_E_JANELA_DE_CORRER_2F
 62
     7
100
AcDbLine
 10
62.4629968991
 20
26.4635352341
 30
0.0
 11
70.3379968991
 21
26.4635352341
 31
0.0
  0
LINE
  5
164
330
1F
100
AcDbEntity
  8
3_1_-_PORTA_E_JANELA_DE_CORRER_2F
 62
     7
100
AcDbLine
 10
62.4629968991
 20
25.9385352341
 30
0.0
 11
69.8129968991
 21
25.9385352341
 31
0.0
  0
LINE
  5
165
330
1F
100
AcDbEntity
  8
3_1_-_PORTA_E_JANELA_DE_CORRER_2F
 62
     7
100
AcDbLine
 10
62.4629968991
 20
13.8635352341
 30
0.0
 11
69.8129968991
 21
13.8635352341
 31
0.0
  0
LINE
  5
166
330
1F
100
AcDbEntity
  8
3_1_-_PORTA_E_JANELA_DE_CORRER_2F
 62
     7
100
AcDbLine
 10
69.8129968991
 20
25.9385352341
 30
0.0
 11
69.8129968991
 21
13.8635352341
 31
0.0
  0
LINE
  5
167
330
1F
100
AcDbEntity
  8
3_1_-_PORTA_E_JANELA_DE_CORRER_2F
 62
     7
100
AcDbLine
 10
70.3379968991
 20
26.4635352341
 30
0.0
 11
70.3379968991
 21
13.3385352341
 31
0.0
  0
LINE
  5
168
330
1F
100
AcDbEntity
  8
3_1_-_PORTA_E_JANELA_DE_CORRER_2F
 62
     7
100
AcDbLine
 10
62.4629968991
 20
13.3385352341
 30
0.0
 11
70.3379968991
 21
13.3385352341
 31
0.0
  0
LINE
  5
169
330
1F
100
AcDbEntity
  8
3_1_-_PORTA_E_JANELA_DE_CORRER_2F
 62
     7
100
AcDbLine
 10
62.4629968991
 20
26.4635352341
 30
0.0
 11
62.4629968991
 21
13.3385352341
 31
0.0
  0
CIRCLE
  5
16A
330
1F
100
AcDbEntity
  8
DESENHO
100
AcDbCircle
 10
62.1855092072
 20
26.1101549584
 30
0.0
 40
0.4999999999999763
  0
CIRCLE
  5
16B
330
1F
100
AcDbEntity
  8
DESENHO
100
AcDbCircle
 10
62.1855092072
 20
13.6965790255
 30
0.0
 40
0.4999999999999763
  0
ARC
  5
16C
330
1F
100
AcDbEntity
  8
LAYOUT_
 62
     7
370
    35
100
AcDbCircle
 10
12.981196913
 20
12.9985938959
 30
0.0
 40
3.0
100
AcDbArc
 50
180.0
 51
270.0
  0
ARC
  5
16D
330
1F
100
AcDbEntity
  8
LAYOUT_
 62
     7
370
    35
100
AcDbCircle
 10
196.981196913
 20
12.9985938959
 30
0.0
 40
3.000000000000002
100
AcDbArc
 50
270.0
 51
0.0
  0
ARC
  5
16E
330
1F
100
AcDbEntity
  8
LAYOUT_
 62
     7
370
    35
100
AcDbCircle
 10
196.981196913
 20
283.9985938959
 30
0.0
 40
3.0
100
AcDbArc
 50
0.0
 51
90.0
  0
ARC
  5
16F
330
1F
100
AcDbEntity
  8
LAYOUT_
 62
     7
370
    35
100
AcDbCircle
 10
12.981196913
 20
283.9985938959
 30
0.0
 40
3.0
100
AcDbArc
 50
90.0
 51
180.0
  0
ARC
  5
170
330
1F
100
AcDbEntity
  8
LAYOUT_
 62
     7
370
    35
100
AcDbCircle
 10
71.981196913
 20
223.9985938959
 30
0.0
 40
3.000000000000028
100
AcDbArc
 50
270.0
 51
0.0
  0
ARC
  5
171
330
1F
100
AcDbEntity
  8
LAYOUT_
 62
     7
370
    35
100
AcDbCircle
 10
79.981196913
 20
264.9985938959
 30
0.0
 40
5.000000000000057
100
AcDbArc
 50
90.0
 51
180.0
  0
ARC
  5
172
330
1F
100
AcDbEntity
  8
LAYOUT_
 62
     7
370
    35
100
AcDbCircle
 10
73.481196913
 20
26.9985938959
 30
0.0
 40
1.5
100
AcDbArc
 50
0.0
 51
90.0
  0
ARC
  5
173
330
1F
100
AcDbEntity
  8
LAYOUT_
 62
     7
370
    35
100
AcDbCircle
 10
73.481196913
 20
12.9985938959
 30
0.0
 40
1.5
100
AcDbArc
 50
270.0
 51
0.0
  0
ARC
  5
174
330
1F
100
AcDbEntity
  8
LAYOUT_
 62
     7
370
    35
100
AcDbCircle
 10
51.481196913
 20
12.9985938959
 30
0.0
 40
1.5
100
AcDbArc
 50
180.0
 51
270.0
  0
ARC
  5
175
330
1F
100
AcDbEntity
  8
LAYOUT_
 62
     7
370
    35
100
AcDbCircle
 10
51.481196913
 20
26.9985938959
 30
0.0
 40
1.5
100
AcDbArc
 50
90.0
 51
180.0
  0
ARC
  5
176
330
1F
100
AcDbEntity
  8
LAYOUT_
 62
     7
370
    35
100
AcDbCircle
 10
46.981196913
 20
26.9985938959
 30
0.0
 40
1.5
100
AcDbArc
 50
0.0
 51
90.0
  0
ARC
  5
177
330
1F
100
AcDbEntity
  8
LAYOUT_
 62
     7
370
    35
100
AcDbCircle
 10
46.981196913
 20
12.9985938959
 30
0.0
 40
1.5
100
AcDbArc
 50
270.0
 51
0.0
  0
ARC
  5
178
330
1F
100
AcDbEntity
  8
LAYOUT_
 62
     7
370
    35
100
AcDbCircle
 10
12.981196913
 20
12.9985938959
 30
0.0
 40
1.5
100
AcDbArc
 50
180.0
 51
270.0
  0
ARC
  5
179
330
1F
100
AcDbEntity
  8
LAYOUT_
 62
     7
370
    35
100
AcDbCircle
 10
12.981196913
 20
26.9985938959
 30
0.0
 40
1.5
100
AcDbArc
 50
90.0
 51
180.0
  0
ARC
  5
17A
330
1F
100
AcDbEntity
  8
LOGOTIPO
 62
     7
100
AcDbCircle
 10
174.5447315552
 20
13.3555796378
 30
0.0
 40
0.1537282019574207
100
AcDbArc
 50
165.9002466872
 51
270.0
  0
ARC
  5
17B
330
1F
100
AcDbEntity
  8
LOGOTIPO
 62
     7
100
AcDbCircle
 10
187.0627153831
 20
13.4347651204
 30
0.0
 40
0.232913684574703
100
AcDbArc
 50
165.9738043624
 51
270.0
  0
ARC
  5
17C
330
1F
100
AcDbEntity
  8
LOGOTIPO
 62
     7
100
AcDbCircle
 10
187.0472703307
 20
15.293841676
 30
0.0
 40
0.466150170368433
100
AcDbArc
 50
90.0
 51
165.9479569388
  0
ARC
  5
17D
330
1F
100
AcDbEntity
  8
LOGOTIPO
 62
     7
100
AcDbCircle
 10
191.4056891951
 20
13.2784522499
 30
0.0
 40
0.0766008141503215
100
AcDbArc
 50
270.0
 51
48.0364727163
  0
ARC
  5
17E
330
1F
100
AcDbEntity
  8
DESENHO
 62
     7
100
AcDbCircle
 10
192.2762991588
 20
22.28185506
 30
0.0
 40
0.3320386432449354
100
AcDbArc
 50
164.7055715029
 51
270.0
  0
ARC
  5
17F
330
1F
100
AcDbEntity
  8
DESENHO
 62
     7
100
AcDbCircle
 10
173.8118403886
 20
13.8998641726
 30
0.0
 40
1.331738207040986
100
AcDbArc
 50
268.8491276387
 51
2.25934175
  0
CIRCLE
  5
180
330
1F
100
AcDbEntity
  8
DESENHO
 62
     7
100
AcDbCircle
 10
175.0510540331
 20
13.4643243516
 30
0.0
 40
0.281095695611166
  0
ARC
  5
181
330
1F
100
AcDbEntity
  8
DESENHO
 62
     7
100
AcDbCircle
 10
173.2849281136
 20
14.1051681281
 30
0.0
 40
1.536783013470477
100
AcDbArc
 50
211.6334783591
 51
269.7985515604
  0
ARC
  5
182
330
1F
100
AcDbEntity
  8
DESENHO
 62
     7
100
AcDbCircle
 10
174.0818145621
 20
13.8114408692
 30
0.0
 40
1.070049117599587
100
AcDbArc
 50
7.5677639988
 51
74.7951118207
  0
ARC
  5
183
330
1F
100
AcDbEntity
  8
DESENHO
 62
     7
100
AcDbCircle
 10
173.1607998893
 20
15.5376006135
 30
0.0
 40
0.3541289827897731
100
AcDbArc
 50
164.0198653915
 51
254.7951118207
  0
ARC
  5
184
330
1F
100
AcDbEntity
  8
DESENHO
 62
     7
100
AcDbCircle
 10
173.2795248901
 20
15.5036013115
 30
0.0
 40
0.4776262635765018
100
AcDbArc
 50
90.0
 51
164.0198653915
  0
ARC
  5
185
330
1F
100
AcDbEntity
  8
DESENHO
 62
     7
100
AcDbCircle
 10
173.6658922221
 20
15.4734412129
 30
0.0
 40
0.5156738835766017
100
AcDbArc
 50
348.8682785589
 51
79.9659684639
  0
ARC
  5
186
330
1F
100
AcDbEntity
  8
DESENHO
 62
     7
100
AcDbCircle
 10
172.8681012583
 20
15.4307447792
 30
0.0
 40
0.8759876938714456
100
AcDbArc
 50
192.7888499479
 51
251.8134818905
  0
ARC
  5
187
330
1F
100
AcDbEntity
  8
DESENHO
 62
     7
100
AcDbCircle
 10
173.122108771
 20
15.4884018898
 30
0.0
 40
1.136456807060314
100
AcDbArc
 50
90.0
 51
192.7888499479
  0
ARC
  5
188
330
1F
100
AcDbEntity
  8
DESENHO
 62
     7
100
AcDbCircle
 10
173.854263765
 20
15.4598023238
 30
0.0
 40
1.165056373149119
100
AcDbArc
 50
355.7707493616
 51
90.0
  0
ARC
  5
189
330
1F
100
AcDbEntity
  8
DESENHO
 62
     7
100
AcDbCircle
 10
173.7176778158
 20
13.468569779
 30
0.0
 40
0.7230053616563432
100
AcDbArc
 50
32.621639176
 51
71.8134818905
  0
ARC
  5
18A
330
1F
100
AcDbEntity
  8
DESENHO
 62
     7
100
AcDbCircle
 10
173.785092212
 20
13.8019065975
 30
0.0
 40
0.5859757093725099
100
AcDbArc
 50
270.0
 51
337.5422163569
  0
ARC
  5
18B
330
1F
100
AcDbEntity
  8
DESENHO
 62
     7
100
AcDbCircle
 10
173.3415681381
 20
13.8628205045
 30
0.0
 40
0.6484024177036023
100
AcDbArc
 50
172.0569889841
 51
266.0853697977
  0
ARC
  5
18C
330
1F
100
AcDbEntity
  8
DESENHO
 62
     7
100
AcDbCircle
 10
170.8281502149
 20
13.8293759437
 30
0.0
 40
1.264831423946768
100
AcDbArc
 50
265.5283564424
 51
5.5801129464
  0
ARC
  5
18D
330
1F
100
AcDbEntity
  8
DESENHO
 62
     7
100
AcDbCircle
 10
170.2484260874
 20
14.1049830105
 30
0.0
 40
1.536783013470355
100
AcDbArc
 50
222.3755813377
 51
269.0881454756
  0
ARC
  5
18E
330
1F
100
AcDbEntity
  8
DESENHO
 62
     7
100
AcDbCircle
 10
171.0262590996
 20
13.8114408692
 30
0.0
 40
1.070049117599793
100
AcDbArc
 50
7.5677639988
 51
74.7951118207
  0
ARC
  5
18F
330
1F
100
AcDbEntity
  8
DESENHO
 62
     7
100
AcDbCircle
 10
170.1052444268
 20
15.5376006135
 30
0.0
 40
0.3541289827894347
100
AcDbArc
 50
164.0198653915
 51
254.7951118207
  0
ARC
  5
190
330
1F
100
AcDbEntity
  8
DESENHO
 62
     7
100
AcDbCircle
 10
170.2239694276
 20
15.5036013115
 30
0.0
 40
0.4776262635765018
100
AcDbArc
 50
90.0
 51
164.0198653915
  0
ARC
  5
191
330
1F
100
AcDbEntity
  8
DESENHO
 62
     7
100
AcDbCircle
 10
170.6103367596
 20
15.4734412129
 30
0.0
 40
0.5156738835765663
100
AcDbArc
 50
348.8682785589
 51
79.965968464
  0
ARC
  5
192
330
1F
100
AcDbEntity
  8
DESENHO
 62
     7
100
AcDbCircle
 10
169.8125457958
 20
15.4307447792
 30
0.0
 40
0.8759876938718696
100
AcDbArc
 50
192.7888499479
 51
251.8134818905
  0
ARC
  5
193
330
1F
100
AcDbEntity
  8
DESENHO
 62
     7
100
AcDbCircle
 10
170.0665533085
 20
15.4884018898
 30
0.0
 40
1.136456807060465
100
AcDbArc
 50
90.0
 51
192.7888499479
  0
ARC
  5
194
330
1F
100
AcDbEntity
  8
DESENHO
 62
     7
100
AcDbCircle
 10
170.7987083025
 20
15.4629748215
 30
0.0
 40
1.161883875363316
100
AcDbArc
 50
0.0
 51
90.0
  0
ARC
  5
195
330
1F
100
AcDbEntity
  8
DESENHO
 62
     7
100
AcDbCircle
 10
170.6621223532
 20
13.468569779
 30
0.0
 40
0.7230053616559602
100
AcDbArc
 50
32.621639176
 51
71.8134818905
  0
ARC
  5
196
330
1F
100
AcDbEntity
  8
DESENHO
 62
     7
100
AcDbCircle
 10
170.7295367494
 20
13.8019065975
 30
0.0
 40
0.5859757093721321
100
AcDbArc
 50
270.0
 51
337.5422163569
  0
ARC
  5
197
330
1F
100
AcDbEntity
  8
DESENHO
 62
     7
100
AcDbCircle
 10
170.2860126756
 20
13.8628205045
 30
0.0
 40
0.6484024177036354
100
AcDbArc
 50
172.0569889841
 51
266.0853697977
  0
ARC
  5
198
330
1F
100
AcDbEntity
  8
DESENHO
 62
     7
100
AcDbCircle
 10
184.8191175237
 20
13.8509276292
 30
0.0
 40
0.5517768147976767
100
AcDbArc
 50
270.0
 51
90.0
  0
ARC
  5
199
330
1F
100
AcDbEntity
  8
DESENHO
 62
     7
100
AcDbCircle
 10
184.7647119135
 20
15.4449848423
 30
0.0
 40
0.4583736181702937
100
AcDbArc
 50
270.0
 51
96.3167235839
  0
ARC
  5
19A
330
1F
100
AcDbEntity
  8
DESENHO
 62
     7
100
AcDbCircle
 10
185.1495722456
 20
15.676778608
 30
0.0
 40
0.8651990220958226
100
AcDbArc
 50
0.0
 51
90.0
  0
ARC
  5
19B
330
1F
100
AcDbEntity
  8
DESENHO
 62
     7
100
AcDbCircle
 10
185.3221428331
 20
15.4831215519
 30
0.0
 40
0.6988529930269961
100
AcDbArc
 50
285.5880866538
 51
352.3471735813
  0
ARC
  5
19C
330
1F
100
AcDbEntity
  8
DESENHO
 62
     7
100
AcDbCircle
 10
185.3654793971
 20
13.952421981
 30
0.0
 40
0.8265928382176355
100
AcDbArc
 50
0.0
 51
79.9350594943
  0
ARC
  5
19D
330
1F
100
AcDbEntity
  8
DESENHO
 62
     7
100
AcDbCircle
 10
185.1904232791
 20
13.6856907238
 30
0.0
 40
1.014119997132633
100
AcDbArc
 50
270.0
 51
351.0052235616
  0
ARC
  5
19E
330
1F
100
AcDbEntity
  8
DESENHO
 62
     7
100
AcDbCircle
 10
192.2295261232
 20
24.8250864534
 30
0.0
 40
0.6103188310041503
100
AcDbArc
 50
90.0
 51
167.3223162817
  0
ARC
  5
19F
330
1F
100
AcDbEntity
  8
DESENHO
 62
     7
100
AcDbCircle
 10
191.5679875585
 20
21.8151657383
 30
0.0
 40
0.62548444590049
100
AcDbArc
 50
167.3223162818
 51
270.0
  0
ARC
  5
1A0
330
1F
100
AcDbEntity
  8
DESENHO
 62
     7
100
AcDbCircle
 10
192.8395187234
 20
24.3485889044
 30
0.0
 40
0.3609079447367556
100
AcDbArc
 50
90.0
 51
156.2536916165
  0
ARC
  5
1A1
330
1F
100
AcDbEntity
  8
DESENHO
 62
     7
100
AcDbCircle
 10
187.7308324704
 20
24.6493786043
 30
0.0
 40
0.7860266800845395
100
AcDbArc
 50
90.0
 51
228.4366341934
  0
ARC
  5
1A2
330
1F
100
AcDbEntity
  8
DESENHO
 62
     7
100
AcDbCircle
 10
189.7321172039
 20
21.9498164168
 30
0.0
 40
0.7601351243420424
100
AcDbArc
 50
270.0
 51
0.0
  0
ARC
  5
1A3
330
1F
100
AcDbEntity
  8
DESENHO
 62
     7
100
AcDbCircle
 10
190.125266349
 20
22.2035955729
 30
0.0
 40
0.3669859792037308
100
AcDbArc
 50
0.0
 51
46.8175732118
  0
ARC
  5
1A4
330
1F
100
AcDbEntity
  8
DESENHO
 62
     7
100
AcDbCircle
 10
188.2008390357
 20
24.6266062397
 30
0.0
 40
0.0828906093856006
100
AcDbArc
 50
90.0
 51
226.8175732119
  0
ARC
  5
1A5
330
1F
100
AcDbEntity
  8
DESENHO
 62
     7
100
AcDbCircle
 10
189.4375679349
 20
21.9915480868
 30
0.0
 40
0.0702916288558194
100
AcDbArc
 50
311.5633658069
 51
48.4366341931
  0
ARC
  5
1A6
330
1F
100
AcDbEntity
  8
DESENHO
 62
     7
100
AcDbCircle
 10
183.4354848477
 20
22.2173664724
 30
0.0
 40
0.3116467065611417
100
AcDbArc
 50
167.7589222497
 51
270.0
  0
ARC
  5
1A7
330
1F
100
AcDbEntity
  8
DESENHO
 62
     7
100
AcDbCircle
 10
183.3012600751
 20
24.9361379635
 30
0.0
 40
0.4992673208809002
100
AcDbArc
 50
90.0
 51
166.8022057871
  0
ARC
  5
1A8
330
1F
100
AcDbEntity
  8
DESENHO
 62
     7
100
AcDbCircle
 10
182.7124622417
 20
21.8370433373
 30
0.0
 40
0.6335857930001713
100
AcDbArc
 50
166.8022057871
 51
268.2259906924
  0
ARC
  5
1A9
330
1F
100
AcDbEntity
  8
DESENHO
 62
     7
100
AcDbCircle
 10
184.0169274115
 20
24.301725188
 30
0.0
 40
0.4077716611022879
100
AcDbArc
 50
90.0
 51
164.3928719364
  0
ARC
  5
1AA
330
1F
100
AcDbEntity
  8
DESENHO
 62
     7
100
AcDbCircle
 10
178.7284336359
 20
24.7761224362
 30
0.0
 40
0.738556336824891
100
AcDbArc
 50
40.0159369405
 51
94.1937731596
  0
ARC
  5
1AB
330
1F
100
AcDbEntity
  8
DESENHO
 62
     7
100
AcDbCircle
 10
180.8759081559
 20
21.898201976
 30
0.0
 40
0.698230065611642
100
AcDbArc
 50
207.1936721058
 51
264.0280674355
  0
ARC
  5
1AC
330
1F
100
AcDbEntity
  8
DESENHO
 62
     7
100
AcDbCircle
 10
175.88924164
 20
24.3434908268
 30
0.0
 40
1.272001525675435
100
AcDbArc
 50
14.5748477792
 51
67.4433260239
  0
ARC
  5
1AD
330
1F
100
AcDbEntity
  8
DESENHO
 62
     7
100
AcDbCircle
 10
173.1653614073
 20
23.2923076038
 30
0.0
 40
2.141573394230028
100
AcDbArc
 50
282.7767362724
 51
89.4062933728
  0
ARC
  5
1AE
330
1F
100
AcDbEntity
  8
DESENHO
 62
     7
100
AcDbCircle
 10
173.0684250132
 20
23.2900011842
 30
0.0
 40
1.305025806819351
100
AcDbArc
 50
270.0
 51
90.0
  0
ARC
  5
1AF
330
1F
100
AcDbEntity
  8
DESENHO
 62
     7
100
AcDbCircle
 10
167.0350299815
 20
22.3721483621
 30
0.0
 40
0.4787023015588013
100
AcDbArc
 50
166.6536922193
 51
235.6584771868
  0
ARC
  5
1B0
330
1F
100
AcDbEntity
  8
DESENHO
 62
     7
100
AcDbCircle
 10
168.1595963668
 20
22.6312515442
 30
0.0
 40
0.7479557890314488
100
AcDbArc
 50
298.9706190624
 51
347.2631688924
  0
ARC
  5
1B1
330
1F
100
AcDbEntity
  8
DESENHO
 62
     7
100
AcDbCircle
 10
168.9491065948
 20
21.998362178
 30
0.0
 40
0.7948009022819589
100
AcDbArc
 50
268.7148022689
 51
351.0868508345
  0
ARC
  5
1B2
330
1F
100
AcDbEntity
  8
DESENHO
 62
     7
100
AcDbCircle
 10
167.3341206368
 20
-49.9877280328
 30
0.0
 40
71.20940288803517
100
AcDbArc
 50
88.7148022689
 51
91.0168977182
  0
ARC
  5
1B3
330
1F
100
AcDbEntity
  8
DESENHO
 62
     7
100
AcDbCircle
 10
166.0601728991
 20
21.7836636298
 30
0.0
 40
0.5732942194354094
100
AcDbArc
 50
167.7074622073
 51
271.0168977182
  0
ARC
  5
1B4
330
1F
100
AcDbEntity
  8
DESENHO
 62
     7
100
AcDbCircle
 10
196.0989951984
 20
18.8912463132
 30
0.0
 40
0.1586180966530755
100
AcDbArc
 50
0.0
 51
90.0
  0
ARC
  5
1B5
330
1F
100
AcDbEntity
  8
DESENHO
 62
     7
100
AcDbCircle
 10
164.7206506912
 20
18.9642237332
 30
0.0
 40
0.1696909850310533
100
AcDbArc
 50
180.0
 51
269.4770850789
  0
ARC
  5
1B6
330
1F
100
AcDbEntity
  8
3_1_-_PORTA_E_JANELA_DE_CORRER_2F
  6
Continuous
 62
   179
100
AcDbCircle
 10
57.8969084315
 20
19.3567257464
 30
0.0
 40
0.0763923686072374
100
AcDbArc
 50
180.0
 51
270.0000000001
  0
ARC
  5
1B7
330
1F
100
AcDbEntity
  8
3_1_-_PORTA_E_JANELA_DE_CORRER_2F
  6
Continuous
 62
   179
100
AcDbCircle
 10
58.2311250475
 20
18.7775069989
 30
0.0
 40
0.0763923690232104
100
AcDbArc
 50
180.0
 51
320.5993972222
  0
ARC
  5
1B8
330
1F
100
AcDbEntity
  8
3_1_-_PORTA_E_JANELA_DE_CORRER_2F
  6
Continuous
 62
   179
100
AcDbCircle
 10
59.1540120185
 20
19.9010215138
 30
0.0
 40
0.0763923684056759
100
AcDbArc
 50
320.5991722222
 51
39.4006722222
  0
ARC
  5
1B9
330
1F
100
AcDbEntity
  8
3_1_-_PORTA_E_JANELA_DE_CORRER_2F
  6
Continuous
 62
   179
100
AcDbCircle
 10
58.2311060906
 20
21.0245366132
 30
0.0
 40
0.0764066802798354
100
AcDbArc
 50
39.3913233391
 51
179.9906677835
  0
ARC
  5
1BA
330
1F
100
AcDbEntity
  8
3_1_-_PORTA_E_JANELA_DE_CORRER_2F
  6
Continuous
 62
   179
100
AcDbCircle
 10
57.8969084315
 20
20.44531701
 30
0.0
 40
0.0763923686077348
100
AcDbArc
 50
90.0000000014
 51
180.0000000056
  0
ARC
  5
1BB
330
1F
100
AcDbEntity
  8
3_1_-_PORTA_E_JANELA_DE_CORRER_2F
  6
Continuous
 62
   179
100
AcDbCircle
 10
67.0290814669
 20
19.3567432384
 30
0.0
 40
0.0764016822476842
100
AcDbArc
 50
269.9868822713
 51
359.9868822712
  0
ARC
  5
1BC
330
1F
100
AcDbEntity
  8
3_1_-_PORTA_E_JANELA_DE_CORRER_2F
  6
Continuous
 62
   179
100
AcDbCircle
 10
66.6948741626
 20
18.7775069989
 30
0.0
 40
0.076392369023182
100
AcDbArc
 50
219.4006027778
 51
360.0
  0
ARC
  5
1BD
330
1F
100
AcDbEntity
  8
3_1_-_PORTA_E_JANELA_DE_CORRER_2F
  6
Continuous
 62
   179
100
AcDbCircle
 10
65.7719871916
 20
19.9010215138
 30
0.0
 40
0.0763923684056649
100
AcDbArc
 50
140.5993277778
 51
219.4008277778
  0
ARC
  5
1BE
330
1F
100
AcDbEntity
  8
3_1_-_PORTA_E_JANELA_DE_CORRER_2F
  6
Continuous
 62
   179
100
AcDbCircle
 10
66.6948877076
 20
21.024538551
 30
0.0
 40
0.0764012680787812
100
AcDbArc
 50
0.0078796742
 51
140.6072241186
  0
ARC
  5
1BF
330
1F
100
AcDbEntity
  8
3_1_-_PORTA_E_JANELA_DE_CORRER_2F
  6
Continuous
 62
   179
100
AcDbCircle
 10
67.0290907786
 20
20.44531701
 30
0.0
 40
0.0763923686077419
100
AcDbArc
 50
0.0
 51
90.0
  0
ELLIPSE
  5
1C0
330
1F
100
AcDbEntity
  8
DESENHO
 62
     7
100
AcDbEllipse
 10
190.2582777581
 20
14.5949765842
 30
0.0
 11
0.0
 21
-2.074329288377141
 31
0.0
210
0.0
220
0.0
230
1.0
 40
0.9311589484
 41
0.0
 42
6.283185307179586
  0
ELLIPSE
  5
1C1
330
1F
100
AcDbEntity
  8
DESENHO
 62
     7
100
AcDbEllipse
 10
190.2582777581
 20
14.5949765842
 30
0.0
 11
0.02653369580983167
 21
-1.359239788981782
 31
0.0
210
0.0
220
0.0
230
1.0
 40
0.7975705451
 41
0.0
 42
6.283185307179586
  0
HATCH
  5
1C2
330
1F
100
AcDbEntity
  8
DESENHO
100
AcDbHatch
 10
0.0
 20
0.0
 30
0.0
210
0.0
220
0.0
230
1.0
  2
SOLID
 70
     1
 71
     0
 91
        1
 92
        0
 93
        1
 72
     2
 10
62.18550920722089
 20
26.11015495837941
 40
0.4999999999999772
 50
0.0
 51
360.0
 73
     1
 97
        0
 75
     0
 76
     1
 98
        1
 10
0.0
 20
0.0
  0
HATCH
  5
1C3
330
1F
100
AcDbEntity
  8
DESENHO
100
AcDbHatch
 10
0.0
 20
0.0
 30
0.0
210
0.0
220
0.0
230
1.0
  2
SOLID
 70
     1
 71
     0
 91
        1
 92
        0
 93
        1
 72
     2
 10
62.18550920722089
 20
13.69657902548668
 40
0.4999999999999772
 50
0.0
 51
360.0
 73
     1
 97
        0
 75
     0
 76
     1
 98
        1
 10
0.0
 20
0.0
  0
MTEXT
  5
1C5
330
1F
100
AcDbEntity
  8
TEXTOS_EM_PORTUGUES
 62
     7
100
AcDbMText
 10
23.2545976697
 20
219.1315641997
 30
0.0
 40
3.175
 41
0.0
 71
     1
 72
     1
  1
CARACTERÍSTICAS
  7
SLDTEXTSTYLE0
 73
     1
 44
1.0
  0
MTEXT
  5
1C6
330
1F
100
AcDbEntity
  8
TEXTOS_EM_PORTUGUES
 62
     7
100
AcDbMText
 10
129.1933381586
 20
266.5540601886
 30
0.0
 40
3.0
 41
0.0
 71
     1
 72
     1
  1
APLICAÇÃO
  7
SLDTEXTSTYLE0
 73
     1
 44
1.0
  0
INSERT
  5
1CD
330
1F
100
AcDbEntity
  8
OCULTOS
 62
     7
100
AcDbBlockReference
  2
SW_NOTE_0
 10
24.6657096951
 20
254.0117212401
 30
0.0
  0
INSERT
  5
1D5
330
1F
100
AcDbEntity
  8
DESENHO
100
AcDbBlockReference
  2
SW_NOTE_0_1
 10
11.9895657242
 20
190.9885981919
 30
0.0
  0
MTEXT
  5
1D6
330
1F
100
AcDbEntity
  8
0
  6
Continuous
 62
     7
370
     0
100
AcDbMText
 10
200.5277447806
 20
49.0663010795
 30
0.0
 40
2.1166666667
 41
0.0
 71
     1
 72
     1
  1
Reservamos o direito de alterações sem aviso prévio. Todas as medidas em mm.
  7
SLDTEXTSTYLE0
 11
-3.269436733918102E-15
 21
1.0
 31
0.0
 73
     1
 44
1.0
  0
MTEXT
  5
1D7
330
1F
100
AcDbEntity
  8
TEXTOS_EM_PORTUGUES
 62
     7
100
AcDbMText
 10
107.1531944818
 20
281.1996507733
 30
0.0
 40
4.7625
 41
0.0
 71
     2
 72
     1
  1
TAMPA MONTANTE (TAM-761)
  7
SLDTEXTSTYLE0
 73
     1
 44
1.0
  0
MTEXT
  5
1D8
330
1F
100
AcDbEntity
  8
TEXTOS_EM_PORTUGUES
100
AcDbMText
 10
30.5071512497
 20
17.9067032336
 30
0.0
 40
3.175
 41
0.0
 71
     2
 72
     1
  1
UNNION
  7
SLDTEXTSTYLE0
 73
     1
 44
1.0
  0
MTEXT
  5
1D9
330
1F
100
AcDbEntity
  8
DESENHO
100
AcDbMText
 10
196.8538023449
 20
7.7144940939
 30
0.0
 40
2.38125
 41
0.0
 71
     2
 72
     1
  1
1/1
  7
SLDTEXTSTYLE0
 73
     1
 44
1.0
  0
INSERT
  5
1E3
330
1F
100
AcDbEntity
  8
LAYOUT_
 62
     7
100
AcDbBlockReference
  2
SW_NOTE_0_2
 10
220.124735684
 20
84.6847778583
 30
0.0
  0
INSERT
  5
1FE
330
1F
100
AcDbEntity
  8
LAYOUT_
 62
     7
100
AcDbBlockReference
  2
SW_NOTE_0_3
 10
220.124735684
 20
278.2308053224
 30
0.0
  0
INSERT
  5
212
330
1F
100
AcDbEntity
  8
LAYOUT_
 62
     7
100
AcDbBlockReference
  2
SW_NOTE_0_4
 10
220.124735684
 20
180.4734390291
 30
0.0
  0
INSERT
  5
218
330
1F
100
AcDbEntity
  8
3_1_-_PORTA_E_JANELA_DE_CORRER_2F
 62
     7
100
AcDbBlockReference
  2
SW_NOTE_0_5
 10
14.8391614191
 20
22.5363741317
 30
0.0
  0
INSERT
  5
251
330
1F
100
AcDbEntity
  8
TEXTOS_EM_PORTUGUES
100
AcDbBlockReference
  2
SW_TABLEANNOTATION_0
 10
11.9860714868
 20
214.0321224226
 30
0.0
  0
LINE
  5
252
330
1F
100
AcDbEntity
  8
0
  6
Continuous
 62
     7
370
    18
100
AcDbLine
 10
34.3255121505
 20
47.5586918701
 30
0.0
 11
34.3255121505
 21
47.7026165982
 31
0.0
  0
LINE
  5
253
330
1F
100
AcDbEntity
  8
0
  6
Continuous
 62
     7
370
    18
100
AcDbLine
 10
50.3014698869
 20
43.7780195435
 30
0.0
 11
50.3014698869
 21
66.1208448519
 31
0.0
  0
LINE
  5
254
330
1F
100
AcDbEntity
  8
0
  6
Continuous
 62
     7
370
    18
100
AcDbLine
 10
29.8995282745
 20
49.9109072198
 30
0.0
 11
29.8995282745
 21
50.0868247409
 31
0.0
  0
LINE
  5
255
330
1F
100
AcDbEntity
  8
0
  6
Continuous
 62
     7
370
    18
100
AcDbLine
 10
48.6131869501
 20
65.3785025288
 30
0.0
 11
48.6131869501
 21
66.9903834869
 31
0.0
  0
LINE
  5
256
330
1F
100
AcDbEntity
  8
0
  6
Continuous
 62
     7
370
    18
100
AcDbLine
 10
48.0522327369
 20
67.1264534404
 30
0.0
 11
48.0522327369
 21
66.8861945678
 31
0.0
  0
LINE
  5
257
330
1F
100
AcDbEntity
  8
0
  6
Continuous
 62
     7
370
    18
100
AcDbLine
 10
46.0962541646
 20
67.5292169263
 30
0.0
 11
46.0962541646
 21
66.6252156307
 31
0.0
  0
LINE
  5
258
330
1F
100
AcDbEntity
  8
0
  6
Continuous
 62
     7
370
    18
100
AcDbLine
 10
47.3760888225
 20
67.1311249544
 30
0.0
 11
47.3760888225
 21
67.7523692657
 31
0.0
  0
LINE
  5
259
330
1F
100
AcDbEntity
  8
0
  6
Continuous
 62
     7
370
    18
100
AcDbLine
 10
35.7369389629
 20
67.2864621093
 30
0.0
 11
35.7369389629
 21
67.9156785418
 31
0.0
  0
LINE
  5
25A
330
1F
100
AcDbEntity
  8
0
  6
Continuous
 62
     7
370
    18
100
AcDbLine
 10
26.6742632037
 20
51.9263265242
 30
0.0
 11
26.6742632037
 21
40.0411044766
 31
0.0
  0
LINE
  5
25B
330
1F
100
AcDbEntity
  8
0
  6
Continuous
 62
     7
370
    18
100
AcDbLine
 10
44.4698333985
 20
69.4686291327
 30
0.0
 11
44.4698333985
 21
67.3884456565
 31
0.0
  0
LINE
  5
25C
330
1F
100
AcDbEntity
  8
0
  6
Continuous
 62
     7
370
    18
100
AcDbLine
 10
38.6266634113
 20
69.8410426785
 30
0.0
 11
38.6266634113
 21
65.634053718
 31
0.0
  0
LINE
  5
25D
330
1F
100
AcDbEntity
  8
0
  6
Continuous
 62
     7
370
    35
100
AcDbLine
 10
43.6389930791
 20
89.7274506797
 30
0.0
 11
43.6445251352
 21
89.9135289301
 31
0.0
  0
LINE
  5
25E
330
1F
100
AcDbEntity
  8
0
  6
Continuous
 62
     7
370
    35
100
AcDbLine
 10
34.6225854254
 20
94.8821199645
 30
0.0
 11
34.0736825263
 21
84.273282956
 31
0.0
  0
SPLINE
  5
25F
330
1F
100
AcDbEntity
  8
0
  6
Continuous
 62
     7
370
    35
100
AcDbSpline
210
0.0
220
0.0
230
1.0
 70
     8
 71
     3
 72
    12
 73
     8
 74
     0
 42
0.000000001
 43
0.00000001
 40
0.0
 40
0.0
 40
0.0
 40
0.0
 40
0.2020860544662115
 40
0.4612047869357545
 40
0.7102864694769285
 40
0.957297248673281
 40
1.0
 40
1.0
 40
1.0
 40
1.0
 10
26.66264961123041
 20
79.99498448865108
 30
0.0
 10
26.63283444719699
 20
79.97578015425549
 30
0.0
 10
26.56478969066092
 20
79.93195164280002
 30
0.0
 10
26.47874261596524
 20
79.83867544961332
 30
0.0
 10
26.41981356130153
 20
79.72020070540341
 30
0.0
 10
26.39362329195443
 20
79.6255639729056
 30
0.0
 10
26.40029598692484
 20
79.57513105126296
 30
0.0
 10
26.40127951860003
 20
79.56769741670782
 30
0.0
  0
LINE
  5
260
330
1F
100
AcDbEntity
  8
0
  6
Continuous
 62
     7
370
    35
100
AcDbLine
 10
43.3359556144
 20
74.7687002231
 30
0.0
 11
43.3359556144
 21
78.2138114382
 31
0.0
  0
LINE
  5
261
330
1F
100
AcDbEntity
  8
0
  6
Continuous
 62
     7
370
    35
100
AcDbLine
 10
26.3983384019
 20
79.5702306141
 30
0.0
 11
26.3983384019
 21
79.1619574239
 31
0.0
  0
LINE
  5
262
330
1F
100
AcDbEntity
  8
0
  6
Continuous
 62
     7
370
    35
100
AcDbLine
 10
34.07382595
 20
84.2733649124
 30
0.0
 11
26.6626496112
 21
79.9949844887
 31
0.0
  0
LINE
  5
263
330
1F
100
AcDbEntity
  8
0
  6
Continuous
 62
     7
370
    35
100
AcDbLine
 10
27.4140667415
 20
78.2564436604
 30
0.0
 11
27.4140667415
 21
75.1396236529
 31
0.0
  0
LWPOLYLINE
  5
264
330
1F
100
AcDbEntity
  8
0
  6
PHANTOM
 62
     7
370
    18
100
AcDbPolyline
 90
      160
 70
   128
 43
0.0
 10
26.6742632037
 20
40.0411044766
 10
26.6844574606
 20
39.963657554
 10
26.7106779164
 20
39.9343525578
 10
26.7592389381
 20
39.9437384267
 10
26.8055778241
 20
39.9652892311
 10
26.6121719277
 20
39.4366966148
 10
26.5782792366
 20
39.1079248448
 10
26.7033931112
 20
38.9405717661
 10
26.9760210311
 20
38.8743063022
 10
27.2890124714
 20
38.8087113907
 10
27.5273155665
 20
38.6380130012
 10
27.6791546738
 20
38.3712822159
 10
27.8179105616
 20
38.1122888585
 10
28.0138645565
 20
37.9591477622
 10
28.2806270069
 20
37.9249514599
 10
28.6879856384
 20
37.9954823812
 10
29.1380938387
 20
38.124301057
 10
29.4866971916
 20
38.211793225
 10
29.7905039287
 20
38.2342846652
 10
29.9287010229
 20
38.1993451674
 10
30.0332401192
 20
38.1185212691
 10
30.0987158215
 20
37.9849174579
 10
30.1331933832
 20
37.8100821336
 10
30.1747583097
 20
37.376614805
 10
30.260926137
 20
37.1190798988
 10
30.4358247912
 20
37.0474006568
 10
30.6957829988
 20
37.0985796262
 10
31.0087464994
 20
37.1872024198
 10
31.2127676105
 20
37.1960760613
 10
31.3139613962
 20
37.1254846041
 10
31.369125495
 20
36.9879198779
 10
31.4001869655
 20
36.7415962328
 10
31.419994334
 20
36.4762773325
 10
31.4692389464
 20
36.2496651296
 10
31.5499473607
 20
36.1397876923
 10
31.6787082946
 20
36.0969151889
 10
32.0285074657
 20
36.1466291879
 10
32.5201638287
 20
36.2771307637
 10
32.9597722983
 20
36.3157210459
 10
33.3615653461
 20
36.1790727411
 10
33.5267819709
 20
36.0233481561
 10
33.5938390589
 20
35.8067793359
 10
33.5384626186
 20
35.4817691778
 10
33.5292089975
 20
35.3610893299
 10
33.5463471955
 20
35.3229721595
 10
33.5808061308
 20
35.3010637273
 10
33.7529573834
 20
35.3052705114
 10
33.9409075922
 20
35.3485211317
 10
34.3106296158
 20
35.420313995
 10
34.4967283553
 20
35.4083260109
 10
34.6338581538
 20
35.3219588806
 10
34.7185153758
 20
35.1357940172
 10
34.7752478218
 20
35.0054330711
 10
34.8394681013
 20
34.9678169523
 10
34.9284094071
 20
34.9927139987
 10
35.1483803487
 20
35.1485699003
 10
35.1563934481
 20
35.0876930688
 10
35.1770054793
 20
35.064656805
 10
35.215178529
 20
35.0720356737
 10
35.2516006923
 20
35.0889755
 10
35.367103318
 20
34.9600851123
 10
35.4073159641
 20
34.9397245382
 10
35.4445986694
 20
34.9458377396
 10
35.503668735
 20
35.0089590584
 10
35.5570279306
 20
35.062023956
 10
35.6345828867
 20
35.0806727593
 10
35.7179381198
 20
35.0752589812
 10
35.7801430172
 20
35.0870457997
 10
35.8234253025
 20
35.1324757148
 10
35.879876489
 20
35.2774779831
 10
36.0140782094
 20
35.5291921233
 10
36.2969469523
 20
35.1810348739
 10
36.5682188666
 20
34.9388798286
 10
36.7570854968
 20
34.8905898218
 10
36.9298253453
 20
34.996935684
 10
37.1009987092
 20
35.202287655
 10
37.2951235867
 20
35.3996581917
 10
37.5334751105
 20
35.4918088351
 10
37.8016289568
 20
35.4911131372
 10
38.0636565632
 20
35.4760191922
 10
38.2839143521
 20
35.5246956979
 10
38.4647697455
 20
35.6953084056
 10
38.593821252
 20
35.9609718953
 10
38.7413650995
 20
36.4912828018
 10
38.8215855008
 20
36.808324564
 10
38.9190763479
 20
37.0920296346
 10
39.0500761813
 20
37.3029304256
 10
39.2308309919
 20
37.4015667994
 10
39.4058637565
 20
37.3831266125
 10
39.605416382
 20
37.3066985567
 10
39.9282872921
 20
37.1576161643
 10
40.1698574668
 20
37.0958741342
 10
40.3387695795
 20
37.1857458313
 10
40.43354469
 20
37.4322855432
 10
40.5054725951
 20
37.7274496068
 10
40.5776128417
 20
37.9107096751
 10
40.6910702831
 20
38.0070568581
 10
40.8768952137
 20
37.9917198379
 10
41.0512350744
 20
37.9211479385
 10
41.4009168988
 20
37.7563261946
 10
41.6403189546
 20
37.7087430616
 10
41.7860821134
 20
37.7973528166
 10
41.8836549169
 20
37.9894474109
 10
42.0213043934
 20
38.4763614793
 10
42.1852395183
 20
38.8984778483
 10
42.437627936
 20
39.2229450454
 10
42.6799431688
 20
39.3776880165
 10
42.9679826146
 20
39.4569994469
 10
43.2673134154
 20
39.4229204913
 10
43.5463041311
 20
39.2555431982
 10
43.7332540995
 20
39.0898329725
 10
43.8971817738
 20
38.9445634146
 10
44.0345742053
 20
38.8691430499
 10
44.1435277706
 20
38.9035535564
 10
44.262439037
 20
39.1154946347
 10
44.3428159004
 20
39.372357126
 10
44.5013232773
 20
39.9061111321
 10
44.6232296771
 20
40.1866534312
 10
44.7851531452
 20
40.4030033906
 10
45.0006127602
 20
40.5170866807
 10
45.2729985362
 20
40.507253777
 10
45.5693826324
 20
40.4528198351
 10
45.7202717906
 20
40.4861444195
 10
45.7595326251
 20
40.5978882273
 10
45.7471050566
 20
40.9118836333
 10
45.7790903991
 20
41.2291330804
 10
45.9576919919
 20
41.4366745909
 10
46.2484844273
 20
41.5264429112
 10
46.6464087611
 20
41.4913842042
 10
47.0535047597
 20
41.3193894138
 10
47.3536104208
 20
41.1328548153
 10
47.4490896112
 20
41.0863371153
 10
47.5025512522
 20
41.0796669831
 10
47.5407541043
 20
41.1327579577
 10
47.5376956409
 20
41.2541726191
 10
47.4779680616
 20
41.59880295
 10
47.4563613778
 20
41.8429528882
 10
47.5194454437
 20
41.9791085233
 10
47.6687625295
 20
41.9878573676
 10
47.8297472244
 20
41.9368171652
 10
48.1667295343
 20
41.7803102692
 10
48.3845249063
 20
41.6766931822
 10
48.5810153431
 20
41.6018297483
 10
48.7988814956
 20
41.6061585356
 10
48.8721430546
 20
41.7344035168
 10
48.8897823042
 20
41.8954943825
 10
48.871301139
 20
42.3834720214
 10
48.8763712591
 20
42.7770787437
 10
48.9146225399
 20
42.9457300861
 10
48.9729121572
 20
43.0191946735
 10
49.1407625622
 20
42.9882077088
 10
49.3556186801
 20
42.8801072349
 10
49.554124499
 20
42.8865426739
 10
49.7147962695
 20
43.0377112289
 10
49.9613732344
 20
43.439502414
 10
50.2526536828
 20
43.7498358597
 10
50.2794794983
 20
43.7387214561
 10
50.2937883383
 20
43.7417165895
 10
50.2997935063
 20
43.7590950687
 10
50.3014698869
 20
43.7780195435
  0
LINE
  5
265
330
1F
100
AcDbEntity
  8
0
  6
Continuous
 62
     7
370
    18
100
AcDbLine
 10
36.0140782094
 20
46.9458499511
 30
0.0
 11
43.8038371748
 21
51.4427819808
 31
0.0
  0
LINE
  5
266
330
1F
100
AcDbEntity
  8
0
  6
Continuous
 62
     7
370
    18
100
AcDbLine
 10
43.8038371748
 20
51.4427819808
 30
0.0
 11
43.8038371748
 21
62.3299931695
 31
0.0
  0
LINE
  5
267
330
1F
100
AcDbEntity
  8
0
  6
Continuous
 62
     7
370
    18
100
AcDbLine
 10
43.8038371748
 20
62.3299931695
 30
0.0
 11
50.2526536828
 21
66.0528098752
 31
0.0
  0
ARC
  5
268
330
1F
100
AcDbEntity
  8
0
  6
Continuous
 62
     7
370
    18
100
AcDbCircle
 10
47.9130753152
 20
65.0515915413
 30
0.0
 40
0.0436610232079252
100
AcDbArc
 50
290.7836491954
 51
69.2163508046
  0
LINE
  5
269
330
1F
100
AcDbEntity
  8
0
  6
Continuous
 62
     7
370
    18
100
AcDbLine
 10
47.9285680002
 20
65.0924114098
 30
0.0
 11
43.1673862284
 21
67.8409864713
 31
0.0
  0
ARC
  5
26A
330
1F
100
AcDbEntity
  8
0
  6
Continuous
 62
     7
370
    18
100
AcDbCircle
 10
43.0966746306
 20
67.7044653899
 30
0.0
 40
0.1537469861186025
100
AcDbArc
 50
62.6179354631
 51
117.3820645369
  0
LINE
  5
26B
330
1F
100
AcDbEntity
  8
0
  6
Continuous
 62
     7
370
    18
100
AcDbLine
 10
43.0259630328
 20
67.8409864713
 30
0.0
 11
38.9719009644
 21
65.5006249954
 31
0.0
  0
ARC
  5
26C
330
1F
100
AcDbEntity
  8
0
  6
Continuous
 62
     7
370
    18
100
AcDbCircle
 10
38.9873996551
 20
65.4598019158
 30
0.0
 40
0.0436661566620808
100
AcDbArc
 50
110.7895216411
 51
249.2418460917
  0
LINE
  5
26D
330
1F
100
AcDbEntity
  8
0
  6
Continuous
 62
     7
370
    18
100
AcDbLine
 10
38.9719233161
 20
65.4189703573
 30
0.0
 11
43.7110178417
 21
62.6848531474
 31
0.0
  0
ARC
  5
26E
330
1F
100
AcDbEntity
  8
0
  6
Continuous
 62
     7
370
    18
100
AcDbCircle
 10
43.8052664717
 20
62.8668354135
 30
0.0
 40
0.2049398678011613
100
AcDbArc
 50
242.6203574011
 51
297.3909638618
  0
LINE
  5
26F
330
1F
100
AcDbEntity
  8
0
  6
Continuous
 62
     7
370
    18
100
AcDbLine
 10
43.8995510584
 20
62.6848717739
 30
0.0
 11
47.9285680002
 21
65.0107716729
 31
0.0
  0
LINE
  5
270
330
1F
100
AcDbEntity
  8
0
  6
Continuous
 62
     7
370
    18
100
AcDbLine
 10
35.4365911579
 20
68.0313376297
 30
0.0
 11
34.6821714437
 21
67.5958176662
 31
0.0
  0
ARC
  5
271
330
1F
100
AcDbEntity
  8
0
  6
Continuous
 62
     7
370
    18
100
AcDbCircle
 10
35.5073027557
 20
67.8948573193
 30
0.0
 40
0.1537107842828784
100
AcDbArc
 50
62.6109458435
 51
117.3890541565
  0
LINE
  5
272
330
1F
100
AcDbEntity
  8
0
  6
Continuous
 62
     7
370
    18
100
AcDbLine
 10
35.7076507306
 20
67.9565002729
 30
0.0
 11
35.5780143535
 21
68.0313376297
 31
0.0
  0
ARC
  5
273
330
1F
100
AcDbEntity
  8
0
  6
Continuous
 62
     7
370
    18
100
AcDbCircle
 10
35.6921593111
 20
67.9156804045
 30
0.0
 40
0.0436605741912394
100
AcDbArc
 50
290.7820966079
 51
69.2179033921
  0
LINE
  5
274
330
1F
100
AcDbEntity
  8
0
  6
Continuous
 62
     7
370
    18
100
AcDbLine
 10
35.2833830064
 20
67.6299338748
 30
0.0
 11
35.7076507306
 21
67.874860536
 31
0.0
  0
ARC
  5
275
330
1F
100
AcDbEntity
  8
0
  6
Continuous
 62
     7
370
    18
100
AcDbCircle
 10
35.2988746653
 20
67.589115869
 30
0.0
 40
0.0436589176650113
100
AcDbArc
 50
110.7832575888
 51
249.2167424112
  0
LINE
  5
276
330
1F
100
AcDbEntity
  8
0
  6
Continuous
 62
     7
370
    18
100
AcDbLine
 10
38.5711863881
 20
65.6502848078
 30
0.0
 11
35.2833830064
 21
67.5482978632
 31
0.0
  0
ARC
  5
277
330
1F
100
AcDbEntity
  8
0
  6
Continuous
 62
     7
370
    18
100
AcDbCircle
 10
38.6418961233
 20
65.7867924744
 30
0.0
 40
0.1537342176618355
100
AcDbArc
 50
242.61625244
 51
297.3837475601
  0
LINE
  5
278
330
1F
100
AcDbEntity
  8
0
  6
Continuous
 62
     7
370
    18
100
AcDbLine
 10
40.6689234322
 20
66.7796438147
 30
0.0
 11
38.7126058584
 21
65.6502848078
 31
0.0
  0
LINE
  5
279
330
1F
100
AcDbEntity
  8
0
  6
Continuous
 62
     7
370
    18
100
AcDbLine
 10
40.8103913313
 20
66.7796438147
 30
0.0
 11
40.6689234322
 21
66.7796438147
 31
0.0
  0
LINE
  5
27A
330
1F
100
AcDbEntity
  8
0
  6
Continuous
 62
     7
370
    18
100
AcDbLine
 10
40.8103913313
 20
66.8613133539
 30
0.0
 11
40.8103913313
 21
66.7796438147
 31
0.0
  0
LINE
  5
27B
330
1F
100
AcDbEntity
  8
0
  6
Continuous
 62
     7
370
    18
100
AcDbLine
 10
42.7673384792
 20
67.991033714
 30
0.0
 11
40.8103913313
 21
66.8613133539
 31
0.0
  0
LWPOLYLINE
  5
27C
330
1F
100
AcDbEntity
  8
0
  6
Continuous
 62
     7
370
    18
100
AcDbPolyline
 90
        9
 70
   128
 43
0.0
 10
42.764924491
 20
68.0733179261
 10
42.7778512484
 20
68.0646603514
 10
42.7875705308
 20
68.0546989252
 10
42.793694908
 20
68.0438248028
 10
42.7959896868
 20
68.032470118
 10
42.794361735
 20
68.0210744549
 10
42.7888781077
 20
68.0100885739
 10
42.7797511464
 20
67.9999446084
 10
42.7673384792
 20
67.991033714
  0
LINE
  5
27D
330
1F
100
AcDbEntity
  8
0
  6
Continuous
 62
     7
370
    18
100
AcDbLine
 10
39.4788906223
 20
69.9703065266
 30
0.0
 11
42.764924491
 21
68.0733179261
 31
0.0
  0
ARC
  5
27E
330
1F
100
AcDbEntity
  8
0
  6
Continuous
 62
     7
370
    18
100
AcDbCircle
 10
39.4081808871
 20
69.8338765767
 30
0.0
 40
0.1536652136131772
100
AcDbArc
 50
62.6029242867
 51
117.3970757133
  0
LINE
  5
27F
330
1F
100
AcDbEntity
  8
0
  6
Continuous
 62
     7
370
    18
100
AcDbLine
 10
38.9367714769
 20
69.7389920761
 30
0.0
 11
39.3374711519
 21
69.9703065266
 31
0.0
  0
ARC
  5
280
330
1F
100
AcDbEntity
  8
0
  6
Continuous
 62
     7
370
    18
100
AcDbCircle
 10
38.8454220105
 20
69.8950450305
 30
0.0
 40
0.1808238081683091
100
AcDbArc
 50
224.5071924564
 51
300.3436304779
  0
LWPOLYLINE
  5
281
330
1F
100
AcDbEntity
  8
0
  6
Continuous
 62
     7
370
    18
100
AcDbPolyline
 90
        9
 70
   128
 43
0.0
 10
38.6657119042
 20
69.8954691698
 10
38.6451184994
 20
69.8801135232
 10
38.6318341142
 20
69.8622768332
 10
38.6267081147
 20
69.8430841376
 10
38.6300646013
 20
69.8237647821
 10
38.6416912323
 20
69.8055443873
 10
38.6608429497
 20
69.7895815183
 10
38.6863090342
 20
69.7768931796
 10
38.7164652592
 20
69.768287759
  0
LINE
  5
282
330
1F
100
AcDbEntity
  8
0
  6
Continuous
 62
     7
370
    18
100
AcDbLine
 10
39.1606912261
 20
70.1812138368
 30
0.0
 11
38.6657119042
 21
69.8954691698
 31
0.0
  0
ARC
  5
283
330
1F
100
AcDbEntity
  8
0
  6
Continuous
 62
     7
370
    18
100
AcDbCircle
 10
39.3963940686
 20
69.7262930989
 30
0.0
 40
0.5123560361420912
100
AcDbArc
 50
62.6104912421
 51
117.3895087579
  0
LINE
  5
284
330
1F
100
AcDbEntity
  8
0
  6
Continuous
 62
     7
370
    18
100
AcDbLine
 10
45.1449454075
 20
66.998713236
 30
0.0
 11
39.6320969111
 21
70.1812138368
 31
0.0
  0
ARC
  5
285
330
1F
100
AcDbEntity
  8
0
  6
Continuous
 62
     7
370
    18
100
AcDbCircle
 10
45.2157510588
 20
66.827170208
 30
0.0
 40
0.1855813857141799
100
AcDbArc
 50
37.8630109548
 51
112.4287488976
  0
LWPOLYLINE
  5
286
330
1F
100
AcDbEntity
  8
0
  6
Continuous
 62
     7
370
    18
100
AcDbPolyline
 90
       17
 70
   128
 43
0.0
 10
46.275518859
 20
67.4099778344
 10
46.4378074056
 20
67.3630466272
 10
46.5737320727
 20
67.2935997655
 10
46.6741584486
 20
67.2063199391
 10
46.7323363072
 20
67.1070633043
 10
46.7443540937
 20
67.0025130321
 10
46.7093996948
 20
66.8996875693
 10
46.6298237687
 20
66.8055122306
 10
46.5109795576
 20
66.7263088335
 10
46.3608578092
 20
66.6674157192
 10
46.1895540601
 20
66.6327742447
 10
46.0085794574
 20
66.624731343
 10
45.8301045245
 20
66.6438197304
 10
45.6661321467
 20
66.688754182
 10
45.5276854581
 20
66.7565172126
 10
45.424073959
 20
66.842552792
 10
45.3622639424
 20
66.9410755445
  0
ARC
  5
287
330
1F
100
AcDbEntity
  8
0
  6
Continuous
 62
     7
370
    18
100
AcDbCircle
 10
46.2988682723
 20
67.5337114098
 30
0.0
 40
0.1259174045625769
100
AcDbArc
 50
240.9012879699
 51
259.3135424552
  0
LINE
  5
288
330
1F
100
AcDbEntity
  8
0
  6
Continuous
 62
     7
370
    18
100
AcDbLine
 10
46.1255461222
 20
67.4883951952
 30
0.0
 11
46.2376326567
 21
67.4236869027
 31
0.0
  0
ARC
  5
289
330
1F
100
AcDbEntity
  8
0
  6
Continuous
 62
     7
370
    18
100
AcDbCircle
 10
46.1410358289
 20
67.5292169263
 30
0.0
 40
0.0436617079605852
100
AcDbArc
 50
110.7791278687
 51
249.2208721313
  0
LINE
  5
28A
330
1F
100
AcDbEntity
  8
0
  6
Continuous
 62
     7
370
    18
100
AcDbLine
 10
46.7188023275
 20
67.9125157704
 30
0.0
 11
46.1255461222
 21
67.5700386574
 31
0.0
  0
LWPOLYLINE
  5
28B
330
1F
100
AcDbEntity
  8
0
  6
Continuous
 62
     7
370
    18
100
AcDbPolyline
 90
        9
 70
   128
 43
0.0
 10
46.7218831426
 20
67.9650423636
 10
46.7291884369
 20
67.9591824819
 10
46.7344671732
 20
67.9526334216
 10
46.7375368124
 20
67.9456373264
 10
46.7382893211
 20
67.9384288897
 10
46.7366948968
 20
67.9312651564
 10
46.7328131443
 20
67.9244031717
 10
46.726778174
 20
67.9180776288
 10
46.7188023275
 20
67.9125157704
  0
LINE
  5
28C
330
1F
100
AcDbEntity
  8
0
  6
Continuous
 62
     7
370
    18
100
AcDbLine
 10
44.487357164
 20
69.4426228811
 30
0.0
 11
46.7218831426
 21
67.9650423636
 31
0.0
  0
LWPOLYLINE
  5
28D
330
1F
100
AcDbEntity
  8
0
  6
Continuous
 62
     7
370
    18
100
AcDbPolyline
 90
        9
 70
   128
 43
0.0
 10
44.5103943592
 20
69.504038017
 10
44.4966256863
 20
69.4994708111
 10
44.4851182646
 20
69.4931527187
 10
44.4765314704
 20
69.4854376425
 10
44.471342141
 20
69.476768892
 10
44.4698557502
 20
69.4676419307
 10
44.472150529
 20
69.4585708489
 10
44.4780960923
 20
69.4500660111
 10
44.487357164
 20
69.4426228811
  0
ARC
  5
28E
330
1F
100
AcDbEntity
  8
0
  6
Continuous
 62
     7
370
    18
100
AcDbCircle
 10
44.5813438919
 20
69.231383979
 30
0.0
 40
0.2817340246024701
100
AcDbArc
 50
61.0106208444
 51
104.5859238595
  0
LINE
  5
28F
330
1F
100
AcDbEntity
  8
0
  6
Continuous
 62
     7
370
    18
100
AcDbLine
 10
47.337032879
 20
67.806795757
 30
0.0
 11
44.7178855783
 21
69.4778194238
 31
0.0
  0
ARC
  5
290
330
1F
100
AcDbEntity
  8
0
  6
Continuous
 62
     7
370
    18
100
AcDbCircle
 10
47.3163794313
 20
67.7523692657
 30
0.0
 40
0.0582134679702479
100
AcDbArc
 50
290.7804601991
 51
69.2195398009
  0
LINE
  5
291
330
1F
100
AcDbEntity
  8
0
  6
Continuous
 62
     7
370
    18
100
AcDbLine
 10
47.2663231438
 20
67.6571210434
 30
0.0
 11
47.337032879
 21
67.6979427745
 31
0.0
  0
ARC
  5
292
330
1F
100
AcDbEntity
  8
0
  6
Continuous
 62
     7
370
    18
100
AcDbCircle
 10
47.1720453596
 20
67.8390753463
 30
0.0
 40
0.2049284484010489
100
AcDbArc
 50
242.6095238557
 51
297.3904761443
  0
LINE
  5
293
330
1F
100
AcDbEntity
  8
0
  6
Continuous
 62
     7
370
    18
100
AcDbLine
 10
47.0306314772
 20
67.6843305637
 30
0.0
 11
47.0777675754
 21
67.6571210434
 31
0.0
  0
ARC
  5
294
330
1F
100
AcDbEntity
  8
0
  6
Continuous
 62
     7
370
    18
100
AcDbCircle
 10
46.9363499677
 20
67.5023430298
 30
0.0
 40
0.2049596680750692
100
AcDbArc
 50
62.6128729134
 51
117.3871270866
  0
LINE
  5
295
330
1F
100
AcDbEntity
  8
0
  6
Continuous
 62
     7
370
    18
100
AcDbLine
 10
46.7242188996
 20
67.616295587
 30
0.0
 11
46.8420684582
 21
67.6843305637
 31
0.0
  0
ARC
  5
296
330
1F
100
AcDbEntity
  8
0
  6
Continuous
 62
     7
370
    18
100
AcDbCircle
 10
46.744874174
 20
67.5618690957
 30
0.0
 40
0.0582141160803897
100
AcDbArc
 50
110.7821411078
 51
249.2178588922
  0
LINE
  5
297
330
1F
100
AcDbEntity
  8
0
  6
Continuous
 62
     7
370
    18
100
AcDbLine
 10
47.8320196515
 20
66.8679182936
 30
0.0
 11
46.7242188996
 21
67.5074426045
 31
0.0
  0
ARC
  5
298
330
1F
100
AcDbEntity
  8
0
  6
Continuous
 62
     7
370
    18
100
AcDbCircle
 10
47.926301161
 20
67.0499096258
 30
0.0
 40
0.2049630405942157
100
AcDbArc
 50
242.6133613244
 51
297.3866386756
  0
LINE
  5
299
330
1F
100
AcDbEntity
  8
0
  6
Continuous
 62
     7
370
    18
100
AcDbLine
 10
48.1505245215
 20
66.9429381897
 30
0.0
 11
48.0205826706
 21
66.8679182936
 31
0.0
  0
LWPOLYLINE
  5
29A
330
1F
100
AcDbEntity
  8
0
  6
Continuous
 62
     7
370
    18
100
AcDbPolyline
 90
        9
 70
   128
 43
0.0
 10
48.1169708317
 20
67.0604487468
 10
48.1406897551
 20
67.0503941883
 10
48.1600091106
 20
67.037582915
 10
48.1739901251
 20
67.022633325
 10
48.1819510704
 20
67.0062830259
 10
48.1835045165
 20
66.9893143286
 10
48.1785722321
 20
66.9725691487
 10
48.1674000865
 20
66.9568558742
 10
48.1505245215
 20
66.9429381897
  0
LWPOLYLINE
  5
29B
330
1F
100
AcDbEntity
  8
0
  6
Continuous
 62
     7
370
    18
100
AcDbPolyline
 90
        9
 70
   128
 43
0.0
 10
48.0912849551
 20
67.1808799316
 10
48.0724871403
 20
67.1672379185
 10
48.0594896024
 20
67.1515022923
 10
48.0529591685
 20
67.1344814409
 10
48.05323484
 20
67.1170470823
 10
48.0602942651
 20
67.1001007368
 10
48.073779816
 20
67.084499221
 10
48.093002314
 20
67.071050923
 10
48.1169708317
 20
67.0604487468
  0
LINE
  5
29C
330
1F
100
AcDbEntity
  8
0
  6
Continuous
 62
     7
370
    18
100
AcDbLine
 10
48.1620393938
 20
67.2217016627
 30
0.0
 11
48.0912849551
 21
67.1808799316
 31
0.0
  0
ARC
  5
29D
330
1F
100
AcDbEntity
  8
0
  6
Continuous
 62
     7
370
    18
100
AcDbCircle
 10
48.2562988106
 20
67.0397192383
 30
0.0
 40
0.2049449692822671
100
AcDbArc
 50
62.6131714461
 51
117.3823000487
  0
LINE
  5
29E
330
1F
100
AcDbEntity
  8
0
  6
Continuous
 62
     7
370
    18
100
AcDbLine
 10
48.5155582672
 20
67.1264497151
 30
0.0
 11
48.3505726105
 21
67.2216942121
 31
0.0
  0
ARC
  5
29F
330
1F
100
AcDbEntity
  8
0
  6
Continuous
 62
     7
370
    18
100
AcDbCircle
 10
48.4639138601
 20
66.9903816243
 30
0.0
 40
0.1455392390997047
100
AcDbArc
 50
290.7841707065
 51
69.2158292935
  0
LINE
  5
2A0
330
1F
100
AcDbEntity
  8
0
  6
Continuous
 62
     7
370
    18
100
AcDbLine
 10
48.1620021409
 20
66.6502123286
 30
0.0
 11
48.5155582672
 21
66.8543135335
 31
0.0
  0
ARC
  5
2A1
330
1F
100
AcDbEntity
  8
0
  6
Continuous
 62
     7
370
    18
100
AcDbCircle
 10
47.926301161
 20
67.1051234531
 30
0.0
 40
0.5123466434981733
100
AcDbArc
 50
242.6101816186
 51
297.3898183814
  0
LINE
  5
2A2
330
1F
100
AcDbEntity
  8
0
  6
Continuous
 62
     7
370
    18
100
AcDbLine
 10
47.2918935364
 20
66.880383115
 30
0.0
 11
47.6906001812
 21
66.6502123286
 31
0.0
  0
ARC
  5
2A3
330
1F
100
AcDbEntity
  8
0
  6
Continuous
 62
     7
370
    18
100
AcDbCircle
 10
47.2236411189
 20
66.7670812006
 30
0.0
 40
0.1322713737232588
100
AcDbArc
 50
58.9354836191
 51
138.327301973
  0
ARC
  5
2A4
330
1F
100
AcDbEntity
  8
0
  6
Continuous
 62
     7
370
    18
100
AcDbCircle
 10
46.2867071984
 20
67.4131352375
 30
0.0
 40
1.006952896051382
100
AcDbArc
 50
274.9060207348
 51
326.3404813691
  0
LWPOLYLINE
  5
2A5
330
1F
100
AcDbEntity
  8
0
  6
Continuous
 62
     7
370
    18
100
AcDbPolyline
 90
        9
 70
   128
 43
0.0
 10
46.3313125318
 20
66.3138409664
 10
46.3156402355
 20
66.3255756308
 10
46.3056564575
 20
66.3392362704
 10
46.3020317501
 20
66.3539139141
 10
46.3050008064
 20
66.3686362614
 10
46.314362461
 20
66.3824384619
 10
46.329505766
 20
66.394411545
 10
46.3494323438
 20
66.4037582983
 10
46.3728234416
 20
66.4098714997
  0
LINE
  5
2A6
330
1F
100
AcDbEntity
  8
0
  6
Continuous
 62
     7
370
    18
100
AcDbLine
 10
48.2116490847
 20
65.2283435275
 30
0.0
 11
46.3313125318
 21
66.3138409664
 31
0.0
  0
ARC
  5
2A7
330
1F
100
AcDbEntity
  8
0
  6
Continuous
 62
     7
370
    18
100
AcDbCircle
 10
48.2823588198
 20
65.364796434
 30
0.0
 40
0.1536855957440307
100
AcDbArc
 50
242.6068625142
 51
297.3931374858
  0
LINE
  5
2A8
330
1F
100
AcDbEntity
  8
0
  6
Continuous
 62
     7
370
    18
100
AcDbLine
 10
50.0169508403
 20
66.1888798286
 30
0.0
 11
48.353068555
 21
65.2283435275
 31
0.0
  0
LWPOLYLINE
  5
2A9
330
1F
100
AcDbEntity
  8
0
  6
Continuous
 62
     7
370
    18
100
AcDbPolyline
 90
        9
 70
   128
 43
0.0
 10
50.2526536828
 20
66.0528098752
 10
50.2887815481
 20
66.0840278079
 10
50.3014698869
 20
66.1208448519
 10
50.2887815481
 20
66.1576656212
 10
50.2526536828
 20
66.1888798286
 10
50.1985810941
 20
66.2097340037
 10
50.1348003989
 20
66.2170616497
 10
50.071023429
 20
66.2097340037
 10
50.0169508403
 20
66.1888798286
  0
LINE
  5
2AA
330
1F
100
AcDbEntity
  8
0
  6
Continuous
 62
     7
370
    18
100
AcDbLine
 10
43.4552245086
 20
62.531240802
 30
0.0
 11
43.8038371748
 21
62.3299931695
 31
0.0
  0
ARC
  5
2AB
330
1F
100
AcDbEntity
  8
0
  6
Continuous
 62
     7
370
    18
100
AcDbCircle
 10
43.4061095047
 20
62.4572623332
 30
0.0
 40
0.0887980712326766
100
AcDbArc
 50
56.4194406524
 51
60.030711966
  0
LINE
  5
2AC
330
1F
100
AcDbEntity
  8
0
  6
Continuous
 62
     7
370
    18
100
AcDbLine
 10
43.4504673129
 20
62.5341875066
 30
0.0
 11
35.0358877575
 21
67.3918207695
 31
0.0
  0
ARC
  5
2AD
330
1F
100
AcDbEntity
  8
0
  6
Continuous
 62
     7
370
    18
100
AcDbCircle
 10
34.9877355091
 20
67.308427485
 30
0.0
 40
0.0962968271741524
100
AcDbArc
 50
59.9973652522
 51
63.4460239071
  0
LINE
  5
2AE
330
1F
100
AcDbEntity
  8
0
  6
Continuous
 62
     7
370
    18
100
AcDbLine
 10
34.6821714437
 20
67.5958176662
 30
0.0
 11
35.0307841098
 21
67.3945663084
 31
0.0
  0
LINE
  5
2AF
330
1F
100
AcDbEntity
  8
0
  6
Continuous
 62
     7
370
    18
100
AcDbLine
 10
43.4552245086
 20
51.6440314759
 30
0.0
 11
43.4552245086
 21
62.531240802
 31
0.0
  0
LINE
  5
2B0
330
1F
100
AcDbEntity
  8
0
  6
Continuous
 62
     7
370
    18
100
AcDbLine
 10
43.4552245086
 20
51.6440314759
 30
0.0
 11
43.8038371748
 21
51.4427819808
 31
0.0
  0
LWPOLYLINE
  5
2B1
330
1F
100
AcDbEntity
  8
0
  6
Continuous
 62
     7
370
    18
100
AcDbPolyline
 90
        9
 70
   128
 43
0.0
 10
43.4504673129
 20
51.5653384437
 10
43.4624180442
 20
51.5736681928
 10
43.471463049
 20
51.5831378807
 10
43.4772894031
 20
51.5934178193
 10
43.4796959406
 20
51.6041429301
 10
43.4785932547
 20
51.6149388214
 10
43.4740185982
 20
51.6254273762
 10
43.4661358839
 20
51.6352397908
 10
43.4552245086
 20
51.6440314759
  0
LINE
  5
2B2
330
1F
100
AcDbEntity
  8
0
  6
Continuous
 62
     7
370
    18
100
AcDbLine
 10
34.6821714437
 20
56.7086083402
 30
0.0
 11
35.0307841098
 21
56.5073569824
 31
0.0
  0
ARC
  5
2B3
330
1F
100
AcDbEntity
  8
0
  6
Continuous
 62
     7
370
    18
100
AcDbCircle
 10
34.9654303988
 20
56.3666595716
 30
0.0
 40
0.1551350023115749
100
AcDbArc
 50
65.0852107532
 51
117.2224044334
  0
LINE
  5
2B4
330
1F
100
AcDbEntity
  8
0
  6
Continuous
 62
     7
370
    18
100
AcDbLine
 10
34.8944645619
 20
56.5046114434
 30
0.0
 11
27.3975245899
 21
52.1767181863
 31
0.0
  0
LWPOLYLINE
  5
2B5
330
1F
100
AcDbEntity
  8
0
  6
Continuous
 62
     7
370
    18
100
AcDbPolyline
 90
        9
 70
   128
 43
0.0
 10
27.3975245899
 20
52.1767181863
 10
27.3210853583
 20
52.1238861193
 10
27.2621736175
 20
52.0640356054
 10
27.2226725018
 20
51.9990870316
 10
27.2038486099
 20
51.9311116596
 10
27.2062998509
 20
51.862288784
 10
27.229951719
 20
51.7948181887
 10
27.274044255
 20
51.7308605422
 10
27.3371711618
 20
51.6724610289
  0
ARC
  5
2B6
330
1F
100
AcDbEntity
  8
0
  6
Continuous
 62
     7
370
    18
100
AcDbCircle
 10
45.6457528318
 20
75.6581691476
 30
0.0
 40
30.17479671390725
100
AcDbArc
 50
232.6450672602
 51
234.1158433457
  0
ARC
  5
2B7
330
1F
100
AcDbEntity
  8
0
  6
Continuous
 62
     7
370
    18
100
AcDbCircle
 10
28.0372814467
 20
51.3377147395
 30
0.0
 40
0.1495062957207892
100
AcDbArc
 50
238.3565649829
 51
299.8462813061
  0
ARC
  5
2B8
330
1F
100
AcDbEntity
  8
0
  6
Continuous
 62
     7
370
    18
100
AcDbCircle
 10
28.1861423261
 20
51.0783518816
 30
0.0
 40
0.1495399464132988
100
AcDbArc
 50
58.417948696
 51
119.8609112712
  0
ARC
  5
2B9
330
1F
100
AcDbEntity
  8
0
  6
Continuous
 62
     7
370
    18
100
AcDbCircle
 10
47.2008096514
 20
77.6776991984
 30
0.0
 40
32.54765427320821
100
AcDbArc
 50
234.4224842399
 51
237.8338996808
  0
ARC
  5
2BA
330
1F
100
AcDbEntity
  8
0
  6
Continuous
 62
     7
370
    18
100
AcDbCircle
 10
29.8553006676
 20
50.0865402421
 30
0.0
 40
0.0431983154111194
100
AcDbArc
 50
290.2299803615
 51
65.470176516
  0
LINE
  5
2BB
330
1F
100
AcDbEntity
  8
0
  6
Continuous
 62
     7
370
    18
100
AcDbLine
 10
29.8702381796
 20
50.0460067351
 30
0.0
 11
29.8408847547
 21
50.0290603896
 31
0.0
  0
ARC
  5
2BC
330
1F
100
AcDbEntity
  8
0
  6
Continuous
 62
     7
370
    18
100
AcDbCircle
 10
29.8558874387
 20
49.9884927844
 30
0.0
 40
0.0432528740439207
100
AcDbArc
 50
110.295367369
 51
245.9200619736
  0
ARC
  5
2BD
330
1F
100
AcDbEntity
  8
0
  6
Continuous
 62
     7
370
    18
100
AcDbCircle
 10
49.3525018591
 20
81.3189167586
 30
0.0
 40
36.94425336175765
100
AcDbArc
 50
238.1155219204
 51
242.1631982914
  0
ARC
  5
2BE
330
1F
100
AcDbEntity
  8
0
  6
Continuous
 62
     7
370
    18
100
AcDbCircle
 10
32.1676587309
 20
48.7813942066
 30
0.0
 40
0.1474138096379559
100
AcDbArc
 50
243.2066245
 51
305.2129533865
  0
ARC
  5
2BF
330
1F
100
AcDbEntity
  8
0
  6
Continuous
 62
     7
370
    18
100
AcDbCircle
 10
32.3380599778
 20
48.541617644
 30
0.0
 40
0.1467465424019613
100
AcDbArc
 50
61.7572091886
 51
125.588187819
  0
ARC
  5
2C0
330
1F
100
AcDbEntity
  8
0
  6
Continuous
 62
     7
370
    18
100
AcDbCircle
 10
51.4388609913
 20
85.0593545224
 30
0.0
 40
41.06473779822613
100
AcDbArc
 50
242.390192433
 51
245.3131748126
  0
LWPOLYLINE
  5
2C1
330
1F
100
AcDbEntity
  8
0
  6
Continuous
 62
     7
370
    18
100
AcDbPolyline
 90
        9
 70
   128
 43
0.0
 10
34.2878382897
 20
47.747759666
 10
34.3027971929
 20
47.7392492403
 10
34.3143455929
 20
47.7291239013
 10
34.32197685
 20
47.7178288211
 10
34.325351963
 20
47.705861326
 10
34.3243237829
 20
47.6937504073
 10
34.3189370131
 20
47.6820343693
 10
34.3094300723
 20
47.6712235768
 10
34.2962201929
 20
47.6617948671
  0
LINE
  5
2C2
330
1F
100
AcDbEntity
  8
0
  6
Continuous
 62
     7
370
    18
100
AcDbLine
 10
34.2962201929
 20
47.6617948671
 30
0.0
 11
34.2888329422
 21
47.6575312723
 31
0.0
  0
LWPOLYLINE
  5
2C3
330
1F
100
AcDbEntity
  8
0
  6
Continuous
 62
     7
370
    18
100
AcDbPolyline
 90
        9
 70
   128
 43
0.0
 10
34.2888329422
 20
47.6575312723
 10
34.2755876726
 20
47.6480746229
 10
34.2660714185
 20
47.6372265776
 10
34.2606995499
 20
47.6254658361
 10
34.2597160733
 20
47.6133195271
 10
34.2631601042
 20
47.6013222297
 10
34.2708807683
 20
47.5900066604
 10
34.2825390643
 20
47.5798794587
 10
34.2976115888
 20
47.5713820715
  0
ARC
  5
2C4
330
1F
100
AcDbEntity
  8
0
  6
Continuous
 62
     7
370
    18
100
AcDbCircle
 10
52.5940430574
 20
87.7596969149
 30
0.0
 40
44.15721973165989
100
AcDbArc
 50
245.521770871
 51
246.6670561334
  0
ARC
  5
2C5
330
1F
100
AcDbEntity
  8
0
  6
Continuous
 62
     7
370
    18
100
AcDbCircle
 10
35.5005543218
 20
48.1763674596
 30
0.0
 40
1.0409338745347
100
AcDbArc
 50
247.6388201311
 51
297.1170554298
  0
LINE
  5
2C6
330
1F
100
AcDbEntity
  8
0
  6
Continuous
 62
     7
370
    18
100
AcDbLine
 10
35.9750222659
 20
47.2498559912
 30
0.0
 11
43.4504673129
 21
51.5653384437
 31
0.0
  0
ARC
  5
2C7
330
1F
100
AcDbEntity
  8
0
  6
Continuous
 62
     7
370
    18
100
AcDbCircle
 10
35.5394814621
 20
47.8729655226
 30
0.0
 40
1.04153029501502
100
AcDbArc
 50
247.9443956695
 51
297.1082145076
  0
ARC
  5
2C8
330
1F
100
AcDbEntity
  8
0
  6
Continuous
 62
     7
370
    18
100
AcDbCircle
 10
49.3554139265
 20
81.3168031005
 30
0.0
 40
37.22672839610637
100
AcDbArc
 50
232.7176618982
 51
247.5649863902
  0
LWPOLYLINE
  5
2C9
330
1F
100
AcDbEntity
  8
0
  6
Continuous
 62
     7
370
    18
100
AcDbPolyline
 90
        9
 70
   128
 43
0.0
 10
26.8695242947
 20
52.1984645684
 10
26.7935134715
 20
52.1459845413
 10
26.7347973084
 20
52.0865680237
 10
26.6952291375
 20
52.022086974
 10
26.6760606563
 20
51.9545809885
 10
26.6778990871
 20
51.8861827959
 10
26.7006848252
 20
51.8190530647
 10
26.743697027
 20
51.7553133477
 10
26.8055778241
 20
51.6969753017
  0
LINE
  5
2CA
330
1F
100
AcDbEntity
  8
0
  6
Continuous
 62
     7
370
    18
100
AcDbLine
 10
34.6821714437
 20
56.7086083402
 30
0.0
 11
26.8695242947
 21
52.1984645684
 31
0.0
  0
LINE
  5
2CB
330
1F
100
AcDbEntity
  8
0
  6
Continuous
 62
     7
370
    18
100
AcDbLine
 10
48.1169708317
 20
67.0604487468
 30
0.0
 11
48.1169708317
 21
66.9235666801
 31
0.0
  0
LINE
  5
2CC
330
1F
100
AcDbEntity
  8
0
  6
Continuous
 62
     7
370
    18
100
AcDbLine
 10
35.0307841098
 20
67.3945663084
 30
0.0
 11
35.0307841098
 21
56.5073569824
 31
0.0
  0
LINE
  5
2CD
330
1F
100
AcDbEntity
  8
0
  6
Continuous
 62
     7
370
    18
100
AcDbLine
 10
34.6821714437
 20
67.5958176662
 30
0.0
 11
34.6821714437
 21
56.7086083402
 31
0.0
  0
LINE
  5
2CE
330
1F
100
AcDbEntity
  8
0
  6
Continuous
 62
     7
370
    18
100
AcDbLine
 10
44.487357164
 20
69.4426228811
 30
0.0
 11
44.487357164
 21
67.378327768
 31
0.0
  0
LINE
  5
2CF
330
1F
100
AcDbEntity
  8
0
  6
Continuous
 62
     7
370
    18
100
AcDbLine
 10
42.764924491
 20
68.0733179261
 30
0.0
 11
42.764924491
 21
67.9896441807
 31
0.0
  0
LINE
  5
2D0
330
1F
100
AcDbEntity
  8
0
  6
Continuous
 62
     7
370
    18
100
AcDbLine
 10
38.7164652592
 20
69.768287759
 30
0.0
 11
38.7164652592
 21
65.6525125314
 31
0.0
  0
LINE
  5
2D1
330
1F
100
AcDbEntity
  8
0
  6
Continuous
 62
     7
370
    35
100
AcDbLine
 10
43.8749343401
 20
84.2832220306
 30
0.0
 11
43.7007993704
 21
78.4244319011
 31
0.0
  0
LINE
  5
2D2
330
1F
100
AcDbEntity
  8
0
  6
Continuous
 62
     7
370
    35
100
AcDbLine
 10
35.9975956625
 20
73.9774671902
 30
0.0
 11
43.7007993704
 21
78.4244319011
 31
0.0
  0
ARC
  5
2D3
330
1F
100
AcDbEntity
  8
0
  6
Continuous
 62
     7
370
    35
100
AcDbCircle
 10
-358.7500863814
 20
96.3836329164
 30
0.0
 40
402.8068113309222
100
AcDbArc
 50
358.2785623989
 51
359.0236684375
  0
ARC
  5
2D4
330
1F
100
AcDbEntity
  8
0
  6
Continuous
 62
     7
370
    35
100
AcDbCircle
 10
37.2502610839
 20
68.9386078914
 30
0.0
 40
11.69675727225261
100
AcDbArc
 50
57.1818807902
 51
59.8096295476
  0
ARC
  5
2D5
330
1F
100
AcDbEntity
  8
0
  6
Continuous
 62
     7
370
    35
100
AcDbCircle
 10
43.9118104498
 20
90.0255787004
 30
0.0
 40
0.5128584994800628
100
AcDbArc
 50
242.7042881366
 51
279.7026650662
  0
LINE
  5
2D6
330
1F
100
AcDbEntity
  8
0
  6
Continuous
 62
     7
370
    35
100
AcDbLine
 10
34.1755785292
 20
84.2193929066
 30
0.0
 11
43.1322641915
 21
79.0488091816
 31
0.0
  0
LINE
  5
2D7
330
1F
100
AcDbEntity
  8
0
  6
Continuous
 62
     7
370
    35
100
AcDbLine
 10
34.7199384367
 20
94.7404099216
 30
0.0
 11
43.6766222364
 21
89.5698261966
 31
0.0
  0
ARC
  5
2D8
330
1F
100
AcDbEntity
  8
0
  6
Continuous
 62
     7
370
    35
100
AcDbCircle
 10
34.7702224858
 20
94.8753157141
 30
0.0
 40
0.1439724225453692
100
AcDbArc
 50
151.4196651416
 51
249.5578376497
  0
LINE
  5
2D9
330
1F
100
AcDbEntity
  8
0
  6
Continuous
 62
     7
370
    35
100
AcDbLine
 10
35.1058598852
 20
94.6774450649
 30
0.0
 11
34.643793503
 21
94.9441907515
 31
0.0
  0
ARC
  5
2DA
330
1F
100
AcDbEntity
  8
0
  6
Continuous
 62
     7
370
    35
100
AcDbCircle
 10
35.3190492436
 20
94.2051394559
 30
0.0
 40
0.5181913651207746
100
AcDbArc
 50
62.8170560209
 51
114.2934698049
  0
LINE
  5
2DB
330
1F
100
AcDbEntity
  8
0
  6
Continuous
 62
     7
370
    35
100
AcDbLine
 10
35.5557762331
 20
94.6660978307
 30
0.0
 11
43.546982134
 21
90.0528622379
 31
0.0
  0
ARC
  5
2DC
330
1F
100
AcDbEntity
  8
0
  6
Continuous
 62
     7
370
    35
100
AcDbCircle
 10
43.4952595784
 20
89.9167818922
 30
0.0
 40
0.1455784435023803
100
AcDbArc
 50
290.7516231653
 51
69.1887852148
  0
LINE
  5
2DD
330
1F
100
AcDbEntity
  8
0
  6
Continuous
 62
     7
370
    35
100
AcDbLine
 10
43.5468405729
 20
89.7806478252
 30
0.0
 11
43.9982451743
 21
89.5200563182
 31
0.0
  0
ARC
  5
2DE
330
1F
100
AcDbEntity
  8
0
  6
Continuous
 62
     7
370
    35
100
AcDbCircle
 10
35.5230109267
 20
74.9045422547
 30
0.0
 40
1.041488764543911
100
AcDbArc
 50
247.9130125799
 51
297.1086417386
  0
ARC
  5
2DF
330
1F
100
AcDbEntity
  8
0
  6
Continuous
 62
     7
370
    35
100
AcDbCircle
 10
49.3032684563
 20
108.2591512618
 30
0.0
 40
37.13060058326383
100
AcDbArc
 50
232.160760604
 51
247.5624423113
  0
LINE
  5
2E0
330
1F
100
AcDbEntity
  8
0
  6
Continuous
 62
     7
370
    35
100
AcDbLine
 10
43.2383269316
 20
74.6326302697
 30
0.0
 11
36.0538456833
 21
70.4851155688
 31
0.0
  0
ARC
  5
2E1
330
1F
100
AcDbEntity
  8
0
  6
Continuous
 62
     7
370
    35
100
AcDbCircle
 10
35.6742441821
 20
71.226496679
 30
0.0
 40
0.832912510597931
100
AcDbArc
 50
247.7213375672
 51
297.1133264822
  0
ARC
  5
2E2
330
1F
100
AcDbEntity
  8
0
  6
Continuous
 62
     7
370
    35
100
AcDbCircle
 10
49.509564239
 20
104.1842915189
 30
0.0
 40
36.57686533776774
100
AcDbArc
 50
233.0474022006
 51
247.2391080506
  0
ARC
  5
2E3
330
1F
100
AcDbEntity
  8
0
  6
Continuous
 62
     7
370
    35
100
AcDbCircle
 10
33.8837890032
 20
83.7893737846
 30
0.0
 40
0.5196706387924738
100
AcDbArc
 50
55.8411414968
 51
68.5684267839
  0
ARC
  5
2E4
330
1F
100
AcDbEntity
  8
0
  6
Continuous
 62
     7
370
    35
100
AcDbCircle
 10
43.1691324886
 20
74.7853352407
 30
0.0
 40
0.1676504671091276
100
AcDbArc
 50
294.3764695412
 51
354.3054900523
  0
ARC
  5
2E5
330
1F
100
AcDbEntity
  8
0
  6
Continuous
 62
     7
370
    35
100
AcDbCircle
 10
26.6900241921
 20
79.1772036642
 30
0.0
 40
0.2920839743290818
100
AcDbArc
 50
182.9920929333
 51
235.7347956051
  0
ARC
  5
2E6
330
1F
100
AcDbEntity
  8
0
  6
Continuous
 62
     7
370
    35
100
AcDbCircle
 10
27.6507331058
 20
75.1530533256
 30
0.0
 40
0.2370470926458335
100
AcDbArc
 50
183.2477756953
 51
236.8858447128
  0
LINE
  5
2E7
330
1F
100
AcDbEntity
  8
0
  6
Continuous
 62
     8
370
    18
100
AcDbLine
 10
50.2526536828
 20
66.0528098752
 30
0.0
 11
50.2526536828
 21
43.7498358597
 31
0.0
  0
LINE
  5
2E8
330
1F
100
AcDbEntity
  8
0
  6
Continuous
 62
     8
370
    18
100
AcDbLine
 10
36.0140782094
 20
46.9458499511
 30
0.0
 11
36.0140782094
 21
35.5291921233
 31
0.0
  0
LINE
  5
2E9
330
1F
100
AcDbEntity
  8
0
  6
Continuous
 62
     8
370
    18
100
AcDbLine
 10
43.4504673129
 20
62.5341875066
 30
0.0
 11
43.4504673129
 21
51.565336581
 31
0.0
  0
LINE
  5
2EA
330
1F
100
AcDbEntity
  8
0
  6
Continuous
 62
     8
370
    18
100
AcDbLine
 10
35.0358877575
 20
67.3918207695
 30
0.0
 11
35.0358877575
 21
47.2433907499
 31
0.0
  0
LINE
  5
2EB
330
1F
100
AcDbEntity
  8
0
  6
Continuous
 62
     8
370
    18
100
AcDbLine
 10
35.1483803487
 20
46.9076545496
 30
0.0
 11
35.1483803487
 21
35.1485699003
 31
0.0
  0
LINE
  5
2EC
330
1F
100
AcDbEntity
  8
0
  6
Continuous
 62
     8
370
    18
100
AcDbLine
 10
26.8055778241
 20
51.6969753017
 30
0.0
 11
26.8055778241
 21
39.9652892311
 31
0.0
  0
LINE
  5
2ED
330
1F
100
AcDbEntity
  8
0
  6
Continuous
 62
     8
370
    18
100
AcDbLine
 10
34.2888329422
 20
47.6575312723
 30
0.0
 11
34.2888329422
 21
47.5758896728
 31
0.0
  0
LINE
  5
2EE
330
1F
100
AcDbEntity
  8
0
  6
Continuous
 62
     8
370
    18
100
AcDbLine
 10
34.2962201929
 20
47.6617948671
 30
0.0
 11
34.2962201929
 21
47.5720284094
 31
0.0
  0
LINE
  5
2EF
330
1F
100
AcDbEntity
  8
0
  6
Continuous
 62
     8
370
    18
100
AcDbLine
 10
47.9285680002
 20
65.0924114098
 30
0.0
 11
47.9285680002
 21
65.0107716729
 31
0.0
  0
LINE
  5
2F0
330
1F
100
AcDbEntity
  8
0
  6
Continuous
 62
     8
370
    18
100
AcDbLine
 10
43.1673862284
 20
67.8409864713
 30
0.0
 11
43.1673862284
 21
62.9984890629
 31
0.0
  0
LINE
  5
2F1
330
1F
100
AcDbEntity
  8
0
  6
Continuous
 62
     8
370
    18
100
AcDbLine
 10
38.9719009644
 20
65.5006249954
 30
0.0
 11
38.9719009644
 21
65.4189852585
 31
0.0
  0
LINE
  5
2F2
330
1F
100
AcDbEntity
  8
0
  6
Continuous
 62
     8
370
    18
100
AcDbLine
 10
43.0259630328
 20
67.8409864713
 30
0.0
 11
43.0259630328
 21
63.0800803711
 31
0.0
  0
LINE
  5
2F3
330
1F
100
AcDbEntity
  8
0
  6
Continuous
 62
     8
370
    18
100
AcDbLine
 10
29.8408847547
 20
50.0290603896
 30
0.0
 11
29.8408847547
 21
49.9473573227
 31
0.0
  0
LINE
  5
2F4
330
1F
100
AcDbEntity
  8
0
  6
Continuous
 62
     8
370
    18
100
AcDbLine
 10
46.3728234416
 20
66.4098714997
 30
0.0
 11
46.3728234416
 21
66.2898724486
 31
0.0
  0
LINE
  5
2F5
330
1F
100
AcDbEntity
  8
0
  6
Continuous
 62
     8
370
    18
100
AcDbLine
 10
47.1248403436
 20
66.8550250639
 30
0.0
 11
47.1248403436
 21
65.855749469
 31
0.0
  0
LINE
  5
2F6
330
1F
100
AcDbEntity
  8
0
  6
Continuous
 62
     8
370
    18
100
AcDbLine
 10
29.8702381796
 20
50.0460067351
 30
0.0
 11
29.8702381796
 21
49.9290922244
 31
0.0
  0
LINE
  5
2F7
330
1F
100
AcDbEntity
  8
0
  6
Continuous
 62
     8
370
    18
100
AcDbLine
 10
46.275518859
 20
67.4099778344
 30
0.0
 11
46.275518859
 21
66.6465466429
 31
0.0
  0
LINE
  5
2F8
330
1F
100
AcDbEntity
  8
0
  6
Continuous
 62
     8
370
    18
100
AcDbLine
 10
47.6906001812
 20
66.6502123286
 30
0.0
 11
47.6906001812
 21
65.5291383673
 31
0.0
  0
LINE
  5
2F9
330
1F
100
AcDbEntity
  8
0
  6
Continuous
 62
     8
370
    18
100
AcDbLine
 10
48.1620021409
 20
66.6502123286
 30
0.0
 11
48.1620021409
 21
65.257005911
 31
0.0
  0
LINE
  5
2FA
330
1F
100
AcDbEntity
  8
0
  6
Continuous
 62
     8
370
    18
100
AcDbLine
 10
48.5155582672
 20
66.8543135335
 30
0.0
 11
48.5155582672
 21
65.3221426119
 31
0.0
  0
LINE
  5
2FB
330
1F
100
AcDbEntity
  8
0
  6
Continuous
 62
     8
370
    18
100
AcDbLine
 10
47.2918935364
 20
66.880383115
 30
0.0
 11
47.2918935364
 21
65.7593091537
 31
0.0
  0
LINE
  5
2FC
330
1F
100
AcDbEntity
  8
0
  6
Continuous
 62
     8
370
    18
100
AcDbLine
 10
34.8944645619
 20
56.5046114434
 30
0.0
 11
34.8944645619
 21
47.3049753864
 31
0.0
  0
LINE
  5
2FD
330
1F
100
AcDbEntity
  8
0
  6
Continuous
 62
     8
370
    18
100
AcDbLine
 10
46.2376326567
 20
67.4236869027
 30
0.0
 11
46.2376326567
 21
66.6396325042
 31
0.0
  0
LINE
  5
2FE
330
1F
100
AcDbEntity
  8
0
  6
Continuous
 62
     8
370
    18
100
AcDbLine
 10
46.1255461222
 20
67.4883951952
 30
0.0
 11
46.1255461222
 21
66.6267951538
 31
0.0
  0
LINE
  5
2FF
330
1F
100
AcDbEntity
  8
0
  6
Continuous
 62
     8
370
    18
100
AcDbLine
 10
46.7242188996
 20
67.616295587
 30
0.0
 11
46.7242188996
 21
67.5074426045
 31
0.0
  0
LINE
  5
300
330
1F
100
AcDbEntity
  8
0
  6
Continuous
 62
     8
370
    18
100
AcDbLine
 10
35.2833830064
 20
67.6299338748
 30
0.0
 11
35.2833830064
 21
67.5482978632
 31
0.0
  0
LINE
  5
301
330
1F
100
AcDbEntity
  8
0
  6
Continuous
 62
     8
370
    18
100
AcDbLine
 10
47.0777675754
 20
67.6571210434
 30
0.0
 11
47.0777675754
 21
67.3033413996
 31
0.0
  0
LINE
  5
302
330
1F
100
AcDbEntity
  8
0
  6
Continuous
 62
     8
370
    18
100
AcDbLine
 10
47.2663231438
 20
67.6571210434
 30
0.0
 11
47.2663231438
 21
67.1944884171
 31
0.0
  0
LINE
  5
303
330
1F
100
AcDbEntity
  8
0
  6
Continuous
 62
     8
370
    18
100
AcDbLine
 10
46.8420684582
 20
67.6843305637
 30
0.0
 11
46.8420684582
 21
67.4394076277
 31
0.0
  0
LINE
  5
304
330
1F
100
AcDbEntity
  8
0
  6
Continuous
 62
     8
370
    18
100
AcDbLine
 10
47.0306314772
 20
67.6843305637
 30
0.0
 11
47.0306314772
 21
67.3305509199
 31
0.0
  0
LINE
  5
305
330
1F
100
AcDbEntity
  8
0
  6
Continuous
 62
     8
370
    18
100
AcDbLine
 10
35.7076507306
 20
67.874860536
 30
0.0
 11
35.7076507306
 21
67.3033712019
 31
0.0
  0
LINE
  5
306
330
1F
100
AcDbEntity
  8
0
  6
Continuous
 62
     8
370
    18
100
AcDbLine
 10
47.337032879
 20
67.6979427745
 30
0.0
 11
47.337032879
 21
67.1536704113
 31
0.0
  0
LINE
  5
307
330
1F
100
AcDbEntity
  8
0
  6
Continuous
 62
     8
370
    18
100
AcDbLine
 10
46.7218831426
 20
67.9650423636
 30
0.0
 11
46.7218831426
 21
67.9144193937
 31
0.0
  0
LINE
  5
308
330
1F
100
AcDbEntity
  8
0
  6
Continuous
 62
     8
370
    18
100
AcDbLine
 10
27.3975245899
 20
52.1767181863
 30
0.0
 11
27.3975245899
 21
51.6265058477
 31
0.0
  0
LINE
  5
309
330
1F
100
AcDbEntity
  8
0
  6
Continuous
 62
     8
370
    18
100
AcDbLine
 10
39.4788906223
 20
69.9703065266
 30
0.0
 11
39.4788906223
 21
66.0926518549
 31
0.0
  0
LINE
  5
30A
330
1F
100
AcDbEntity
  8
0
  6
Continuous
 62
     8
370
    18
100
AcDbLine
 10
38.9367714769
 20
69.7389920761
 30
0.0
 11
38.9367714769
 21
65.7796939422
 31
0.0
  0
LINE
  5
30B
330
1F
100
AcDbEntity
  8
0
  6
Continuous
 62
     8
370
    18
100
AcDbLine
 10
39.3374711519
 20
69.9703065266
 30
0.0
 11
39.3374711519
 21
66.011012118
 31
0.0
  0
LINE
  5
30C
330
1F
100
AcDbEntity
  8
0
  6
Continuous
 62
     8
370
    18
100
AcDbLine
 10
35.9975956625
 20
74.3857403805
 30
0.0
 11
35.9975956625
 21
73.9774671902
 31
0.0
  0
LINE
  5
30D
330
1F
100
AcDbEntity
  8
0
  6
Continuous
 62
     8
370
    18
100
AcDbLine
 10
43.589599455
 20
78.7685071637
 30
0.0
 11
35.9975956625
 21
74.3857403805
 31
0.0
  0
LINE
  5
30E
330
1F
100
AcDbEntity
  8
0
  6
Continuous
 62
     8
370
    18
100
AcDbLine
 10
43.8749343401
 20
84.2832220306
 30
0.0
 11
43.589599455
 21
78.7685071637
 31
0.0
  0
LINE
  5
30F
330
1F
100
AcDbEntity
  8
0
  6
Continuous
 62
     8
370
    18
100
AcDbLine
 10
43.1322641915
 20
79.0488091816
 30
0.0
 11
43.6766222364
 21
89.5698261966
 31
0.0
  0
LINE
  5
310
330
1F
100
AcDbEntity
  8
0
  6
Continuous
 62
     8
370
    18
100
AcDbLine
 10
34.7199384367
 20
94.7404099216
 30
0.0
 11
34.1755785292
 21
84.2193929066
 31
0.0
  0
ARC
  5
311
330
1F
100
AcDbEntity
  8
0
  6
Continuous
 62
     8
370
    18
100
AcDbCircle
 10
35.5230125607
 20
75.3127781807
 30
0.0
 40
1.041454849532472
100
AcDbArc
 50
247.9121584153
 51
297.1094959032
  0
ARC
  5
312
330
1F
100
AcDbEntity
  8
0
  6
Continuous
 62
     8
370
    18
100
AcDbCircle
 10
35.7279031581
 20
74.3313740273
 30
0.0
 40
0.5967313523725642
100
AcDbArc
 50
131.9764444739
 51
178.4267434201
  0
ARC
  5
313
330
1F
100
AcDbEntity
  8
0
  6
Continuous
 62
     8
370
    18
100
AcDbCircle
 10
35.5246028756
 20
75.257502634
 30
0.0
 40
0.5207241947763421
100
AcDbArc
 50
247.9119340214
 51
297.1097095126
  0
ARC
  5
314
330
1F
100
AcDbEntity
  8
0
  6
Continuous
 62
     8
370
    18
100
AcDbCircle
 10
35.4858513945
 20
74.362449838
 30
0.0
 40
0.5122739942582663
100
AcDbArc
 50
2.6058514776
 51
57.3940220238
  0
ARC
  5
315
330
1F
100
AcDbEntity
  8
0
  6
Continuous
 62
     8
370
    18
100
AcDbCircle
 10
49.3030373114
 20
108.6670263214
 30
0.0
 40
37.13014437015882
100
AcDbArc
 50
232.1606654109
 51
247.5625375044
  0
ARC
  5
316
330
1F
100
AcDbEntity
  8
0
  6
Continuous
 62
     8
370
    18
100
AcDbCircle
 10
26.9782620096
 20
79.3142024926
 30
0.0
 40
0.453673521724533
100
AcDbArc
 50
113.7855933159
 51
176.223078673
  0
ARC
  5
317
330
1F
100
AcDbEntity
  8
0
  6
Continuous
 62
     8
370
    18
100
AcDbCircle
 10
49.3814000867
 20
108.8059534059
 30
0.0
 40
36.81822638259477
100
AcDbArc
 50
232.1606773842
 51
247.5625097801
  0
LINE
  5
318
330
1F
100
AcDbEntity
  8
0
  6
Continuous
 62
     8
370
    18
100
AcDbLine
 10
35.7618946826
 20
74.7939874937
 30
0.0
 11
43.1322641915
 21
79.0488091816
 31
0.0
  0
LWPOLYLINE
  5
319
330
1F
100
AcDbEntity
  8
0
  6
Continuous
 62
     8
370
    18
100
AcDbPolyline
 90
        9
 70
   128
 43
0.0
 10
26.8293023354
 20
79.9784777273
 10
26.7915427929
 20
79.9524453987
 10
26.7622974014
 20
79.9229858031
 10
26.742478857
 20
79.8910116364
 10
26.7327018326
 20
79.8575287272
 10
26.7332736647
 20
79.8235764314
 10
26.7441720015
 20
79.7902127315
 10
26.7650615668
 20
79.7584658076
 10
26.7952885723
 20
79.729341488
  0
LINE
  5
31A
330
1F
100
AcDbEntity
  8
0
  6
Continuous
 62
     8
370
    18
100
AcDbLine
 10
34.1755785292
 20
84.2193929066
 30
0.0
 11
26.8293023354
 21
79.9784777273
 31
0.0
  0
LINE
  5
31B
330
1F
100
AcDbEntity
  8
0
  6
Continuous
 62
     8
370
    18
100
AcDbLine
 10
35.1313967502
 20
74.3477573206
 30
0.0
 11
35.1313967502
 21
73.9394841303
 31
0.0
  0
LINE
  5
31C
330
1F
100
AcDbEntity
  8
0
  6
Continuous
 62
     8
370
    18
100
AcDbLine
 10
26.5255738294
 20
79.3440868665
 30
0.0
 11
26.5255738294
 21
78.9358136763
 31
0.0
  0
LINE
  5
31D
330
1F
100
AcDbEntity
  8
0
  6
Continuous
 62
     8
370
    18
100
AcDbLine
 10
36.0538456833
 20
70.4851155688
 30
0.0
 11
36.0538456833
 21
74.0099368204
 31
0.0
  0
LINE
  5
31E
330
1F
100
AcDbEntity
  8
0
  6
Continuous
 62
     8
370
    18
100
AcDbLine
 10
43.2383269316
 20
74.6326302697
 30
0.0
 11
43.2383269316
 21
78.1574515213
 31
0.0
  0
LINE
  5
31F
330
1F
100
AcDbEntity
  8
0
  6
Continuous
 62
     8
370
    18
100
AcDbLine
 10
35.3584774083
 20
70.4557602812
 30
0.0
 11
35.3584774083
 21
73.8771227707
 31
0.0
  0
LINE
  5
320
330
1F
100
AcDbEntity
  8
0
  6
Continuous
 62
     8
370
    18
100
AcDbLine
 10
27.5212321675
 20
74.9545065273
 30
0.0
 11
27.5212321675
 21
78.1779517938
 31
0.0
  0
ARC
  5
321
330
1F
100
AcDbEntity
  8
0
  6
Continuous
 62
     8
370
    18
100
AcDbCircle
 10
26.6903050407
 20
79.5857234195
 30
0.0
 40
0.2924458850669744
100
AcDbArc
 50
183.2933315253
 51
235.7165197718
  0
ARC
  5
322
330
1F
100
AcDbEntity
  8
0
  6
Continuous
 62
     8
370
    18
100
AcDbCircle
 10
26.731655434
 20
79.8421794977
 30
0.0
 40
0.1676667073105923
100
AcDbArc
 50
54.3813966805
 51
114.2934342563
  0
MTEXT
  5
323
330
1F
100
AcDbEntity
  8
DESENHO
100
AcDbMText
 10
48.7105163947
 20
32.0184401043
 30
0.0
 40
1.5
 41
0.0
 71
     2
 72
     1
  1
SEM ESCALA
  7
SLDTEXTSTYLE0
 73
     1
 44
1.0
  0
LINE
  5
324
330
1F
100
AcDbEntity
  8
0
  6
Continuous
 62
     7
370
    18
100
AcDbLine
 10
28.0509138103
 20
110.3707199745
 30
0.0
 11
28.0509138103
 21
150.2929368816
 31
0.0
  0
LINE
  5
325
330
1F
100
AcDbEntity
  8
0
  6
Continuous
 62
     7
370
    18
100
AcDbLine
 10
54.5011529322
 20
110.3707199745
 30
0.0
 11
54.5011529322
 21
130.2929373287
 31
0.0
  0
LINE
  5
326
330
1F
100
AcDbEntity
  8
0
  6
Continuous
 62
     7
370
    18
100
AcDbLine
 10
22.1986541148
 20
150.2929368816
 30
0.0
 11
22.1986541148
 21
110.3707199745
 31
0.0
  0
LINE
  5
327
330
1F
100
AcDbEntity
  8
0
  6
Continuous
 62
     7
370
    18
100
AcDbLine
 10
26.1409872766
 20
150.2929368816
 30
0.0
 11
26.1409872766
 21
110.3707199745
 31
0.0
  0
LWPOLYLINE
  5
328
330
1F
100
AcDbEntity
  8
0
  6
PHANTOM
 62
     7
370
    18
100
AcDbPolyline
 90
      201
 70
   128
 43
0.0
 10
22.1986541148
 20
110.3707199745
 10
22.2526633735
 20
110.3003306143
 10
22.29509443
 20
110.2863952346
 10
22.3375329371
 20
110.3232066907
 10
22.3708742853
 20
110.3707199745
 10
22.41392374
 20
110.314612446
 10
22.4477493759
 20
110.3035045616
 10
22.4815750118
 20
110.3328468107
 10
22.5081512328
 20
110.3707199745
 10
22.6162517067
 20
110.229831358
 10
22.7011883255
 20
110.2019401096
 10
22.7861249443
 20
110.2756198324
 10
22.8528597947
 20
110.3707199745
 10
22.8841447826
 20
110.3299420156
 10
22.9087316986
 20
110.3218693115
 10
22.9333186146
 20
110.3431947358
 10
22.9526305195
 20
110.3707199745
 10
23.1615969535
 20
110.3153966196
 10
23.2725435491
 20
110.1216126062
 10
23.3018541332
 20
110.035583546
 10
23.3296746012
 20
109.9935669281
 10
23.3729624744
 20
109.9871119313
 10
23.4280669685
 20
110.0177803837
 10
23.5833892222
 20
110.1607383989
 10
23.7608024474
 20
110.2954095058
 10
23.8496208187
 20
110.3171875529
 10
23.9341700073
 20
110.2871319108
 10
24.0201199051
 20
110.21615768
 10
24.078815579
 20
110.1825350724
 10
24.1171041127
 20
110.1941328324
 10
24.1509297486
 20
110.2361084722
 10
24.2111229893
 20
110.3707199745
 10
24.2581659551
 20
110.3094110094
 10
24.2951208349
 20
110.2972740136
 10
24.3320831652
 20
110.3293366559
 10
24.3611255284
 20
110.3707199745
 10
24.6566602584
 20
110.292476771
 10
24.8135694857
 20
110.0184127517
 10
24.8550245162
 20
109.8967429079
 10
24.8943710323
 20
109.8373189397
 10
24.9555924531
 20
109.8281910472
 10
25.0335255261
 20
109.8715636708
 10
25.2531984444
 20
110.0737463512
 10
25.5041116472
 20
110.2642101996
 10
25.6297209855
 20
110.2950099684
 10
25.7492953535
 20
110.2525025435
 10
25.8708515759
 20
110.1521255277
 10
25.9538659449
 20
110.1045731284
 10
26.0080242153
 20
110.1209755816
 10
26.0558569427
 20
110.1803408764
 10
26.1409872766
 20
110.3707199745
 10
26.1911371346
 20
110.3053578936
 10
26.2305432554
 20
110.292419029
 10
26.2699493762
 20
110.3266004302
 10
26.3009065386
 20
110.3707199745
 10
26.4577040072
 20
110.1663607933
 10
26.580906808
 20
110.1259032093
 10
26.7041096087
 20
110.2327762
 10
26.8009075518
 20
110.3707199745
 10
26.9752511378
 20
110.324561765
 10
27.0678171511
 20
110.1628813721
 10
27.1154859658
 20
110.0560484283
 10
27.1516063805
 20
110.0506635211
 10
27.1975839134
 20
110.0762506776
 10
27.4751925464
 20
110.3078864343
 10
27.5492960211
 20
110.3260556065
 10
27.6198381182
 20
110.3009797461
 10
27.7405226227
 20
110.2137110956
 10
27.7724707123
 20
110.2233875372
 10
27.800686061
 20
110.2584089912
 10
27.8509104248
 20
110.3707199745
 10
27.9136294122
 20
110.2889749981
 10
27.9629150029
 20
110.2727923371
 10
28.012193143
 20
110.3155419059
 10
28.0509138103
 20
110.3707199745
 10
28.3260861035
 20
110.3292574935
 10
28.5656371709
 20
110.2344460614
 10
28.7351900335
 20
110.0353851743
 10
28.8389244672
 20
109.7571180962
 10
28.9111205931
 20
109.5452096142
 10
28.9796510335
 20
109.4417135991
 10
29.0862688418
 20
109.4258149914
 10
29.2220109697
 20
109.5013564281
 10
29.6046131845
 20
109.8534904249
 10
30.0416120883
 20
110.1852144875
 10
30.2603834863
 20
110.2388577364
 10
30.4686421152
 20
110.1648250423
 10
30.6803578134
 20
109.9900018252
 10
30.8249288793
 20
109.9071811713
 10
30.9192606803
 20
109.93574856
 10
31.0025730725
 20
110.0391439922
 10
31.1508396264
 20
110.3707199745
 10
31.1978974934
 20
110.3093933143
 10
31.2348672744
 20
110.2972525932
 10
31.2718370553
 20
110.3293236174
 10
31.300886869
 20
110.3707199745
 10
31.3479447361
 20
110.3093905203
 10
31.384914517
 20
110.2972488679
 10
31.4218917485
 20
110.3293217547
 10
31.4509415623
 20
110.3707199745
 10
31.726121306
 20
110.3292574935
 10
31.9656723734
 20
110.2344441988
 10
32.135225236
 20
110.0353795864
 10
32.2389596697
 20
109.757108783
 10
32.3111632462
 20
109.545197507
 10
32.379686236
 20
109.4416996293
 10
32.4863114949
 20
109.4258019529
 10
32.6220610734
 20
109.5013433896
 10
33.0046632882
 20
109.8534829743
 10
33.4416621919
 20
110.1852116935
 10
33.6604484912
 20
110.2388558738
 10
33.86870712
 20
110.1648222484
 10
34.0804228183
 20
109.9899962373
 10
34.2250013347
 20
109.9071746521
 10
34.3193256851
 20
109.935742972
 10
34.4026380773
 20
110.0391384043
 10
34.5509120818
 20
110.3707199745
 10
34.5979550477
 20
110.3094110094
 10
34.6349099274
 20
110.2972740136
 10
34.6718722578
 20
110.3293366559
 10
34.700914621
 20
110.3707199745
 10
35.0995504852
 20
110.3141411968
 10
35.4570963975
 20
110.1954599671
 10
35.7325145598
 20
109.9526623093
 10
35.9093317385
 20
109.5728456803
 10
36.0060998793
 20
109.2677779324
 10
36.1001485582
 20
109.010718932
 10
36.216653287
 20
108.8604365304
 10
36.3734656568
 20
108.853891661
 10
36.6569155451
 20
109.0392621063
 10
36.9200327988
 20
109.286892397
 10
37.4485099312
 20
109.7905097358
 10
37.7663367983
 20
110.0252020933
 10
38.0852812525
 20
110.1596636526
 10
38.3960971232
 20
110.1436681874
 10
38.6896425482
 20
109.9497081541
 10
39.0396186705
 20
109.6518209033
 10
39.1914205249
 20
109.6180986442
 10
39.3255496021
 20
109.722246585
 10
39.556163698
 20
110.146326182
 10
39.6752835806
 20
110.3444119744
 10
39.7695073481
 20
110.4036506094
 10
39.9177403744
 20
110.3241165929
 10
40.1314155753
 20
109.9999259986
 10
40.3714807328
 20
109.5661019735
 10
40.6467387076
 20
109.1750140131
 10
40.963965803
 20
108.960683161
 10
41.4674723144
 20
108.958900144
 10
42.0025543865
 20
109.188029246
 10
42.8172828253
 20
109.691634012
 10
43.4736007448
 20
110.0300933994
 10
44.1556976732
 20
110.2640956469
 10
44.6509563919
 20
110.3639287703
 10
45.1648490127
 20
110.3966684841
 10
45.6617207821
 20
110.3006500579
 10
45.9965908523
 20
110.0984794848
 10
46.2784872945
 20
109.7505625166
 10
46.5016098316
 20
109.3358669259
 10
46.6066481169
 20
109.1722726651
 10
46.6817797716
 20
109.1199109159
 10
46.7222140725
 20
109.1299854979
 10
46.7614339288
 20
109.1694922015
 10
46.837880611
 20
109.3174351208
 10
46.9942794736
 20
109.7500661217
 10
47.1276076134
 20
110.0378485225
 10
47.2865433987
 20
110.1499192245
 10
47.4603505429
 20
110.0663414054
 10
47.6086767014
 20
109.9080240183
 10
47.8870415684
 20
109.5165444367
 10
48.2380756732
 20
109.0338916346
 10
48.4856845434
 20
108.8640025646
 10
48.6098223921
 20
108.9006286874
 10
48.727239817
 20
109.0207371689
 10
48.9659154411
 20
109.4344502144
 10
49.2883020635
 20
110.0119223647
 10
49.4325266774
 20
110.2114898913
 10
49.5688052471
 20
110.3462885894
 10
49.6575081344
 20
110.3828588329
 10
49.7114093598
 20
110.3625317864
 10
49.7533673044
 20
110.2991552852
 10
49.8153524097
 20
110.0848430596
 10
49.8666496571
 20
109.857835976
 10
49.9370688196
 20
109.6637753598
 10
50.0483246144
 20
109.5670016311
 10
50.2088771756
 20
109.5901375465
 10
50.5990566309
 20
109.7318624906
 10
50.7859842475
 20
109.7103815354
 10
50.957049578
 20
109.6159705721
 10
51.2748354669
 20
109.4220468603
 10
51.5918502208
 20
109.4891439952
 10
52.0207913216
 20
109.8430828951
 10
52.4486409124
 20
110.1509017698
 10
52.8744080659
 20
110.3707199745
 10
53.1846278902
 20
109.9664076991
 10
53.4283736344
 20
109.8863661118
 10
53.6721156534
 20
110.0978061385
 10
53.8636291023
 20
110.3707199745
 10
54.063557982
 20
110.1101526819
 10
54.2206422981
 20
110.0585676558
 10
54.3777266141
 20
110.1948350497
 10
54.5011529322
 20
110.3707199745
  0
LINE
  5
329
330
1F
100
AcDbEntity
  8
0
  6
Continuous
 62
     7
370
    18
100
AcDbLine
 10
26.3009065386
 20
150.2929368816
 30
0.0
 11
26.3009065386
 21
110.3707199745
 31
0.0
  0
LINE
  5
32A
330
1F
100
AcDbEntity
  8
0
  6
Continuous
 62
     7
370
    18
100
AcDbLine
 10
26.3009065386
 20
150.2929368816
 30
0.0
 11
26.8009075518
 21
150.2929368816
 31
0.0
  0
LINE
  5
32B
330
1F
100
AcDbEntity
  8
0
  6
Continuous
 62
     7
370
    18
100
AcDbLine
 10
26.8009075518
 20
150.2929368816
 30
0.0
 11
27.8509104248
 21
150.2929368816
 31
0.0
  0
LINE
  5
32C
330
1F
100
AcDbEntity
  8
0
  6
Continuous
 62
     7
370
    18
100
AcDbLine
 10
27.8509104248
 20
150.2929368816
 30
0.0
 11
28.0509138103
 21
150.2929368816
 31
0.0
  0
LINE
  5
32D
330
1F
100
AcDbEntity
  8
0
  6
Continuous
 62
     7
370
    18
100
AcDbLine
 10
34.5509120818
 20
150.2929368816
 30
0.0
 11
34.5509120818
 21
110.3707199745
 31
0.0
  0
LINE
  5
32E
330
1F
100
AcDbEntity
  8
0
  6
Continuous
 62
     7
370
    18
100
AcDbLine
 10
34.5509120818
 20
150.2929368816
 30
0.0
 11
34.700914621
 21
150.2929368816
 31
0.0
  0
LINE
  5
32F
330
1F
100
AcDbEntity
  8
0
  6
Continuous
 62
     7
370
    35
100
AcDbLine
 10
36.301284432
 20
150.2929368816
 30
0.0
 11
36.301284432
 21
130.2929373287
 31
0.0
  0
LINE
  5
330
330
1F
100
AcDbEntity
  8
0
  6
Continuous
 62
     7
370
    35
100
AcDbLine
 10
36.301284432
 20
130.2929373287
 30
0.0
 11
52.8744080659
 21
130.2929373287
 31
0.0
  0
LINE
  5
331
330
1F
100
AcDbEntity
  8
0
  6
Continuous
 62
     7
370
    18
100
AcDbLine
 10
34.700914621
 20
150.2929368816
 30
0.0
 11
36.301284432
 21
150.2929368816
 31
0.0
  0
LINE
  5
332
330
1F
100
AcDbEntity
  8
0
  6
Continuous
 62
     7
370
    35
100
AcDbLine
 10
52.8744080659
 20
130.2929373287
 30
0.0
 11
53.8636291023
 21
130.2929373287
 31
0.0
  0
LINE
  5
333
330
1F
100
AcDbEntity
  8
0
  6
Continuous
 62
     7
370
    35
100
AcDbLine
 10
53.8636291023
 20
130.2929373287
 30
0.0
 11
54.5011529322
 21
130.2929373287
 31
0.0
  0
LINE
  5
334
330
1F
100
AcDbEntity
  8
0
  6
Continuous
 62
     7
370
    18
100
AcDbLine
 10
22.5081512328
 20
150.2929368816
 30
0.0
 11
22.5081512328
 21
110.3707199745
 31
0.0
  0
LINE
  5
335
330
1F
100
AcDbEntity
  8
0
  6
Continuous
 62
     7
370
    18
100
AcDbLine
 10
22.3708742853
 20
150.2929368816
 30
0.0
 11
22.5081512328
 21
150.2929368816
 31
0.0
  0
LINE
  5
336
330
1F
100
AcDbEntity
  8
0
  6
Continuous
 62
     7
370
    18
100
AcDbLine
 10
22.1986541148
 20
150.2929368816
 30
0.0
 11
22.3708742853
 21
150.2929368816
 31
0.0
  0
LINE
  5
337
330
1F
100
AcDbEntity
  8
0
  6
Continuous
 62
     7
370
    18
100
AcDbLine
 10
22.5081512328
 20
150.2929368816
 30
0.0
 11
22.8528597947
 21
150.2929368816
 31
0.0
  0
LINE
  5
338
330
1F
100
AcDbEntity
  8
0
  6
Continuous
 62
     7
370
    18
100
AcDbLine
 10
31.1508396264
 20
150.2929368816
 30
0.0
 11
31.1508396264
 21
110.3707199745
 31
0.0
  0
LINE
  5
339
330
1F
100
AcDbEntity
  8
0
  6
Continuous
 62
     7
370
    18
100
AcDbLine
 10
28.0509138103
 20
150.2929368816
 30
0.0
 11
31.1508396264
 21
150.2929368816
 31
0.0
  0
LINE
  5
33A
330
1F
100
AcDbEntity
  8
0
  6
Continuous
 62
     7
370
    18
100
AcDbLine
 10
31.300886869
 20
150.2929368816
 30
0.0
 11
31.300886869
 21
110.3707199745
 31
0.0
  0
LINE
  5
33B
330
1F
100
AcDbEntity
  8
0
  6
Continuous
 62
     7
370
    18
100
AcDbLine
 10
31.1508396264
 20
150.2929368816
 30
0.0
 11
31.300886869
 21
150.2929368816
 31
0.0
  0
LINE
  5
33C
330
1F
100
AcDbEntity
  8
0
  6
Continuous
 62
     7
370
    18
100
AcDbLine
 10
31.4509415623
 20
150.2929368816
 30
0.0
 11
31.4509415623
 21
110.3707199745
 31
0.0
  0
LINE
  5
33D
330
1F
100
AcDbEntity
  8
0
  6
Continuous
 62
     7
370
    18
100
AcDbLine
 10
31.300886869
 20
150.2929368816
 30
0.0
 11
31.4509415623
 21
150.2929368816
 31
0.0
  0
LINE
  5
33E
330
1F
100
AcDbEntity
  8
0
  6
Continuous
 62
     7
370
    18
100
AcDbLine
 10
31.4509415623
 20
150.2929368816
 30
0.0
 11
34.5509120818
 21
150.2929368816
 31
0.0
  0
LINE
  5
33F
330
1F
100
AcDbEntity
  8
0
  6
Continuous
 62
     7
370
    18
100
AcDbLine
 10
22.8528597947
 20
150.2929368816
 30
0.0
 11
22.9526305195
 21
150.2929368816
 31
0.0
  0
LINE
  5
340
330
1F
100
AcDbEntity
  8
0
  6
Continuous
 62
     7
370
    18
100
AcDbLine
 10
22.9526305195
 20
150.2929368816
 30
0.0
 11
24.2111229893
 21
150.2929368816
 31
0.0
  0
LINE
  5
341
330
1F
100
AcDbEntity
  8
0
  6
Continuous
 62
     7
370
    18
100
AcDbLine
 10
24.3611255284
 20
150.2929368816
 30
0.0
 11
24.3611255284
 21
110.3707199745
 31
0.0
  0
LINE
  5
342
330
1F
100
AcDbEntity
  8
0
  6
Continuous
 62
     7
370
    18
100
AcDbLine
 10
24.2111229893
 20
150.2929368816
 30
0.0
 11
24.3611255284
 21
150.2929368816
 31
0.0
  0
LINE
  5
343
330
1F
100
AcDbEntity
  8
0
  6
Continuous
 62
     7
370
    18
100
AcDbLine
 10
26.1409872766
 20
150.2929368816
 30
0.0
 11
26.3009065386
 21
150.2929368816
 31
0.0
  0
LINE
  5
344
330
1F
100
AcDbEntity
  8
0
  6
Continuous
 62
     7
370
    18
100
AcDbLine
 10
24.3611255284
 20
150.2929368816
 30
0.0
 11
26.1509039994
 21
150.2929368816
 31
0.0
  0
LINE
  5
345
330
1F
100
AcDbEntity
  8
0
  6
Continuous
 62
     8
370
    18
100
AcDbLine
 10
26.8009075518
 20
150.2929368816
 30
0.0
 11
26.8009075518
 21
110.3707199745
 31
0.0
  0
LINE
  5
346
330
1F
100
AcDbEntity
  8
0
  6
Continuous
 62
     8
370
    18
100
AcDbLine
 10
27.8509104248
 20
150.2929368816
 30
0.0
 11
27.8509104248
 21
110.3707199745
 31
0.0
  0
LINE
  5
347
330
1F
100
AcDbEntity
  8
0
  6
Continuous
 62
     8
370
    18
100
AcDbLine
 10
34.700914621
 20
150.2929368816
 30
0.0
 11
34.700914621
 21
110.3707199745
 31
0.0
  0
LINE
  5
348
330
1F
100
AcDbEntity
  8
0
  6
Continuous
 62
     8
370
    18
100
AcDbLine
 10
52.8744080659
 20
130.2929373287
 30
0.0
 11
52.8744080659
 21
110.3707199745
 31
0.0
  0
LINE
  5
349
330
1F
100
AcDbEntity
  8
0
  6
Continuous
 62
     8
370
    18
100
AcDbLine
 10
53.8636291023
 20
130.2929373287
 30
0.0
 11
53.8636291023
 21
110.3707199745
 31
0.0
  0
LINE
  5
34A
330
1F
100
AcDbEntity
  8
0
  6
Continuous
 62
     8
370
    18
100
AcDbLine
 10
22.3708742853
 20
150.2929368816
 30
0.0
 11
22.3708742853
 21
110.3707199745
 31
0.0
  0
LINE
  5
34B
330
1F
100
AcDbEntity
  8
0
  6
Continuous
 62
     8
370
    18
100
AcDbLine
 10
22.8528597947
 20
150.2929368816
 30
0.0
 11
22.8528597947
 21
110.3707199745
 31
0.0
  0
LINE
  5
34C
330
1F
100
AcDbEntity
  8
0
  6
Continuous
 62
     8
370
    18
100
AcDbLine
 10
22.9526305195
 20
150.2929368816
 30
0.0
 11
22.9526305195
 21
110.3707199745
 31
0.0
  0
LINE
  5
34D
330
1F
100
AcDbEntity
  8
0
  6
Continuous
 62
     8
370
    18
100
AcDbLine
 10
24.2111229893
 20
150.2929368816
 30
0.0
 11
24.2111229893
 21
110.3707199745
 31
0.0
  0
DIMENSION
  5
34E
330
1F
100
AcDbEntity
  8
DESENHO
100
AcDbDimension
  2
_D
 10
62.5011529322
 20
150.2929382139
 30
0.0
 11
62.5011529322
 21
140.2929382139
 31
0.0
 70
   160
  1
<>
 71
     2
 42
-1.0
  3
SLDDIMSTYLE0
100
AcDbAlignedDimension
 13
54.5011516074
 23
130.2929382139
 33
0.0
 14
36.3012851378
 24
150.2929382139
 34
0.0
 50
90.0
100
AcDbRotatedDimension
  0
DIMENSION
  5
359
330
1F
100
AcDbEntity
  8
DESENHO
100
AcDbDimension
  2
_D_1
 10
54.5013219739
 20
158.2928801802
 30
0.0
 11
45.4013885028
 21
158.292935549
 31
0.0
 70
   160
  1
<>
 71
     2
 42
-1.0
  3
SLDDIMSTYLE1
100
AcDbAlignedDimension
 13
36.3012851378
 23
150.2929368816
 33
0.0
 14
54.5011516074
 24
130.2929373287
 34
0.0
 50
-0.000348618
100
AcDbRotatedDimension
  0
MTEXT
  5
364
330
1F
100
AcDbEntity
  8
DESENHO
100
AcDbMText
 10
55.7250791742
 20
105.0334953121
 30
0.0
 40
1.5
 41
0.0
 71
     2
 72
     1
  1
ESCALA 1:2
  7
SLDTEXTSTYLE0
 73
     1
 44
1.0
  0
MTEXT
  5
365
330
1F
100
AcDbEntity
  8
TEXTOS_EM_PORTUGUES
 62
     7
100
AcDbMText
 10
27.4101615165
 20
166.9699816509
 30
0.0
 40
3.0
 41
0.0
 71
     1
 72
     1
  1
USINAGEM
  7
SLDTEXTSTYLE0
 73
     1
 44
1.0
  0
LINE
  5
366
330
1F
100
AcDbEntity
  8
0
  6
Continuous
 62
     7
370
    35
100
AcDbLine
 10
90.4900819037
 20
117.8318284281
 30
0.0
 11
127.1054666463
 21
117.8318284281
 31
0.0
  0
LINE
  5
367
330
1F
100
AcDbEntity
  8
0
  6
Continuous
 62
     7
370
    35
100
AcDbLine
 10
90.6467340861
 20
120.3318283722
 30
0.0
 11
126.9544266138
 21
120.3318283722
 31
0.0
  0
ARC
  5
368
330
1F
100
AcDbEntity
  8
0
  6
Continuous
 62
     7
370
    35
100
AcDbCircle
 10
127.8033854936
 20
119.3318284281
 30
0.0
 40
1.000000000000085
100
AcDbArc
 50
0.0
 51
90.0
  0
LINE
  5
369
330
1F
100
AcDbEntity
  8
0
  6
Continuous
 62
     7
370
    35
100
AcDbLine
 10
126.9544266138
 20
120.3318283722
 30
0.0
 11
127.8033848826
 21
120.3318283722
 31
0.0
  0
LINE
  5
36A
330
1F
100
AcDbEntity
  8
0
  6
Continuous
 62
     7
370
    35
100
AcDbLine
 10
128.8033850465
 20
119.3318284411
 30
0.0
 11
128.8033850465
 21
117.8318284281
 31
0.0
  0
LINE
  5
36B
330
1F
100
AcDbEntity
  8
0
  6
Continuous
 62
     7
370
    35
100
AcDbLine
 10
127.1054666463
 20
117.8318284281
 30
0.0
 11
128.8033850465
 21
117.8318284281
 31
0.0
  0
ARC
  5
36C
330
1F
100
AcDbEntity
  8
0
  6
Continuous
 62
     7
370
    35
100
AcDbCircle
 10
89.8033854936
 20
119.3318284281
 30
0.0
 40
1.000000000000057
100
AcDbArc
 50
90.0
 51
180.0
  0
LINE
  5
36D
330
1F
100
AcDbEntity
  8
0
  6
Continuous
 62
     7
370
    35
100
AcDbLine
 10
89.8033861045
 20
120.3318283722
 30
0.0
 11
90.6467340861
 21
120.3318283722
 31
0.0
  0
LINE
  5
36E
330
1F
100
AcDbEntity
  8
0
  6
Continuous
 62
     7
370
    35
100
AcDbLine
 10
88.8033859406
 20
119.3318284411
 30
0.0
 11
88.8033859406
 21
117.8318284281
 31
0.0
  0
LINE
  5
36F
330
1F
100
AcDbEntity
  8
0
  6
Continuous
 62
     7
370
    35
100
AcDbLine
 10
88.8033859406
 20
117.8318284281
 30
0.0
 11
90.4900819037
 21
117.8318284281
 31
0.0
  0
LINE
  5
370
330
1F
100
AcDbEntity
  8
0
  6
Continuous
 62
     7
370
    35
100
AcDbLine
 10
125.386153904
 20
102.8318287633
 30
0.0
 11
92.2296024833
 21
102.8318287633
 31
0.0
  0
LINE
  5
371
330
1F
100
AcDbEntity
  8
0
  6
Continuous
 62
     7
370
    35
100
AcDbLine
 10
90.8534057412
 20
102.8318287633
 30
0.0
 11
90.8534057412
 21
117.8318284281
 31
0.0
  0
LINE
  5
372
330
1F
100
AcDbEntity
  8
0
  6
Continuous
 62
     7
370
    35
100
AcDbLine
 10
92.2296024833
 20
102.8318287633
 30
0.0
 11
90.8534057412
 21
102.8318287633
 31
0.0
  0
LINE
  5
373
330
1F
100
AcDbEntity
  8
0
  6
Continuous
 62
     7
370
    35
100
AcDbLine
 10
126.7533652459
 20
102.8318287633
 30
0.0
 11
126.7533652459
 21
117.8318284281
 31
0.0
  0
LINE
  5
374
330
1F
100
AcDbEntity
  8
0
  6
Continuous
 62
     7
370
    35
100
AcDbLine
 10
126.7533652459
 20
102.8318287633
 30
0.0
 11
125.386153904
 21
102.8318287633
 31
0.0
  0
LINE
  5
375
330
1F
100
AcDbEntity
  8
0
  6
Continuous
 62
     7
370
    35
100
AcDbLine
 10
88.8930220131
 20
157.831827534
 30
0.0
 11
89.8033861045
 21
157.831827534
 31
0.0
  0
ELLIPSE
  5
376
330
1F
100
AcDbEntity
  8
0
  6
Continuous
 62
     7
370
    35
100
AcDbEllipse
 10
89.8033854936
 20
142.2845988986
 30
0.0
 11
1.421085471520200E-14
 21
37.57105166928952
 31
0.0
210
0.0
220
0.0
230
1.0
 40
0.0266162366
 41
1.144162467975018
 42
1.570796326794899
  0
LINE
  5
377
330
1F
100
AcDbEntity
  8
0
  6
Continuous
 62
     7
370
    35
100
AcDbLine
 10
88.8033859406
 20
119.3318284411
 30
0.0
 11
88.8033859406
 21
142.2845985569
 31
0.0
  0
LINE
  5
378
330
1F
100
AcDbEntity
  8
0
  6
Continuous
 62
     7
370
    35
100
AcDbLine
 10
89.8033861045
 20
157.831827534
 30
0.0
 11
127.8033848826
 21
157.831827534
 31
0.0
  0
ELLIPSE
  5
379
330
1F
100
AcDbEntity
  8
0
  6
Continuous
 62
     7
370
    35
100
AcDbEllipse
 10
127.8033854936
 20
138.9879188476
 30
0.0
 11
0.0
 21
37.57105166928935
 31
0.0
210
0.0
220
0.0
230
1.0
 40
0.0266162366
 41
4.71238898038469
 42
5.237783040719978
  0
LINE
  5
37A
330
1F
100
AcDbEntity
  8
0
  6
Continuous
 62
     7
370
    35
100
AcDbLine
 10
127.8033848826
 20
157.831827534
 30
0.0
 11
128.6685127739
 21
157.831827534
 31
0.0
  0
LINE
  5
37B
330
1F
100
AcDbEntity
  8
0
  6
Continuous
 62
     7
370
    35
100
AcDbLine
 10
128.8033850465
 20
138.9879196711
 30
0.0
 11
128.8033850465
 21
119.3318284411
 31
0.0
  0
LINE
  5
37C
330
1F
100
AcDbEntity
  8
0
  6
Continuous
 62
     8
370
    18
100
AcDbLine
 10
90.4900819037
 20
119.3318284411
 30
0.0
 11
90.4900819037
 21
117.8318284281
 31
0.0
  0
LINE
  5
37D
330
1F
100
AcDbEntity
  8
0
  6
Continuous
 62
     8
370
    18
100
AcDbLine
 10
127.1054666463
 20
119.3318284411
 30
0.0
 11
90.4900819037
 21
119.3318284411
 31
0.0
  0
LINE
  5
37E
330
1F
100
AcDbEntity
  8
0
  6
Continuous
 62
     8
370
    18
100
AcDbLine
 10
127.1054666463
 20
119.3318284411
 30
0.0
 11
127.1054666463
 21
117.8318284281
 31
0.0
  0
ARC
  5
37F
330
1F
100
AcDbEntity
  8
0
  6
Continuous
 62
     8
370
    18
100
AcDbCircle
 10
92.2034629276
 20
119.5756934655
 30
0.0
 40
1.73064863075241
100
AcDbArc
 50
154.0932100076
 51
188.1004848927
  0
ARC
  5
380
330
1F
100
AcDbEntity
  8
0
  6
Continuous
 62
     8
370
    18
100
AcDbCircle
 10
125.3369654711
 20
119.5761204597
 30
0.0
 40
1.785294092598546
100
AcDbArc
 50
352.1352153743
 51
25.0428556178
  0
LINE
  5
381
330
1F
100
AcDbEntity
  8
0
  6
Continuous
 62
     8
370
    18
100
AcDbLine
 10
128.8033850465
 20
119.3318284411
 30
0.0
 11
127.1054666463
 21
119.3318284411
 31
0.0
  0
LINE
  5
382
330
1F
100
AcDbEntity
  8
0
  6
Continuous
 62
     8
370
    18
100
AcDbLine
 10
90.4900819037
 20
119.3318284411
 30
0.0
 11
88.8033859406
 21
119.3318284411
 31
0.0
  0
LINE
  5
383
330
1F
100
AcDbEntity
  8
0
  6
Continuous
 62
     8
370
    18
100
AcDbLine
 10
125.386153904
 20
102.8318287633
 30
0.0
 11
125.386153904
 21
117.8318284281
 31
0.0
  0
LINE
  5
384
330
1F
100
AcDbEntity
  8
0
  6
Continuous
 62
     8
370
    18
100
AcDbLine
 10
92.2296024833
 20
102.8318287633
 30
0.0
 11
92.2296024833
 21
117.8318284281
 31
0.0
  0
LINE
  5
385
330
1F
100
AcDbEntity
  8
0
  6
Continuous
 62
     8
370
    18
100
AcDbLine
 10
89.8033861045
 20
157.831827534
 30
0.0
 11
89.8033861045
 21
120.3318283722
 31
0.0
  0
LINE
  5
386
330
1F
100
AcDbEntity
  8
0
  6
Continuous
 62
     8
370
    18
100
AcDbLine
 10
127.8033848826
 20
120.3318283722
 30
0.0
 11
127.8033848826
 21
157.831827534
 31
0.0
  0
DIMENSION
  5
387
330
1F
100
AcDbEntity
  8
DESENHO
100
AcDbDimension
  2
_D_2
 10
80.8033854936
 20
102.8318284281
 30
0.0
 11
80.8033854936
 21
130.3318284281
 31
0.0
 70
   160
  1
<>
 71
     2
 42
-1.0
  3
SLDDIMSTYLE2
100
AcDbAlignedDimension
 13
88.8930216502
 23
157.8318284281
 33
0.0
 14
90.853405672
 24
102.8318284281
 34
0.0
 50
90.0
100
AcDbRotatedDimension
  0
MTEXT
  5
392
330
1F
100
AcDbEntity
  8
TEXTOS_EM_PORTUGUES
 62
     7
100
AcDbMText
 10
127.7731475581
 20
168.6771899987
 30
0.0
 40
3.0
 41
0.0
 71
     1
 72
     1
  1
DIMENSÕES
  7
SLDTEXTSTYLE0
 73
     1
 44
1.0
  0
ARC
  5
393
330
1F
100
AcDbEntity
  8
0
  6
Continuous
 62
     7
370
    35
100
AcDbCircle
 10
186.9948808046
 20
119.3318284281
 30
0.0
 40
1.0
100
AcDbArc
 50
0.0
 51
90.0
  0
LINE
  5
394
330
1F
100
AcDbEntity
  8
0
  6
Continuous
 62
     7
370
    35
100
AcDbLine
 10
187.9948824133
 20
117.8318284281
 30
0.0
 11
187.9948824133
 21
119.3318284411
 31
0.0
  0
LINE
  5
395
330
1F
100
AcDbEntity
  8
0
  6
Continuous
 62
     7
370
    35
100
AcDbLine
 10
185.1832456376
 20
102.8318287633
 30
0.0
 11
185.1832456376
 21
117.8318284281
 31
0.0
  0
SPLINE
  5
396
330
1F
100
AcDbEntity
  8
0
  6
Continuous
 62
     7
370
    35
100
AcDbSpline
210
0.0
220
0.0
230
1.0
 70
     8
 71
     3
 72
    17
 73
    13
 74
     0
 42
0.000000001
 43
0.00000001
 40
0.0
 40
0.0
 40
0.0
 40
0.0
 40
0.1328994612021597
 40
0.2426220388503196
 40
0.3311582239320641
 40
0.3996621019945993
 40
0.4533244745955079
 40
0.5413108124865799
 40
0.6600622235283087
 40
0.7572096784434592
 40
0.8699544676185921
 40
1.0
 40
1.0
 40
1.0
 40
1.0
 10
150.8327805021123
 20
114.8318284019847
 30
0.0
 10
150.7536103289885
 20
114.6186799204675
 30
0.0
 10
150.6090767947991
 20
114.2295547976434
 30
0.0
 10
150.471805539454
 20
113.6792641616259
 30
0.0
 10
150.3929351665758
 20
113.2297999172165
 30
0.0
 10
150.3534818646867
 20
112.8715317936884
 30
0.0
 10
150.331807037182
 20
112.51280334124
 30
0.0
 10
150.3308431321055
 20
112.0672403581084
 30
0.0
 10
150.3736366850212
 20
111.5485504142624
 30
0.0
 10
150.4689001765188
 20
110.9944407618307
 30
0.0
 10
150.6104213758304
 20
110.42967068677
 30
0.0
 10
150.7552214083402
 20
110.0403561802542
 30
0.0
 10
150.8327805021123
 20
109.8318280480821
 30
0.0
  0
LINE
  5
397
330
1F
100
AcDbEntity
  8
0
  6
Continuous
 62
     7
370
    35
100
AcDbLine
 10
151.8827813633
 20
117.8318284281
 30
0.0
 11
184.5503858711
 21
117.8318284281
 31
0.0
  0
LINE
  5
398
330
1F
100
AcDbEntity
  8
0
  6
Continuous
 62
     7
370
    35
100
AcDbLine
 10
151.8827813633
 20
117.8318284281
 30
0.0
 11
151.0288718199
 21
142.2845985569
 31
0.0
  0
LINE
  5
399
330
1F
100
AcDbEntity
  8
0
  6
Continuous
 62
     7
370
    35
100
AcDbLine
 10
150.4859505875
 20
157.831827534
 30
0.0
 11
151.0732525129
 21
157.831827534
 31
0.0
  0
LINE
  5
39A
330
1F
100
AcDbEntity
  8
0
  6
Continuous
 62
     7
370
    35
100
AcDbLine
 10
151.0732525129
 20
157.831827534
 30
0.0
 11
153.3827813763
 21
120.3318283722
 31
0.0
  0
LWPOLYLINE
  5
39B
330
1F
100
AcDbEntity
  8
0
  6
Continuous
 62
     7
370
    35
100
AcDbPolyline
 90
       10
 70
   128
 43
0.0
 10
153.3827813763
 20
120.3318283722
 10
153.3684960522
 20
120.3166361727
 10
153.3260738432
 20
120.2715210445
 10
153.2568041656
 20
120.1978538945
 10
153.1627913426
 20
120.0978729237
 10
153.0468919735
 20
119.9746161062
 10
152.9126276217
 20
119.8318285231
 10
152.7640781786
 20
119.673848624
 10
152.605756717
 20
119.5054765619
 10
152.4424741
 20
119.3318284411
  0
LWPOLYLINE
  5
39C
330
1F
100
AcDbEntity
  8
0
  6
Continuous
 62
     7
370
    35
100
AcDbPolyline
 90
       12
 70
   128
 43
0.0
 10
151.0288718199
 20
142.2845985569
 10
150.977998397
 20
143.7414236195
 10
150.927201499
 20
145.1960563488
 10
150.8765575194
 20
146.6463099994
 10
150.8261426351
 20
148.0900034137
 10
150.7760326711
 20
149.5249628849
 10
150.7263029997
 20
150.9490370579
 10
150.6770284103
 20
152.3600764401
 10
150.6282830158
 20
153.7559613414
 10
150.580140158
 20
155.134590698
 10
150.532672218
 20
156.4938969739
 10
150.4859505875
 20
157.831827534
  0
LINE
  5
39D
330
1F
100
AcDbEntity
  8
0
  6
Continuous
 62
     7
370
    35
100
AcDbLine
 10
153.3827813763
 20
120.3318283722
 30
0.0
 11
184.5503858711
 21
120.3318283722
 31
0.0
  0
LINE
  5
39E
330
1F
100
AcDbEntity
  8
0
  6
Continuous
 62
     7
370
    35
100
AcDbLine
 10
184.5503858711
 20
117.8318284281
 30
0.0
 11
186.5256912496
 21
117.8318284281
 31
0.0
  0
LINE
  5
39F
330
1F
100
AcDbEntity
  8
0
  6
Continuous
 62
     7
370
    35
100
AcDbLine
 10
184.5503858711
 20
120.3318283722
 30
0.0
 11
185.5380385604
 21
120.3318283722
 31
0.0
  0
LINE
  5
3A0
330
1F
100
AcDbEntity
  8
0
  6
Continuous
 62
     7
370
    35
100
AcDbLine
 10
185.5380385604
 20
120.3318283722
 30
0.0
 11
186.9948803868
 21
120.3318283722
 31
0.0
  0
LINE
  5
3A1
330
1F
100
AcDbEntity
  8
0
  6
Continuous
 62
     7
370
    35
100
AcDbLine
 10
186.5256912496
 20
117.8318284281
 30
0.0
 11
187.9948824133
 21
117.8318284281
 31
0.0
  0
LINE
  5
3A2
330
1F
100
AcDbEntity
  8
0
  6
Continuous
 62
     7
370
    35
100
AcDbLine
 10
150.8827888507
 20
120.3316144008
 30
0.0
 11
150.8827813738
 21
120.3318283722
 31
0.0
  0
LINE
  5
3A3
330
1F
100
AcDbEntity
  8
0
  6
Continuous
 62
     7
370
    35
100
AcDbLine
 10
150.8827813738
 20
120.3318283722
 30
0.0
 11
149.5732524853
 21
157.831827534
 31
0.0
  0
SPLINE
  5
3A4
330
1F
100
AcDbEntity
  8
0
  6
Continuous
 62
     7
370
    35
100
AcDbSpline
210
0.0
220
0.0
230
1.0
 70
     8
 71
     3
 72
    24
 73
    20
 74
     0
 42
0.000000001
 43
0.00000001
 40
0.0
 40
0.0
 40
0.0
 40
0.0
 40
0.2500000000000006
 40
0.2500000000000006
 40
0.3750000000000008
 40
0.3750000000000008
 40
0.5000000000000011
 40
0.5000000000000011
 40
0.5625000000000013
 40
0.5625000000000013
 40
0.6250000000000018
 40
0.6250000000000018
 40
0.6875000000000021
 40
0.6875000000000021
 40
0.7500000000000024
 40
0.7500000000000024
 40
0.8750000000000012
 40
0.8750000000000012
 40
1.0
 40
1.0
 40
1.0
 40
1.0
 10
151.882781373849
 20
117.8318284280617
 30
0.0
 10
151.8724552284795
 20
118.127530542299
 30
0.0
 10
151.8608435370912
 20
118.4231706638915
 30
0.0
 10
151.8347305252175
 20
118.8662111555598
 30
0.0
 10
151.824588041269
 20
119.0138746592798
 30
0.0
 10
151.7965409540276
 20
119.3083071498007
 30
0.0
 10
151.779464771111
 20
119.455786957157
 30
0.0
 10
151.7338114118697
 20
119.6725591890298
 30
0.0
 10
151.7150951798219
 20
119.744239225794
 30
0.0
 10
151.6617489268528
 20
119.8822432666384
 30
0.0
 10
151.6263236255554
 20
119.9481682894141
 30
0.0
 10
151.5328084380604
 20
120.058148056598
 30
0.0
 10
151.4751875295712
 20
120.1010000759202
 30
0.0
 10
151.3577879217822
 20
120.1650276965425
 30
0.0
 10
151.2982586824054
 20
120.1875182443641
 30
0.0
 10
151.133614183651
 20
120.2420556988906
 30
0.0
 10
151.0415198004881
 20
120.2626742271577
 30
0.0
 10
150.9169665754047
 20
120.2998316642186
 30
0.0
 10
150.8833591888559
 20
120.3152819711741
 30
0.0
 10
150.8827888506571
 20
120.3316143202899
 30
0.0
  0
LINE
  5
3A5
330
1F
100
AcDbEntity
  8
0
  6
Continuous
 62
     7
370
    35
100
AcDbLine
 10
149.5732524853
 20
157.831827534
 30
0.0
 11
150.4859505875
 21
157.831827534
 31
0.0
  0
LINE
  5
3A6
330
1F
100
AcDbEntity
  8
0
  6
Continuous
 62
     7
370
    35
100
AcDbLine
 10
150.8827813455
 20
102.8318287633
 30
0.0
 11
150.8827813738
 21
117.8318284281
 31
0.0
  0
LINE
  5
3A7
330
1F
100
AcDbEntity
  8
0
  6
Continuous
 62
     7
370
    35
100
AcDbLine
 10
151.8827813633
 20
102.8318287633
 30
0.0
 11
150.8827813455
 21
102.8318287633
 31
0.0
  0
LINE
  5
3A8
330
1F
100
AcDbEntity
  8
0
  6
Continuous
 62
     7
370
    35
100
AcDbLine
 10
150.8827813738
 20
117.8318284281
 30
0.0
 11
150.8827813738
 21
120.3318283722
 31
0.0
  0
LINE
  5
3A9
330
1F
100
AcDbEntity
  8
0
  6
Continuous
 62
     7
370
    35
100
AcDbLine
 10
182.4567205693
 20
102.8318287633
 30
0.0
 11
151.8827813633
 21
102.8318287633
 31
0.0
  0
LINE
  5
3AA
330
1F
100
AcDbEntity
  8
0
  6
Continuous
 62
     7
370
    35
100
AcDbLine
 10
184.0409896757
 20
102.8318287633
 30
0.0
 11
182.4567205693
 21
102.8318287633
 31
0.0
  0
LINE
  5
3AB
330
1F
100
AcDbEntity
  8
0
  6
Continuous
 62
     7
370
    35
100
AcDbLine
 10
185.1832456376
 20
102.8318287633
 30
0.0
 11
184.0409896757
 21
102.8318287633
 31
0.0
  0
LINE
  5
3AC
330
1F
100
AcDbEntity
  8
0
  6
Continuous
 62
     7
370
    35
100
AcDbLine
 10
150.8827805008
 20
109.8318280481
 30
0.0
 11
150.8327805021
 21
109.8318280481
 31
0.0
  0
SPLINE
  5
3AD
330
1F
100
AcDbEntity
  8
0
  6
Continuous
 62
     7
370
    35
100
AcDbSpline
210
0.0
220
0.0
230
1.0
 70
     8
 71
     3
 72
    14
 73
    10
 74
     0
 42
0.000000001
 43
0.00000001
 40
0.0
 40
0.0
 40
0.0
 40
0.0
 40
0.25
 40
0.25
 40
0.5
 40
0.5
 40
0.75
 40
0.75
 40
1.0
 40
1.0
 40
1.0
 40
1.0
 10
150.8327805008491
 20
109.8318284280617
 30
0.0
 10
150.8327805008491
 20
109.8318284280617
 30
0.0
 10
150.8260289401421
 20
109.85783515635
 30
0.0
 10
150.8135759864718
 20
109.9580348146043
 30
0.0
 10
150.8084592378401
 20
110.0322682403377
 30
0.0
 10
150.8084423933145
 20
110.2166519385035
 30
0.0
 10
150.8135713928373
 20
110.328120310121
 30
0.0
 10
150.8259462144719
 20
110.5685404304286
 30
0.0
 10
150.8327805008492
 20
110.6996816491661
 30
0.0
 10
150.8327805008492
 20
110.8318284280617
 30
0.0
  0
SPLINE
  5
3AE
330
1F
100
AcDbEntity
  8
0
  6
Continuous
 62
     7
370
    35
100
AcDbSpline
210
0.0
220
0.0
230
1.0
 70
     8
 71
     3
 72
    14
 73
    10
 74
     0
 42
0.000000001
 43
0.00000001
 40
0.0
 40
0.0
 40
0.0
 40
0.0
 40
0.25
 40
0.25
 40
0.5
 40
0.5
 40
0.75
 40
0.75
 40
1.0
 40
1.0
 40
1.0
 40
1.0
 10
150.8327805008492
 20
113.8318284280617
 30
0.0
 10
150.8327805008492
 20
113.9639969993791
 30
0.0
 10
150.8260289401421
 20
114.0935141531986
 30
0.0
 10
150.8135759864718
 20
114.3354424004267
 30
0.0
 10
150.8084592378401
 20
114.4464134648755
 30
0.0
 10
150.8084423933145
 20
114.6309336451411
 30
0.0
 10
150.8135713928373
 20
114.7054532250764
 30
0.0
 10
150.8259462144719
 20
114.8052869964356
 30
0.0
 10
150.8327805008491
 20
114.8318284280617
 30
0.0
 10
150.8327805008491
 20
114.8318284280617
 30
0.0
  0
LINE
  5
3AF
330
1F
100
AcDbEntity
  8
0
  6
Continuous
 62
     7
370
    35
100
AcDbLine
 10
150.8327805021
 20
114.831828402
 30
0.0
 11
150.8827813682
 21
114.831828402
 31
0.0
  0
LINE
  5
3B0
330
1F
100
AcDbEntity
  8
0
  6
Continuous
 62
     7
370
    35
100
AcDbLine
 10
150.8327805021
 20
113.8318282381
 30
0.0
 11
150.8327805021
 21
110.831828212
 31
0.0
  0
LINE
  5
3B1
330
1F
100
AcDbEntity
  8
0
  6
Continuous
 62
     8
370
    18
100
AcDbLine
 10
152.4424741
 20
119.3318284411
 30
0.0
 11
151.0288718199
 21
142.2845985569
 31
0.0
  0
LINE
  5
3B2
330
1F
100
AcDbEntity
  8
0
  6
Continuous
 62
     8
370
    18
100
AcDbLine
 10
184.5503858711
 20
119.3318284411
 30
0.0
 11
152.4424741
 21
119.3318284411
 31
0.0
  0
LINE
  5
3B3
330
1F
100
AcDbEntity
  8
0
  6
Continuous
 62
     8
370
    18
100
AcDbLine
 10
184.5503858711
 20
119.3318284411
 30
0.0
 11
184.5503858711
 21
117.8318284281
 31
0.0
  0
LINE
  5
3B4
330
1F
100
AcDbEntity
  8
0
  6
Continuous
 62
     8
370
    18
100
AcDbLine
 10
184.5503858711
 20
119.3318284411
 30
0.0
 11
184.5503858711
 21
120.3318283722
 31
0.0
  0
LINE
  5
3B5
330
1F
100
AcDbEntity
  8
0
  6
Continuous
 62
     8
370
    18
100
AcDbLine
 10
186.5256912496
 20
119.3318284411
 30
0.0
 11
184.5503858711
 21
119.3318284411
 31
0.0
  0
LINE
  5
3B6
330
1F
100
AcDbEntity
  8
0
  6
Continuous
 62
     8
370
    18
100
AcDbLine
 10
186.5256912496
 20
119.3318284411
 30
0.0
 11
186.5256912496
 21
117.8318284281
 31
0.0
  0
ARC
  5
3B7
330
1F
100
AcDbEntity
  8
0
  6
Continuous
 62
     8
370
    18
100
AcDbCircle
 10
185.5318280434
 20
119.3379656216
 30
0.0
 40
0.9938821547654446
100
AcDbArc
 50
359.6461987244
 51
89.6419709078
  0
LINE
  5
3B8
330
1F
100
AcDbEntity
  8
0
  6
Continuous
 62
     8
370
    18
100
AcDbLine
 10
187.9948824133
 20
119.3318284411
 30
0.0
 11
186.5256912496
 21
119.3318284411
 31
0.0
  0
LINE
  5
3B9
330
1F
100
AcDbEntity
  8
0
  6
Continuous
 62
     8
370
    18
100
AcDbLine
 10
150.8827813738
 20
117.8318284281
 30
0.0
 11
151.8827813633
 21
117.8318284281
 31
0.0
  0
LINE
  5
3BA
330
1F
100
AcDbEntity
  8
0
  6
Continuous
 62
     8
370
    18
100
AcDbLine
 10
151.8827813633
 20
117.8318284281
 30
0.0
 11
151.8827813633
 21
102.8318287633
 31
0.0
  0
LINE
  5
3BB
330
1F
100
AcDbEntity
  8
0
  6
Continuous
 62
     8
370
    18
100
AcDbLine
 10
182.4567205693
 20
102.8318287633
 30
0.0
 11
182.4567205693
 21
117.8318284281
 31
0.0
  0
LINE
  5
3BC
330
1F
100
AcDbEntity
  8
0
  6
Continuous
 62
     8
370
    18
100
AcDbLine
 10
184.0409896757
 20
102.8318287633
 30
0.0
 11
184.0409896757
 21
117.8318284281
 31
0.0
  0
LINE
  5
3BD
330
1F
100
AcDbEntity
  8
0
  6
Continuous
 62
     8
370
    18
100
AcDbLine
 10
150.8327805021
 20
110.831828212
 30
0.0
 11
150.8827805008
 21
110.831828212
 31
0.0
  0
LINE
  5
3BE
330
1F
100
AcDbEntity
  8
0
  6
Continuous
 62
     8
370
    18
100
AcDbLine
 10
150.8827813663
 20
113.8318282381
 30
0.0
 11
150.8327805021
 21
113.8318282381
 31
0.0
  0
DIMENSION
  5
3BF
330
1F
100
AcDbEntity
  8
DESENHO
100
AcDbDimension
  2
_D_3
 10
143.4595449974
 20
117.8318284281
 30
0.0
 11
143.4595449974
 21
137.8318284281
 31
0.0
 70
   160
  1
<>
 71
     2
 42
-1.0
  3
SLDDIMSTYLE2
100
AcDbAlignedDimension
 13
149.5732525179
 23
157.8318284281
 33
0.0
 14
151.8827813738
 24
117.8318284281
 34
0.0
 50
90.0
100
AcDbRotatedDimension
  0
DIMENSION
  5
3C9
330
1F
100
AcDbEntity
  8
DESENHO
 62
     7
100
AcDbDimension
  2
_D_4
 10
187.9948808046
 20
94.8318284281
 30
0.0
 11
169.9388310892
 21
94.8318284281
 31
0.0
 70
   160
  1
<>
 71
     2
 42
-1.0
  3
SLDDIMSTYLE3
100
AcDbAlignedDimension
 13
151.8827813738
 23
117.8318284281
 33
0.0
 14
187.9948808046
 24
117.8318284281
 34
0.0
 50
0.0
100
AcDbRotatedDimension
  0
MTEXT
  5
3D4
330
1F
100
AcDbEntity
  8
DESENHO
100
AcDbMText
 10
183.0713945035
 20
90.8380209967
 30
0.0
 40
1.5
 41
0.0
 71
     2
 72
     1
  1
ESCALA 1:1
  7
SLDTEXTSTYLE0
 73
     1
 44
1.0
  0
ELLIPSE
  5
3D5
330
1F
100
AcDbEntity
  8
0
  6
Continuous
 62
     7
370
    35
100
AcDbEllipse
 10
127.8033854936
 20
81.2644526134
 30
0.0
 11
0.0
 21
1.001894711181066
 31
0.0
210
0.0
220
0.0
230
1.0
 40
0.998108872
 41
3.141592653589662
 42
4.186994920049621
  0
LINE
  5
3D6
330
1F
100
AcDbEntity
  8
0
  6
Continuous
 62
     7
370
    35
100
AcDbLine
 10
89.8033861045
 20
80.2625579072
 30
0.0
 11
127.8033848826
 21
80.2625579072
 31
0.0
  0
ELLIPSE
  5
3D7
330
1F
100
AcDbEntity
  8
0
  6
Continuous
 62
     7
370
    35
100
AcDbEllipse
 10
89.8033854936
 20
81.2644526134
 30
0.0
 11
0.0
 21
-1.001894711181066
 31
0.0
210
0.0
220
0.0
230
1.0
 40
0.998108872
 41
5.139022839204599
 42
6.283185307179586
  0
LINE
  5
3D8
330
1F
100
AcDbEntity
  8
0
  6
Continuous
 62
     7
370
    35
100
AcDbLine
 10
90.8534057412
 20
80.8498598327
 30
0.0
 11
88.8930220131
 21
80.8498598327
 31
0.0
  0
ELLIPSE
  5
3D9
330
1F
100
AcDbEntity
  8
0
  6
Continuous
 62
     7
370
    35
100
AcDbEllipse
 10
125.7533656709
 20
80.7619483579
 30
0.0
 11
0.0
 21
-1.000609544298811
 31
0.0
210
0.0
220
0.0
230
1.0
 40
0.999390827
 41
1.570796326794897
 42
3.141592653589765
  0
LINE
  5
3DA
330
1F
100
AcDbEntity
  8
0
  6
Continuous
 62
     7
370
    35
100
AcDbLine
 10
126.7533652459
 20
80.7619483658
 30
0.0
 11
128.6685127739
 21
80.7619483658
 31
0.0
  0
LINE
  5
3DB
330
1F
100
AcDbEntity
  8
0
  6
Continuous
 62
     7
370
    35
100
AcDbLine
 10
91.8495390538
 20
81.7625579348
 30
0.0
 11
125.7533650819
 21
81.7625579348
 31
0.0
  0
ELLIPSE
  5
3DC
330
1F
100
AcDbEntity
  8
0
  6
Continuous
 62
     7
370
    35
100
AcDbEllipse
 10
91.8495386887
 20
80.7619483579
 30
0.0
 11
0.0
 21
1.000609544298811
 31
0.0
210
0.0
220
0.0
230
1.0
 40
0.999390827
 41
0.0
 42
1.482824988230031
  0
LINE
  5
3DD
330
1F
100
AcDbEntity
  8
0
  6
Continuous
 62
     7
370
    35
100
AcDbLine
 10
89.8033861045
 20
77.9530290438
 30
0.0
 11
127.8033848826
 21
77.9530290438
 31
0.0
  0
ELLIPSE
  5
3DE
330
1F
100
AcDbEntity
  8
0
  6
Continuous
 62
     7
370
    35
100
AcDbEllipse
 10
89.8033854936
 20
78.8933363213
 30
0.0
 11
1.0
 21
0.0
 31
0.0
210
0.0
220
0.0
230
1.0
 40
0.940307275
 41
3.141592653589672
 42
4.712388980384675
  0
LINE
  5
3DF
330
1F
100
AcDbEntity
  8
0
  6
Continuous
 62
     7
370
    35
100
AcDbLine
 10
88.8033859406
 20
78.8933363202
 30
0.0
 11
88.8033859406
 21
80.3069386002
 31
0.0
  0
ELLIPSE
  5
3E0
330
1F
100
AcDbEntity
  8
0
  6
Continuous
 62
     7
370
    35
100
AcDbEllipse
 10
89.8033854936
 20
80.3069386073
 30
0.0
 11
4.263256414560602E-14
 21
1.312010034905541
 31
0.0
210
0.0
220
0.0
230
1.0
 40
0.7621892923
 41
1.144162467975036
 42
1.570796326794856
  0
LINE
  5
3E1
330
1F
100
AcDbEntity
  8
0
  6
Continuous
 62
     7
370
    35
100
AcDbLine
 10
128.8033850465
 20
80.103904531
 30
0.0
 11
128.8033850465
 21
78.8933363202
 31
0.0
  0
ELLIPSE
  5
3E2
330
1F
100
AcDbEntity
  8
0
  6
Continuous
 62
     7
370
    35
100
AcDbEllipse
 10
127.8033854936
 20
78.8933363213
 30
0.0
 11
1.000000000000014
 21
0.0
 31
0.0
210
0.0
220
0.0
230
1.0
 40
0.940307275
 41
4.71238898038476
 42
6.283185307179586
  0
ELLIPSE
  5
3E3
330
1F
100
AcDbEntity
  8
0
  6
Continuous
 62
     7
370
    35
100
AcDbEllipse
 10
127.8033854936
 20
80.1039045351
 30
0.0
 11
2.842170943040401E-14
 21
1.312010034905541
 31
0.0
210
0.0
220
0.0
230
1.0
 40
0.7621892923
 41
4.712388980384739
 42
5.237783040719943
  0
LINE
  5
3E4
330
1F
100
AcDbEntity
  8
0
  6
Continuous
 62
     7
370
    35
100
AcDbLine
 10
128.8033850465
 20
78.8933363202
 30
0.0
 11
128.8033850465
 21
46.6832025832
 31
0.0
  0
LINE
  5
3E5
330
1F
100
AcDbEntity
  8
0
  6
Continuous
 62
     7
370
    35
100
AcDbLine
 10
88.8033859406
 20
46.785424549
 30
0.0
 11
88.8033859406
 21
78.8933363202
 31
0.0
  0
ARC
  5
3E6
330
1F
100
AcDbEntity
  8
0
  6
Continuous
 62
     7
370
    35
100
AcDbCircle
 10
126.8033854936
 20
46.6832022665
 30
0.0
 40
2.000000000000014
100
AcDbArc
 50
278.6872265363
 51
0.0
  0
ARC
  5
3E7
330
1F
100
AcDbEntity
  8
0
  6
Continuous
 62
     7
370
    35
100
AcDbCircle
 10
90.8033854936
 20
46.7854252705
 30
0.0
 40
1.999999999999986
100
AcDbArc
 50
180.0
 51
260.9873884107
  0
ARC
  5
3E8
330
1F
100
AcDbEntity
  8
0
  6
Continuous
 62
     7
370
    35
100
AcDbCircle
 10
109.1316537032
 20
162.3409296155
 30
0.0
 40
119.0
100
AcDbArc
 50
260.9873884107
 51
278.6872265363
  0
LINE
  5
3E9
330
1F
100
AcDbEntity
  8
0
  6
Continuous
 62
     8
370
    18
100
AcDbLine
 10
127.8033848826
 20
77.9530290438
 30
0.0
 11
127.8033848826
 21
80.2625579072
 31
0.0
  0
LINE
  5
3EA
330
1F
100
AcDbEntity
  8
0
  6
Continuous
 62
     8
370
    18
100
AcDbLine
 10
89.8033861045
 20
80.2625579072
 30
0.0
 11
89.8033861045
 21
77.9530290438
 31
0.0
  0
LINE
  5
3EB
330
1F
100
AcDbEntity
  8
0
  6
Continuous
 62
     8
370
    18
100
AcDbLine
 10
128.8033850465
 20
46.6832025832
 30
0.0
 11
127.8033848826
 21
46.6832025832
 31
0.0
  0
LINE
  5
3EC
330
1F
100
AcDbEntity
  8
0
  6
Continuous
 62
     8
370
    18
100
AcDbLine
 10
127.8033848826
 20
46.6832025832
 30
0.0
 11
127.8033848826
 21
77.9530290438
 31
0.0
  0
ARC
  5
3ED
330
1F
100
AcDbEntity
  8
0
  6
Continuous
 62
     8
370
    18
100
AcDbCircle
 10
126.8033854936
 20
46.6832022665
 30
0.0
 40
1.000000000000036
100
AcDbArc
 50
278.6872265363
 51
360.0
  0
ARC
  5
3EE
330
1F
100
AcDbEntity
  8
0
  6
Continuous
 62
     8
370
    18
100
AcDbCircle
 10
109.1316537032
 20
162.3409296155
 30
0.0
 40
118.0000000000002
100
AcDbArc
 50
260.9873884107
 51
278.6872265363
  0
ARC
  5
3EF
330
1F
100
AcDbEntity
  8
0
  6
Continuous
 62
     8
370
    18
100
AcDbCircle
 10
90.8033854936
 20
46.7854252705
 30
0.0
 40
1.000000000000026
100
AcDbArc
 50
180.0
 51
260.9873884107
  0
LINE
  5
3F0
330
1F
100
AcDbEntity
  8
0
  6
Continuous
 62
     8
370
    18
100
AcDbLine
 10
89.8033861045
 20
77.9530290438
 30
0.0
 11
89.8033861045
 21
46.785424549
 31
0.0
  0
LINE
  5
3F1
330
1F
100
AcDbEntity
  8
0
  6
Continuous
 62
     8
370
    18
100
AcDbLine
 10
88.8033859406
 20
46.785424549
 30
0.0
 11
89.8033861045
 21
46.785424549
 31
0.0
  0
LWPOLYLINE
  5
3F2
330
1F
100
AcDbEntity
  8
0
  6
Continuous
 62
     8
370
    18
100
AcDbPolyline
 90
        9
 70
   128
 43
0.0
 10
127.1054666463
 20
44.7061463183
 10
127.1025646452
 20
44.7251415736
 10
127.0939685378
 20
44.7813934571
 10
127.0800117377
 20
44.8727450258
 10
127.0612269614
 20
44.9956796056
 10
127.0383387778
 20
45.1454772538
 10
127.0122263555
 20
45.3163823968
 10
126.9838917975
 20
45.5018236226
 10
126.9544266138
 20
45.6946744508
  0
LWPOLYLINE
  5
3F3
330
1F
100
AcDbEntity
  8
0
  6
Continuous
 62
     8
370
    18
100
AcDbPolyline
 90
        9
 70
   128
 43
0.0
 10
90.4900819037
 20
44.8101191706
 10
90.4930919383
 20
44.8290957993
 10
90.502006558
 20
44.8852992541
 10
90.5164830361
 20
44.9765688664
 10
90.5359644417
 20
45.0993954128
 10
90.5597019915
 20
45.2490589506
 10
90.5867848519
 20
45.4198113567
 10
90.6161718045
 20
45.6050886697
 10
90.6467340861
 20
45.7977718598
  0
DIMENSION
  5
3F4
330
1F
100
AcDbEntity
  8
DESENHO
100
AcDbDimension
  2
_D_5
 10
88.8033854936
 20
89.7625579022
 30
0.0
 11
108.8033854936
 21
89.7625579022
 31
0.0
 70
   160
  1
<>
 71
     2
 42
-1.0
  3
SLDDIMSTYLE2
100
AcDbAlignedDimension
 13
128.8033854936
 23
80.1039045351
 33
0.0
 14
88.8033854936
 24
80.3069386073
 34
0.0
 50
0.0
100
AcDbRotatedDimension
  0
DIMENSION
  5
3FE
330
1F
100
AcDbEntity
  8
DESENHO
 62
     7
100
AcDbDimension
  2
_D_6
 10
80.8033854936
 20
43.3409296155
 30
0.0
 11
80.8033854936
 21
62.0953947207
 31
0.0
 70
   160
  1
<>
 71
     2
 42
-1.0
  3
SLDDIMSTYLE3
100
AcDbAlignedDimension
 13
88.8930216502
 23
80.849859826
 33
0.0
 14
109.1316537032
 24
43.3409296155
 34
0.0
 50
90.0
100
AcDbRotatedDimension
  0
LINE
  5
408
330
1F
100
AcDbEntity
  8
0
  6
Continuous
 62
     7
370
    18
100
AcDbLine
 10
122.2268037386
 20
187.3717051245
 30
0.0
 11
122.2268037386
 21
257.2335306801
 31
0.0
  0
LINE
  5
409
330
1F
100
AcDbEntity
  8
0
  6
Continuous
 62
     7
370
    18
100
AcDbLine
 10
175.1272819825
 20
187.3717051245
 30
0.0
 11
175.1272819825
 21
217.2335315742
 31
0.0
  0
LINE
  5
40A
330
1F
100
AcDbEntity
  8
0
  6
Continuous
 62
     7
370
    18
100
AcDbLine
 10
110.5222843476
 20
257.2335306801
 30
0.0
 11
110.5222843476
 21
187.3717051245
 31
0.0
  0
LINE
  5
40B
330
1F
100
AcDbEntity
  8
0
  6
Continuous
 62
     7
370
    18
100
AcDbLine
 10
118.4069506712
 20
257.2335306801
 30
0.0
 11
118.4069506712
 21
187.3717051245
 31
0.0
  0
ARC
  5
40C
330
1F
100
AcDbEntity
  8
0
  6
Continuous
 62
     7
370
    35
100
AcDbCircle
 10
174.838909421
 20
218.7335255987
 30
0.0
 40
1.000007316634177
100
AcDbArc
 50
0.0005165379
 51
89.9996969055
  0
LINE
  5
40D
330
1F
100
AcDbEntity
  8
0
  6
Continuous
 62
     7
370
    35
100
AcDbLine
 10
175.8389167376
 20
217.2335315742
 30
0.0
 11
175.8389167376
 21
218.733534614
 31
0.0
  0
LWPOLYLINE
  5
40E
330
1F
100
AcDbEntity
  8
0
  6
PHANTOM
 62
     7
370
    18
100
AcDbPolyline
 90
      172
 70
   128
 43
0.0
 10
110.5222843476
 20
187.3717051245
 10
110.6303028651
 20
187.2309245415
 10
110.7151649781
 20
187.2030556448
 10
110.8000419922
 20
187.2766766943
 10
110.8667246886
 20
187.3717051245
 10
110.952823598
 20
187.2594900675
 10
111.0204748698
 20
187.2372742988
 10
111.0881261416
 20
187.2959587969
 10
111.1412785836
 20
187.3717051245
 10
111.3574795313
 20
187.0899278917
 10
111.5273527689
 20
187.0341435321
 10
111.6972260066
 20
187.1815029778
 10
111.8306957074
 20
187.3717051245
 10
111.8932656832
 20
187.290147344
 10
111.9424395152
 20
187.2740019359
 10
111.9916133471
 20
187.3166527845
 10
112.0302371569
 20
187.3717051245
 10
112.2321478911
 20
187.0205071069
 10
112.4753199406
 20
186.7714677252
 10
112.7931617089
 20
186.7112186052
 10
113.1605796404
 20
186.8102237828
 10
113.8545416184
 20
187.1630516149
 10
114.5472220965
 20
187.3717051245
 10
114.6413080283
 20
187.2490871944
 10
114.7152177878
 20
187.2248113401
 10
114.7891424485
 20
187.2889366247
 10
114.8472271748
 20
187.3717051245
 10
115.1327930279
 20
186.875012169
 10
115.4766969271
 20
186.5228008725
 10
115.9262202569
 20
186.4375904448
 10
116.44585355
 20
186.5776129313
 10
117.427318532
 20
187.0766099788
 10
118.4069506712
 20
187.3717051245
 10
118.5072503872
 20
187.2409809627
 10
118.5860626288
 20
187.215101371
 10
118.6648748703
 20
187.2834641732
 10
118.7267891951
 20
187.3717051245
 10
119.0403841324
 20
186.9629848994
 10
119.2867897339
 20
186.8820715942
 10
119.5331953354
 20
187.095815713
 10
119.7267912217
 20
187.3717051245
 10
120.0981430598
 20
186.8709068991
 10
120.3633241244
 20
186.8206378318
 10
120.6698708125
 20
186.9032424189
 10
121.2488703318
 20
187.1976185836
 10
121.8267969676
 20
187.3717051245
 10
121.9522349425
 20
187.2082151719
 10
122.0508061238
 20
187.1758479871
 10
122.1493624039
 20
187.2613471247
 10
122.2268037386
 20
187.3717051245
 10
122.7241597958
 20
186.5066312499
 10
123.3231268712
 20
185.8931970097
 10
124.1060487814
 20
185.7447907575
 10
125.0110708066
 20
185.9886612989
 10
126.1891268082
 20
186.5745954461
 10
127.2576890774
 20
187.0871320613
 10
128.4266553708
 20
187.3717051245
 10
128.5207711049
 20
187.2490499415
 10
128.5947106667
 20
187.2247684993
 10
128.6686502285
 20
187.2889124103
 10
128.726749856
 20
187.3717051245
 10
128.8208655901
 20
187.2490443535
 10
128.894805152
 20
187.2247610487
 10
128.968759615
 20
187.288908685
 10
129.0268592425
 20
187.3717051245
 10
129.5242302008
 20
186.5066182114
 10
130.1231972762
 20
185.8931765206
 10
130.9061191865
 20
185.7447665431
 10
131.8111710139
 20
185.9886408098
 10
132.9892419167
 20
186.5745842703
 10
134.0578190871
 20
187.087128336
 10
135.2268002816
 20
187.3717051245
 10
135.3208862134
 20
187.2490871944
 10
135.3947959729
 20
187.2248113401
 10
135.4687206336
 20
187.2889366247
 10
135.5268053599
 20
187.3717051245
 10
135.9281234332
 20
186.6352990516
 10
136.3690338917
 20
185.9982669599
 10
136.8891589232
 20
185.5599809684
 10
137.5212810822
 20
185.4057576753
 10
138.4931199141
 20
185.5787527062
 10
139.5011536665
 20
185.992582167
 10
140.4285721369
 20
186.4425096907
 10
141.078173358
 20
186.7642537005
 10
141.7735807486
 20
187.1270206072
 10
142.5161950179
 20
187.4178298064
 10
143.0321924277
 20
187.3691775151
 10
143.4683196135
 20
186.9814139105
 10
143.8496701308
 20
186.4386279382
 10
144.2167453356
 20
185.9916974105
 10
144.4735370465
 20
185.8708881088
 10
144.7521366067
 20
185.9636534251
 10
145.3550748415
 20
186.5425225593
 10
145.8099998422
 20
186.9331695385
 10
146.0269980021
 20
186.9967025019
 10
146.2329171486
 20
186.9299322613
 10
146.666600544
 20
186.4461250849
 10
147.000133235
 20
185.9539639451
 10
147.3964743205
 20
185.5470188208
 10
147.8337339945
 20
185.5501406141
 10
148.3026139327
 20
185.9052799888
 10
148.774101574
 20
186.3628983744
 10
149.6979214139
 20
187.0563816525
 10
150.7078401633
 20
187.4059573062
 10
151.8308587261
 20
187.3332657166
 10
152.3563332744
 20
187.0587602504
 10
152.8073467203
 20
186.577467645
 10
153.1989715882
 20
185.8735759057
 10
153.376533825
 20
185.5835732319
 10
153.5018749424
 20
185.494626338
 10
153.5911999531
 20
185.5394229539
 10
153.6776862927
 20
185.6736116357
 10
153.9086244889
 20
186.2801391877
 10
154.1231639572
 20
186.8000872679
 10
154.3194867559
 20
187.021078939
 10
154.4448800273
 20
187.0312787838
 10
154.5791841932
 20
186.9672000654
 10
154.868877668
 20
186.6688248016
 10
155.3351424523
 20
185.9929956742
 10
155.805877585
 20
185.3588935234
 10
156.1391048022
 20
185.1243231692
 10
156.4419262
 20
185.2227732785
 10
156.9065965601
 20
185.9168600537
 10
157.268039126
 20
186.606495107
 10
157.7288426347
 20
187.2010048725
 10
158.3408035226
 20
187.4230303116
 10
158.9037544914
 20
187.3010624446
 10
159.4118542858
 20
186.9452636935
 10
159.7585745044
 20
186.3947514691
 10
159.9702902027
 20
185.7806504019
 10
160.1169772335
 20
185.3489004321
 10
160.2538965531
 20
185.1388965048
 10
160.4666925855
 20
185.0963481017
 10
160.7410825677
 20
185.238833005
 10
161.5292720385
 20
185.9672352918
 10
162.4565191455
 20
186.7785476394
 10
162.9349060245
 20
187.0305281378
 10
163.4031973668
 20
187.0815199114
 10
163.8466335722
 20
186.8634060271
 10
164.2560206242
 20
186.4802822717
 10
164.5086474605
 20
186.2812679507
 10
164.7441826649
 20
186.2352252253
 10
164.9863339849
 20
186.4454116918
 10
165.1578463502
 20
186.7378283538
 10
165.4427192994
 20
187.2914307065
 10
165.4905296751
 20
187.3496849336
 10
165.524869401
 20
187.3711798586
 10
165.5604310222
 20
187.3664152123
 10
165.5928857513
 20
187.3326603569
 10
165.6997419782
 20
187.0069712646
 10
165.7855428644
 20
186.6217147805
 10
166.0066462942
 20
185.9597213812
 10
166.2865869589
 20
185.7447702684
 10
166.6715137549
 20
185.8372897156
 10
167.1082891412
 20
186.0289689399
 10
167.5401545949
 20
186.0958844669
 10
167.9336272069
 20
185.9365780152
 10
168.2991303392
 20
185.6802799054
 10
168.6519376822
 20
185.481761048
 10
169.0055347868
 20
185.472181464
 10
169.4539256282
 20
185.7023149975
 10
169.9052818008
 20
186.0806629308
 10
170.6144727655
 20
186.6715144612
 10
171.8737922497
 20
187.3717051245
 10
172.2236417122
 20
186.8998971082
 10
172.7622814365
 20
186.930358807
 10
173.3077682443
 20
187.2076954939
 10
173.8522343226
 20
187.3717051245
 10
174.2520920821
 20
186.8505686768
 10
174.5662607141
 20
186.7474004872
 10
174.8804293461
 20
187.0199352749
 10
175.1272819825
 20
187.3717051245
  0
LINE
  5
40F
330
1F
100
AcDbEntity
  8
0
  6
Continuous
 62
     7
370
    18
100
AcDbLine
 10
118.7267891951
 20
257.2335306801
 30
0.0
 11
118.7267891951
 21
187.3717051245
 31
0.0
  0
LINE
  5
410
330
1F
100
AcDbEntity
  8
0
  6
Continuous
 62
     7
370
    18
100
AcDbLine
 10
118.7267891951
 20
257.2335306801
 30
0.0
 11
119.7267912217
 21
257.2335306801
 31
0.0
  0
LINE
  5
411
330
1F
100
AcDbEntity
  8
0
  6
Continuous
 62
     7
370
    18
100
AcDbLine
 10
119.7267912217
 20
257.2335306801
 30
0.0
 11
121.8267969676
 21
257.2335306801
 31
0.0
  0
LINE
  5
412
330
1F
100
AcDbEntity
  8
0
  6
Continuous
 62
     7
370
    18
100
AcDbLine
 10
121.8267969676
 20
257.2335306801
 30
0.0
 11
122.2268037386
 21
257.2335306801
 31
0.0
  0
LINE
  5
413
330
1F
100
AcDbEntity
  8
0
  6
Continuous
 62
     7
370
    18
100
AcDbLine
 10
135.2268002816
 20
257.2335306801
 30
0.0
 11
135.2268002816
 21
187.3717051245
 31
0.0
  0
LINE
  5
414
330
1F
100
AcDbEntity
  8
0
  6
Continuous
 62
     7
370
    18
100
AcDbLine
 10
135.2268002816
 20
257.2335306801
 30
0.0
 11
135.5268053599
 21
257.2335306801
 31
0.0
  0
LINE
  5
415
330
1F
100
AcDbEntity
  8
0
  6
Continuous
 62
     7
370
    18
100
AcDbLine
 10
138.727544982
 20
245.8488796152
 30
0.0
 11
138.727544982
 21
217.2335315742
 31
0.0
  0
LINE
  5
416
330
1F
100
AcDbEntity
  8
0
  6
Continuous
 62
     7
370
    18
100
AcDbLine
 10
138.727544982
 20
217.2335315742
 30
0.0
 11
139.7268168517
 21
217.2335315742
 31
0.0
  0
LINE
  5
417
330
1F
100
AcDbEntity
  8
0
  6
Continuous
 62
     7
370
    18
100
AcDbLine
 10
135.5268053599
 20
257.2335306801
 30
0.0
 11
138.3299820014
 21
257.2335306801
 31
0.0
  0
LINE
  5
418
330
1F
100
AcDbEntity
  8
0
  6
Continuous
 62
     7
370
    18
100
AcDbLine
 10
111.1412785836
 20
257.2335306801
 30
0.0
 11
111.1412785836
 21
187.3717051245
 31
0.0
  0
LINE
  5
419
330
1F
100
AcDbEntity
  8
0
  6
Continuous
 62
     7
370
    18
100
AcDbLine
 10
110.8667246886
 20
257.2335306801
 30
0.0
 11
111.1412785836
 21
257.2335306801
 31
0.0
  0
LINE
  5
41A
330
1F
100
AcDbEntity
  8
0
  6
Continuous
 62
     7
370
    18
100
AcDbLine
 10
110.5222843476
 20
257.2335306801
 30
0.0
 11
110.8667246886
 21
257.2335306801
 31
0.0
  0
LINE
  5
41B
330
1F
100
AcDbEntity
  8
0
  6
Continuous
 62
     7
370
    18
100
AcDbLine
 10
111.1412785836
 20
257.2335306801
 30
0.0
 11
111.8306957074
 21
257.2335306801
 31
0.0
  0
LINE
  5
41C
330
1F
100
AcDbEntity
  8
0
  6
Continuous
 62
     7
370
    18
100
AcDbLine
 10
128.4266553708
 20
257.2335306801
 30
0.0
 11
128.4266553708
 21
187.3717051245
 31
0.0
  0
LINE
  5
41D
330
1F
100
AcDbEntity
  8
0
  6
Continuous
 62
     7
370
    18
100
AcDbLine
 10
122.2268037386
 20
257.2335306801
 30
0.0
 11
128.4266553708
 21
257.2335306801
 31
0.0
  0
LINE
  5
41E
330
1F
100
AcDbEntity
  8
0
  6
Continuous
 62
     7
370
    18
100
AcDbLine
 10
128.726749856
 20
257.2335306801
 30
0.0
 11
128.726749856
 21
187.3717051245
 31
0.0
  0
LINE
  5
41F
330
1F
100
AcDbEntity
  8
0
  6
Continuous
 62
     7
370
    18
100
AcDbLine
 10
128.4266553708
 20
257.2335306801
 30
0.0
 11
128.726749856
 21
257.2335306801
 31
0.0
  0
LINE
  5
420
330
1F
100
AcDbEntity
  8
0
  6
Continuous
 62
     7
370
    18
100
AcDbLine
 10
129.0268592425
 20
257.2335306801
 30
0.0
 11
129.0268592425
 21
187.3717051245
 31
0.0
  0
LINE
  5
421
330
1F
100
AcDbEntity
  8
0
  6
Continuous
 62
     7
370
    18
100
AcDbLine
 10
128.726749856
 20
257.2335306801
 30
0.0
 11
129.0268592425
 21
257.2335306801
 31
0.0
  0
LINE
  5
422
330
1F
100
AcDbEntity
  8
0
  6
Continuous
 62
     7
370
    18
100
AcDbLine
 10
129.0268592425
 20
257.2335306801
 30
0.0
 11
135.2268002816
 21
257.2335306801
 31
0.0
  0
LINE
  5
423
330
1F
100
AcDbEntity
  8
0
  6
Continuous
 62
     7
370
    18
100
AcDbLine
 10
111.8306957074
 20
257.2335306801
 30
0.0
 11
112.0302371569
 21
257.2335306801
 31
0.0
  0
LINE
  5
424
330
1F
100
AcDbEntity
  8
0
  6
Continuous
 62
     7
370
    18
100
AcDbLine
 10
112.0302371569
 20
257.2335306801
 30
0.0
 11
114.5472220965
 21
257.2335306801
 31
0.0
  0
LINE
  5
425
330
1F
100
AcDbEntity
  8
0
  6
Continuous
 62
     7
370
    18
100
AcDbLine
 10
114.8472271748
 20
257.2335306801
 30
0.0
 11
114.8472271748
 21
187.3717051245
 31
0.0
  0
LINE
  5
426
330
1F
100
AcDbEntity
  8
0
  6
Continuous
 62
     7
370
    18
100
AcDbLine
 10
114.5472220965
 20
257.2335306801
 30
0.0
 11
114.8472271748
 21
257.2335306801
 31
0.0
  0
LINE
  5
427
330
1F
100
AcDbEntity
  8
0
  6
Continuous
 62
     7
370
    18
100
AcDbLine
 10
118.4069506712
 20
257.2335306801
 30
0.0
 11
118.7267891951
 21
257.2335306801
 31
0.0
  0
LINE
  5
428
330
1F
100
AcDbEntity
  8
0
  6
Continuous
 62
     7
370
    18
100
AcDbLine
 10
114.8472271748
 20
257.2335306801
 30
0.0
 11
118.4267841168
 21
257.2335306801
 31
0.0
  0
LINE
  5
429
330
1F
100
AcDbEntity
  8
0
  6
Continuous
 62
     7
370
    35
100
AcDbLine
 10
138.3299820014
 20
257.2335306801
 30
0.0
 11
138.9172814675
 21
257.2335306801
 31
0.0
  0
LINE
  5
42A
330
1F
100
AcDbEntity
  8
0
  6
Continuous
 62
     7
370
    35
100
AcDbLine
 10
138.9172814675
 20
257.2335306801
 30
0.0
 11
141.2268124409
 21
219.7335329153
 31
0.0
  0
LWPOLYLINE
  5
42B
330
1F
100
AcDbEntity
  8
0
  6
Continuous
 62
     7
370
    35
100
AcDbPolyline
 90
       10
 70
   128
 43
0.0
 10
141.2268124409
 20
219.7335329153
 10
141.2125371285
 20
219.7183411814
 10
141.1701135226
 20
219.6732241906
 10
141.1008380242
 20
219.5995603003
 10
141.0068265982
 20
219.499577234
 10
140.8909253665
 20
219.3763222791
 10
140.7566659041
 20
219.233531902
 10
140.6081162282
 20
219.0755535163
 10
140.4497913905
 20
218.9071815707
 10
140.2865044661
 20
218.733534614
  0
LWPOLYLINE
  5
42C
330
1F
100
AcDbEntity
  8
0
  6
Continuous
 62
     7
370
    35
100
AcDbPolyline
 90
        9
 70
   128
 43
0.0
 10
138.8729058095
 20
241.686307291
 10
138.80297466
 20
243.6889861025
 10
138.7332372256
 20
245.6859801211
 10
138.6639021225
 20
247.671597103
 10
138.5951481648
 20
249.6402044095
 10
138.5271988698
 20
251.5861843027
 10
138.4602181502
 20
253.504023353
 10
138.3944295235
 20
255.3882602848
 10
138.3299820014
 20
257.2335306801
  0
LINE
  5
42D
330
1F
100
AcDbEntity
  8
0
  6
Continuous
 62
     7
370
    35
100
AcDbLine
 10
139.7268168517
 20
217.2335315742
 30
0.0
 11
172.3944164701
 21
217.2335315742
 31
0.0
  0
LINE
  5
42E
330
1F
100
AcDbEntity
  8
0
  6
Continuous
 62
     7
370
    35
100
AcDbLine
 10
139.7268168517
 20
217.2335315742
 30
0.0
 11
138.8729058095
 21
241.686307291
 31
0.0
  0
LINE
  5
42F
330
1F
100
AcDbEntity
  8
0
  6
Continuous
 62
     7
370
    35
100
AcDbLine
 10
141.2268124409
 20
219.7335329153
 30
0.0
 11
172.3944164701
 21
219.7335329153
 31
0.0
  0
LINE
  5
430
330
1F
100
AcDbEntity
  8
0
  6
Continuous
 62
     7
370
    35
100
AcDbLine
 10
172.3944164701
 20
219.7335329153
 30
0.0
 11
173.3820728846
 21
219.7335329153
 31
0.0
  0
LINE
  5
431
330
1F
100
AcDbEntity
  8
0
  6
Continuous
 62
     7
370
    35
100
AcDbLine
 10
172.3944164701
 20
217.2335315742
 30
0.0
 11
174.3697292991
 21
217.2335315742
 31
0.0
  0
LINE
  5
432
330
1F
100
AcDbEntity
  8
0
  6
Continuous
 62
     7
370
    35
100
AcDbLine
 10
173.3820728846
 20
219.7335329153
 30
0.0
 11
174.838914711
 21
219.7335329153
 31
0.0
  0
LINE
  5
433
330
1F
100
AcDbEntity
  8
0
  6
Continuous
 62
     7
370
    35
100
AcDbLine
 10
174.3697292991
 20
217.2335315742
 30
0.0
 11
175.8389167376
 21
217.2335315742
 31
0.0
  0
SPLINE
  5
434
330
1F
100
AcDbEntity
  8
0
  6
Continuous
 62
     7
370
    35
100
AcDbSpline
210
0.0
220
0.0
230
1.0
 70
     8
 71
     3
 72
    36
 73
    32
 74
     0
 42
0.000000001
 43
0.00000001
 40
0.0
 40
0.0
 40
0.0
 40
0.0
 40
0.0028555424294861
 40
0.0067209975914614
 40
0.0120142412074567
 40
0.0190140027608837
 40
0.0282704721039793
 40
0.0394874957967323
 40
0.0528420257356363
 40
0.0681678659643535
 40
0.0844760374906409
 40
0.102577384240251
 40
0.1223172007484228
 40
0.1437703948698458
 40
0.164981612496267
 40
0.1869703744231182
 40
0.2101304646690017
 40
0.2308599587893395
 40
0.2745874091100243
 40
0.3070656995795637
 40
0.3401237455320772
 40
0.3665690427479597
 40
0.3931462160287963
 40
0.419942310183798
 40
0.4467804669002102
 40
0.4942770422906397
 40
0.5418287055829376
 40
0.6371112325616566
 40
0.7278075792822146
 40
0.8185213948321208
 40
1.0
 40
1.0
 40
1.0
 40
1.0
 10
138.7268297262687
 20
219.7333205737277
 30
0.0
 10
138.7275842505744
 20
219.7305034630907
 30
0.0
 10
138.7293601499582
 20
219.7238729211627
 30
0.0
 10
138.7391888563966
 20
219.7159911490164
 30
0.0
 10
138.7529952667589
 20
219.707914156408
 30
0.0
 10
138.7729454275762
 20
219.699431877523
 30
0.0
 10
138.7988460394256
 20
219.6903320498775
 30
0.0
 10
138.8312322322427
 20
219.6804621088381
 30
0.0
 10
138.8696610839374
 20
219.6697116703203
 30
0.0
 10
138.9131201278876
 20
219.6580287033123
 30
0.0
 10
138.9611590879718
 20
219.6451013156287
 30
0.0
 10
139.013321177404
 20
219.6305062766258
 30
0.0
 10
139.0701134182304
 20
219.6133881450855
 30
0.0
 10
139.1292701105917
 20
219.5934143575273
 30
0.0
 10
139.189512848396
 20
219.5698088323894
 30
0.0
 10
139.2496827534127
 20
219.5416432116319
 30
0.0
 10
139.3067760103107
 20
219.5084925288912
 30
0.0
 10
139.3775920238664
 20
219.456634698155
 30
0.0
 10
139.4447809558954
 20
219.3850923952836
 30
0.0
 10
139.5012332548285
 20
219.2910097915856
 30
0.0
 10
139.5372400421772
 20
219.2061003823077
 30
0.0
 10
139.5637128537916
 20
219.1241102252395
 30
0.0
 10
139.5837011508579
 20
219.0467755642455
 30
0.0
 10
139.6003568470297
 20
218.9682719347332
 30
0.0
 10
139.6179989750634
 20
218.8686507002771
 30
0.0
 10
139.6350431990668
 20
218.7478985009878
 30
0.0
 10
139.6560831569385
 20
218.5586688688456
 30
0.0
 10
139.675073016153
 20
218.3258099222178
 30
0.0
 10
139.6920356732568
 20
218.049560675654
 30
0.0
 10
139.7101321904278
 20
217.6870201803225
 30
0.0
 10
139.7201426122357
 20
217.4149372073454
 30
0.0
 10
139.7268168516654
 20
217.2335315741702
 30
0.0
  0
LINE
  5
435
330
1F
100
AcDbEntity
  8
0
  6
Continuous
 62
     8
370
    18
100
AcDbLine
 10
119.7267912217
 20
257.2335306801
 30
0.0
 11
119.7267912217
 21
187.3717051245
 31
0.0
  0
LINE
  5
436
330
1F
100
AcDbEntity
  8
0
  6
Continuous
 62
     8
370
    18
100
AcDbLine
 10
121.8267969676
 20
257.2335306801
 30
0.0
 11
121.8267969676
 21
187.3717051245
 31
0.0
  0
LINE
  5
437
330
1F
100
AcDbEntity
  8
0
  6
Continuous
 62
     8
370
    18
100
AcDbLine
 10
135.5268053599
 20
257.2335306801
 30
0.0
 11
135.5268053599
 21
187.3717051245
 31
0.0
  0
LINE
  5
438
330
1F
100
AcDbEntity
  8
0
  6
Continuous
 62
     8
370
    18
100
AcDbLine
 10
171.8737922497
 20
217.2335315742
 30
0.0
 11
171.8737922497
 21
187.3717051245
 31
0.0
  0
LINE
  5
439
330
1F
100
AcDbEntity
  8
0
  6
Continuous
 62
     8
370
    18
100
AcDbLine
 10
173.8522343226
 20
217.2335315742
 30
0.0
 11
173.8522343226
 21
187.3717051245
 31
0.0
  0
LINE
  5
43A
330
1F
100
AcDbEntity
  8
0
  6
Continuous
 62
     8
370
    18
100
AcDbLine
 10
110.8667246886
 20
257.2335306801
 30
0.0
 11
110.8667246886
 21
187.3717051245
 31
0.0
  0
LINE
  5
43B
330
1F
100
AcDbEntity
  8
0
  6
Continuous
 62
     8
370
    18
100
AcDbLine
 10
111.8306957074
 20
257.2335306801
 30
0.0
 11
111.8306957074
 21
187.3717051245
 31
0.0
  0
LINE
  5
43C
330
1F
100
AcDbEntity
  8
0
  6
Continuous
 62
     8
370
    18
100
AcDbLine
 10
112.0302371569
 20
257.2335306801
 30
0.0
 11
112.0302371569
 21
187.3717051245
 31
0.0
  0
LINE
  5
43D
330
1F
100
AcDbEntity
  8
0
  6
Continuous
 62
     8
370
    18
100
AcDbLine
 10
114.5472220965
 20
257.2335306801
 30
0.0
 11
114.5472220965
 21
187.3717051245
 31
0.0
  0
LINE
  5
43E
330
1F
100
AcDbEntity
  8
0
  6
Continuous
 62
     8
370
    18
100
AcDbLine
 10
140.2865044661
 20
218.733534614
 30
0.0
 11
138.8729058095
 21
241.686307291
 31
0.0
  0
LINE
  5
43F
330
1F
100
AcDbEntity
  8
0
  6
Continuous
 62
     8
370
    18
100
AcDbLine
 10
172.3944164701
 20
218.733534614
 30
0.0
 11
140.2865044661
 21
218.733534614
 31
0.0
  0
LINE
  5
440
330
1F
100
AcDbEntity
  8
0
  6
Continuous
 62
     8
370
    18
100
AcDbLine
 10
172.3944164701
 20
218.733534614
 30
0.0
 11
172.3944164701
 21
217.2335315742
 31
0.0
  0
LINE
  5
441
330
1F
100
AcDbEntity
  8
0
  6
Continuous
 62
     8
370
    18
100
AcDbLine
 10
172.3944164701
 20
218.733534614
 30
0.0
 11
172.3944164701
 21
219.7335329153
 31
0.0
  0
LINE
  5
442
330
1F
100
AcDbEntity
  8
0
  6
Continuous
 62
     8
370
    18
100
AcDbLine
 10
174.3697292991
 20
218.733534614
 30
0.0
 11
172.3944164701
 21
218.733534614
 31
0.0
  0
ARC
  5
443
330
1F
100
AcDbEntity
  8
0
  6
Continuous
 62
     8
370
    18
100
AcDbCircle
 10
173.3758617191
 20
218.7396658316
 30
0.0
 40
0.9938864917692041
100
AcDbArc
 50
359.6465440225
 51
89.6419350788
  0
LINE
  5
444
330
1F
100
AcDbEntity
  8
0
  6
Continuous
 62
     8
370
    18
100
AcDbLine
 10
174.3697292991
 20
218.733534614
 30
0.0
 11
174.3697292991
 21
217.2335315742
 31
0.0
  0
LINE
  5
445
330
1F
100
AcDbEntity
  8
0
  6
Continuous
 62
     8
370
    18
100
AcDbLine
 10
175.8389167376
 20
218.733534614
 30
0.0
 11
174.3697292991
 21
218.733534614
 31
0.0
  0
MTEXT
  5
446
330
1F
100
AcDbEntity
  8
DESENHO
100
AcDbMText
 10
170.3486605725
 20
175.7228391296
 30
0.0
 40
1.5
 41
0.0
 71
     2
 72
     1
  1
ESCALA 1:1
  7
SLDTEXTSTYLE0
 73
     1
 44
1.0
  0
MTEXT
  5
447
330
1F
100
AcDbEntity
  8
DESENHO
100
AcDbMText
 10
107.8333863972
 20
197.1663371207
 30
0.0
 40
1.5
 41
0.0
 71
     2
 72
     1
  1
ECO-760/ ECO-761
  7
SLDTEXTSTYLE0
 11
-3.491481338843133E-15
 21
1.0
 31
0.0
 73
     1
 44
1.0
  0
ENDSEC
  0
SECTION
  2
OBJECTS
  0
DICTIONARY
  5
C
330
0
100
AcDbDictionary
281
     1
  3
ACAD_GROUP
350
D
  3
ACAD_LAYOUT
350
1A
  3
ACAD_MLINESTYLE
350
17
  3
ACAD_PLOTSETTINGS
350
19
  3
ACAD_PLOTSTYLENAME
350
E
  3
ACAD_SCALELIST
350
47
  0
DICTIONARY
  5
D
102
{ACAD_REACTORS
330
C
102
}
330
C
100
AcDbDictionary
281
     1
  0
DICTIONARY
  5
1A
102
{ACAD_REACTORS
330
C
102
}
330
C
100
AcDbDictionary
281
     1
  3
Layout1
350
1E
  3
Layout2
350
26
  3
Model
350
22
  0
DICTIONARY
  5
17
102
{ACAD_REACTORS
330
C
102
}
330
C
100
AcDbDictionary
281
     1
  3
Standard
350
18
  0
DICTIONARY
  5
19
102
{ACAD_REACTORS
330
C
102
}
330
C
100
AcDbDictionary
281
     1
  0
ACDBDICTIONARYWDFLT
  5
E
102
{ACAD_REACTORS
330
C
102
}
330
C
100
AcDbDictionary
281
     1
  3
Normal
350
F
100
AcDbDictionaryWithDefault
340
F
  0
DICTIONARY
  5
47
102
{ACAD_REACTORS
330
C
102
}
330
C
100
AcDbDictionary
281
     1
  3
A0
350
48
  3
A1
350
49
  3
A2
350
4A
  3
A3
350
4B
  3
A4
350
4C
  3
A5
350
4D
  3
A6
350
4E
  3
A7
350
4F
  3
A8
350
50
  3
A9
350
51
  3
B0
350
52
  3
B1
350
53
  3
B2
350
54
  3
B3
350
55
  3
B4
350
56
  3
B5
350
57
  3
B6
350
58
  3
B7
350
59
  3
B8
350
5A
  3
B9
350
5B
  3
C0
350
5C
  3
C1
350
5D
  3
C2
350
5E
  3
C3
350
5F
  3
C4
350
60
  3
C5
350
61
  3
C6
350
62
  3
C7
350
63
  3
C8
350
64
  3
C9
350
65
  3
D0
350
66
  3
D1
350
67
  3
D2
350
68
  0
LAYOUT
  5
1E
102
{ACAD_REACTORS
330
1A
102
}
330
1A
100
AcDbPlotSettings
  1

  2
none_device
  4

  6

 40
0.0
 41
0.0
 42
0.0
 43
0.0
 44
0.0
 45
0.0
 46
0.0
 47
0.0
 48
0.0
 49
0.0
140
0.0
141
0.0
142
1.0
143
1.0
 70
   688
 72
     1
 73
     0
 74
     5
  7

 75
    16
147
1.0
148
0.0
149
0.0
100
AcDbLayout
  1
Layout1
 70
     1
 71
     1
 10
0.0
 20
0.0
 11
420.0
 21
297.0
 12
0.0
 22
0.0
 32
0.0
 14
1.0000000000E+20
 24
1.0000000000E+20
 34
1.0000000000E+20
 15
-1.0000000000E+20
 25
-1.0000000000E+20
 35
-1.0000000000E+20
146
0.0
 13
0.0
 23
0.0
 33
0.0
 16
1.0
 26
0.0
 36
0.0
 17
0.0
 27
1.0
 37
0.0
 76
     0
330
1B
  0
LAYOUT
  5
26
102
{ACAD_REACTORS
330
1A
102
}
330
1A
100
AcDbPlotSettings
  1

  2
none_device
  4

  6

 40
0.0
 41
0.0
 42
0.0
 43
0.0
 44
0.0
 45
0.0
 46
0.0
 47
0.0
 48
0.0
 49
0.0
140
0.0
141
0.0
142
1.0
143
1.0
 70
   688
 72
     1
 73
     0
 74
     5
  7

 75
    16
147
1.0
148
0.0
149
0.0
100
AcDbLayout
  1
Layout2
 70
     1
 71
     2
 10
0.0
 20
0.0
 11
0.0
 21
0.0
 12
0.0
 22
0.0
 32
0.0
 14
0.0
 24
0.0
 34
0.0
 15
0.0
 25
0.0
 35
0.0
146
0.0
 13
0.0
 23
0.0
 33
0.0
 16
1.0
 26
0.0
 36
0.0
 17
0.0
 27
1.0
 37
0.0
 76
     0
330
23
  0
LAYOUT
  5
22
102
{ACAD_REACTORS
330
1A
102
}
330
1A
100
AcDbPlotSettings
  1

  2
none_device
  4
Letter_(8.50_x_11.00_Inches)
  6

 40
6.35
 41
6.35
 42
6.35000508
 43
6.35000508
 44
215.9
 45
279.4
 46
0.0
 47
0.0
 48
0.0
 49
0.0
140
0.0
141
0.0
142
1.0
143
1.0
 70
  1712
 72
     1
 73
     0
 74
     0
  7

 75
     0
147
1.0
148
0.0
149
0.0
100
AcDbLayout
  1
Model
 70
     1
 71
     0
 10
0.0
 20
0.0
 11
210.0
 21
297.0
 12
0.0
 22
0.0
 32
0.0
 14
0.0
 24
0.0
 34
0.0
 15
210.0
 25
297.0
 35
0.0
146
0.0
 13
0.0
 23
0.0
 33
0.0
 16
1.0
 26
0.0
 36
0.0
 17
0.0
 27
1.0
 37
0.0
 76
     0
330
1F
331
29
  0
MLINESTYLE
  5
18
102
{ACAD_REACTORS
330
17
102
}
330
17
100
AcDbMlineStyle
  2
Standard
 70
     0
  3

 62
   256
 51
90.0
 52
90.0
 71
     2
 49
0.5
 62
   256
  6
BYLAYER
 49
-0.5
 62
   256
  6
BYLAYER
  0
ACDBPLACEHOLDER
  5
F
102
{ACAD_REACTORS
330
E
102
}
330
E
  0
SCALE
  5
48
102
{ACAD_REACTORS
330
47
102
}
330
47
100
AcDbScale
 70
     0
300
1:1
140
1.0
141
1.0
290
     1
  0
SCALE
  5
49
102
{ACAD_REACTORS
330
47
102
}
330
47
100
AcDbScale
 70
     0
300
1:2
140
1.0
141
2.0
290
     0
  0
SCALE
  5
4A
102
{ACAD_REACTORS
330
47
102
}
330
47
100
AcDbScale
 70
     0
300
1:4
140
1.0
141
4.0
290
     0
  0
SCALE
  5
4B
102
{ACAD_REACTORS
330
47
102
}
330
47
100
AcDbScale
 70
     0
300
1:5
140
1.0
141
5.0
290
     0
  0
SCALE
  5
4C
102
{ACAD_REACTORS
330
47
102
}
330
47
100
AcDbScale
 70
     0
300
1:8
140
1.0
141
8.0
290
     0
  0
SCALE
  5
4D
102
{ACAD_REACTORS
330
47
102
}
330
47
100
AcDbScale
 70
     0
300
1:10
140
1.0
141
10.0
290
     0
  0
SCALE
  5
4E
102
{ACAD_REACTORS
330
47
102
}
330
47
100
AcDbScale
 70
     0
300
1:16
140
1.0
141
16.0
290
     0
  0
SCALE
  5
4F
102
{ACAD_REACTORS
330
47
102
}
330
47
100
AcDbScale
 70
     0
300
1:20
140
1.0
141
20.0
290
     0
  0
SCALE
  5
50
102
{ACAD_REACTORS
330
47
102
}
330
47
100
AcDbScale
 70
     0
300
1:30
140
1.0
141
30.0
290
     0
  0
SCALE
  5
51
102
{ACAD_REACTORS
330
47
102
}
330
47
100
AcDbScale
 70
     0
300
1:40
140
1.0
141
40.0
290
     0
  0
SCALE
  5
52
102
{ACAD_REACTORS
330
47
102
}
330
47
100
AcDbScale
 70
     0
300
1:50
140
1.0
141
50.0
290
     0
  0
SCALE
  5
53
102
{ACAD_REACTORS
330
47
102
}
330
47
100
AcDbScale
 70
     0
300
1:100
140
1.0
141
100.0
290
     0
  0
SCALE
  5
54
102
{ACAD_REACTORS
330
47
102
}
330
47
100
AcDbScale
 70
     0
300
2:1
140
2.0
141
1.0
290
     0
  0
SCALE
  5
55
102
{ACAD_REACTORS
330
47
102
}
330
47
100
AcDbScale
 70
     0
300
4:1
140
4.0
141
1.0
290
     0
  0
SCALE
  5
56
102
{ACAD_REACTORS
330
47
102
}
330
47
100
AcDbScale
 70
     0
300
8:1
140
8.0
141
1.0
290
     0
  0
SCALE
  5
57
102
{ACAD_REACTORS
330
47
102
}
330
47
100
AcDbScale
 70
     0
300
10:1
140
10.0
141
1.0
290
     0
  0
SCALE
  5
58
102
{ACAD_REACTORS
330
47
102
}
330
47
100
AcDbScale
 70
     0
300
100:1
140
100.0
141
1.0
290
     0
  0
SCALE
  5
59
102
{ACAD_REACTORS
330
47
102
}
330
47
100
AcDbScale
 70
     0
300
1/128" = 1'-0"
140
0.0078125
141
12.0
290
     0
  0
SCALE
  5
5A
102
{ACAD_REACTORS
330
47
102
}
330
47
100
AcDbScale
 70
     0
300
1/64" = 1'-0"
140
0.015625
141
12.0
290
     0
  0
SCALE
  5
5B
102
{ACAD_REACTORS
330
47
102
}
330
47
100
AcDbScale
 70
     0
300
1/32" = 1'-0"
140
0.03125
141
12.0
290
     0
  0
SCALE
  5
5C
102
{ACAD_REACTORS
330
47
102
}
330
47
100
AcDbScale
 70
     0
300
1/16" = 1'-0"
140
0.0625
141
12.0
290
     0
  0
SCALE
  5
5D
102
{ACAD_REACTORS
330
47
102
}
330
47
100
AcDbScale
 70
     0
300
3/32" = 1'-0"
140
0.09375
141
12.0
290
     0
  0
SCALE
  5
5E
102
{ACAD_REACTORS
330
47
102
}
330
47
100
AcDbScale
 70
     0
300
1/8" = 1'-0"
140
0.125
141
12.0
290
     0
  0
SCALE
  5
5F
102
{ACAD_REACTORS
330
47
102
}
330
47
100
AcDbScale
 70
     0
300
3/16" = 1'-0"
140
0.1875
141
12.0
290
     0
  0
SCALE
  5
60
102
{ACAD_REACTORS
330
47
102
}
330
47
100
AcDbScale
 70
     0
300
1/4" = 1'-0"
140
0.25
141
12.0
290
     0
  0
SCALE
  5
61
102
{ACAD_REACTORS
330
47
102
}
330
47
100
AcDbScale
 70
     0
300
3/8" = 1'-0"
140
0.375
141
12.0
290
     0
  0
SCALE
  5
62
102
{ACAD_REACTORS
330
47
102
}
330
47
100
AcDbScale
 70
     0
300
1/2" = 1'-0"
140
0.5
141
12.0
290
     0
  0
SCALE
  5
63
102
{ACAD_REACTORS
330
47
102
}
330
47
100
AcDbScale
 70
     0
300
3/4" = 1'-0"
140
0.75
141
12.0
290
     0
  0
SCALE
  5
64
102
{ACAD_REACTORS
330
47
102
}
330
47
100
AcDbScale
 70
     0
300
1" = 1'-0"
140
1.0
141
12.0
290
     0
  0
SCALE
  5
65
102
{ACAD_REACTORS
330
47
102
}
330
47
100
AcDbScale
 70
     0
300
1-1/2" = 1'-0"
140
1.5
141
12.0
290
     0
  0
SCALE
  5
66
102
{ACAD_REACTORS
330
47
102
}
330
47
100
AcDbScale
 70
     0
300
3" = 1'-0"
140
3.0
141
12.0
290
     0
  0
SCALE
  5
67
102
{ACAD_REACTORS
330
47
102
}
330
47
100
AcDbScale
 70
     0
300
6" = 1'-0"
140
6.0
141
12.0
290
     0
  0
SCALE
  5
68
102
{ACAD_REACTORS
330
47
102
}
330
47
100
AcDbScale
 70
     0
300
1'-0" = 1'-0"
140
12.0
141
12.0
290
     0
  0
ENDSEC
  0
EOF
