  0
SECTION
  2
HEADER
  9
$ACADVER
  1
AC1014
  9
$ACADMAINTVER
 70
     9
  9
$DWGCODEPAGE
  3
ANSI_1252
  9
$INSBASE
 10
0.0
 20
0.0
 30
0.0
  9
$EXTMIN
 10
1.000000000000000E+20
 20
1.000000000000000E+20
 30
1.000000000000000E+20
  9
$EXTMAX
 10
-1.000000000000000E+20
 20
-1.000000000000000E+20
 30
-1.000000000000000E+20
  9
$LIMMIN
 10
0.0
 20
0.0
  9
$LIMMAX
 10
420.0
 20
297.0
  9
$ORTHOMODE
 70
     1
  9
$REGENMODE
 70
     1
  9
$FILLMODE
 70
     1
  9
$QTEXTMODE
 70
     0
  9
$MIRRTEXT
 70
     0
  9
$DRAGMODE
 70
     2
  9
$LTSCALE
 40
0.5
  9
$OSMODE
 70
   183
  9
$ATTMODE
 70
     1
  9
$TEXTSIZE
 40
2.5
  9
$TRACEWID
 40
1.0
  9
$TEXTSTYLE
  7
STANDARD
  9
$CLAYER
  8
FINA
  9
$CELTYPE
  6
BYLAYER
  9
$CECOLOR
 62
   256
  9
$CELTSCALE
 40
1.0
  9
$DELOBJ
 70
     1
  9
$DISPSILH
 70
     0
  9
$DIMSCALE
 40
1.0
  9
$DIMASZ
 40
2.0
  9
$DIMEXO
 40
0.5
  9
$DIMDLI
 40
0.5
  9
$DIMRND
 40
0.0
  9
$DIMDLE
 40
0.0
  9
$DIMEXE
 40
1.0
  9
$DIMTP
 40
0.0
  9
$DIMTM
 40
0.0
  9
$DIMTXT
 40
2.5
  9
$DIMCEN
 40
2.5
  9
$DIMTSZ
 40
0.0
  9
$DIMTOL
 70
     0
  9
$DIMLIM
 70
     0
  9
$DIMTIH
 70
     0
  9
$DIMTOH
 70
     0
  9
$DIMSE1
 70
     0
  9
$DIMSE2
 70
     0
  9
$DIMTAD
 70
     1
  9
$DIMZIN
 70
     8
  9
$DIMBLK
  1

  9
$DIMASO
 70
     1
  9
$DIMSHO
 70
     1
  9
$DIMPOST
  1

  9
$DIMAPOST
  1

  9
$DIMALT
 70
     0
  9
$DIMALTD
 70
     3
  9
$DIMALTF
 40
0.03937007874016
  9
$DIMLFAC
 40
1.0
  9
$DIMTOFL
 70
     1
  9
$DIMTVP
 40
0.0
  9
$DIMTIX
 70
     0
  9
$DIMSOXD
 70
     0
  9
$DIMSAH
 70
     0
  9
$DIMBLK1
  1

  9
$DIMBLK2
  1

  9
$DIMSTYLE
  2
1-1
  9
$DIMCLRD
 70
   256
  9
$DIMCLRE
 70
   256
  9
$DIMCLRT
 70
     7
  9
$DIMTFAC
 40
1.0
  9
$DIMGAP
 40
0.5
  9
$DIMJUST
 70
     0
  9
$DIMSD1
 70
     0
  9
$DIMSD2
 70
     0
  9
$DIMTOLJ
 70
     0
  9
$DIMTZIN
 70
     8
  9
$DIMALTZ
 70
     0
  9
$DIMALTTZ
 70
     0
  9
$DIMFIT
 70
     5
  9
$DIMUPT
 70
     0
  9
$DIMUNIT
 70
     2
  9
$DIMDEC
 70
     2
  9
$DIMTDEC
 70
     2
  9
$DIMALTU
 70
     2
  9
$DIMALTTD
 70
     3
  9
$DIMTXSTY
  7
STANDARD
  9
$DIMAUNIT
 70
     0
  9
$LUNITS
 70
     2
  9
$LUPREC
 70
     3
  9
$SKETCHINC
 40
1.0
  9
$FILLETRAD
 40
0.3
  9
$AUNITS
 70
     0
  9
$AUPREC
 70
     0
  9
$MENU
  1
.
  9
$ELEVATION
 40
0.0
  9
$PELEVATION
 40
0.0
  9
$THICKNESS
 40
0.0
  9
$LIMCHECK
 70
     0
  9
$CHAMFERA
 40
10.0
  9
$CHAMFERB
 40
10.0
  9
$CHAMFERC
 40
20.0
  9
$CHAMFERD
 40
0.0
  9
$SKPOLY
 70
     0
  9
$TDCREATE
 40
2455022.554026158
  9
$TDUPDATE
 40
2458751.560312685
  9
$TDINDWG
 40
0.0144265625
  9
$TDUSRTIMER
 40
0.0006452894
  9
$USRTIMER
 70
     1
  9
$ANGBASE
 50
0.0
  9
$ANGDIR
 70
     0
  9
$PDMODE
 70
     0
  9
$PDSIZE
 40
0.0
  9
$PLINEWID
 40
0.0
  9
$COORDS
 70
     0
  9
$SPLFRAME
 70
     0
  9
$SPLINETYPE
 70
     6
  9
$SPLINESEGS
 70
     8
  9
$ATTDIA
 70
     0
  9
$ATTREQ
 70
     1
  9
$HANDLING
 70
     1
  9
$HANDSEED
  5
52BF
  9
$SURFTAB1
 70
     6
  9
$SURFTAB2
 70
     6
  9
$SURFTYPE
 70
     6
  9
$SURFU
 70
     6
  9
$SURFV
 70
     6
  9
$UCSNAME
  2

  9
$UCSORG
 10
0.0
 20
0.0
 30
0.0
  9
$UCSXDIR
 10
1.0
 20
0.0
 30
0.0
  9
$UCSYDIR
 10
0.0
 20
1.0
 30
0.0
  9
$PUCSNAME
  2

  9
$PUCSORG
 10
0.0
 20
0.0
 30
0.0
  9
$PUCSXDIR
 10
1.0
 20
0.0
 30
0.0
  9
$PUCSYDIR
 10
0.0
 20
1.0
 30
0.0
  9
$USERI1
 70
     0
  9
$USERI2
 70
     0
  9
$USERI3
 70
     0
  9
$USERI4
 70
     0
  9
$USERI5
 70
     0
  9
$USERR1
 40
0.0
  9
$USERR2
 40
0.0
  9
$USERR3
 40
0.0
  9
$USERR4
 40
0.0
  9
$USERR5
 40
0.0
  9
$WORLDVIEW
 70
     1
  9
$SHADEDGE
 70
     3
  9
$SHADEDIF
 70
    70
  9
$TILEMODE
 70
     0
  9
$MAXACTVP
 70
    64
  9
$PINSBASE
 10
0.0
 20
0.0
 30
0.0
  9
$PLIMCHECK
 70
     0
  9
$PEXTMIN
 10
0.0
 20
0.0
 30
0.0
  9
$PEXTMAX
 10
210.0
 20
296.9999999999985
 30
0.0
  9
$PLIMMIN
 10
-0.0000000000000426
 20
0.0
  9
$PLIMMAX
 10
210.0
 20
297.0000000000001
  9
$UNITMODE
 70
     0
  9
$VISRETAIN
 70
     1
  9
$PLINEGEN
 70
     0
  9
$PSLTSCALE
 70
     1
  9
$TREEDEPTH
 70
  3020
  9
$PICKSTYLE
 70
     1
  9
$CMLSTYLE
  2
STANDARD
  9
$CMLJUST
 70
     0
  9
$CMLSCALE
 40
20.0
  9
$PROXYGRAPHICS
 70
     1
  9
$MEASUREMENT
 70
     1
  0
ENDSEC
  0
SECTION
  2
CLASSES
  0
CLASS
  1
ACDBDICTIONARYWDFLT
  2
AcDbDictionaryWithDefault
  3
ObjectDBX Classes
 90
        0
280
     0
281
     0
  0
CLASS
  1
VISUALSTYLE
  2
AcDbVisualStyle
  3
ObjectDBX Classes
 90
     4095
280
     0
281
     0
  0
CLASS
  1
TABLESTYLE
  2
AcDbTableStyle
  3
ObjectDBX Classes
 90
     4095
280
     0
281
     0
  0
CLASS
  1
DICTIONARYVAR
  2
AcDbDictionaryVar
  3
ObjectDBX Classes
 90
        0
280
     0
281
     0
  0
CLASS
  1
SCALE
  2
AcDbScale
  3
ObjectDBX Classes
 90
     1153
280
     0
281
     0
  0
CLASS
  1
CELLSTYLEMAP
  2
AcDbCellStyleMap
  3
ObjectDBX Classes
 90
     1152
280
     0
281
     0
  0
CLASS
  1
RASTERVARIABLES
  2
AcDbRasterVariables
  3
ISM
 90
        0
280
     0
281
     0
  0
CLASS
  1
MATERIAL
  2
AcDbMaterial
  3
ObjectDBX Classes
 90
     1153
280
     0
281
     0
  0
CLASS
  1
SUN
  2
AcDbSun
  3
SCENEOE
 90
     1153
280
     0
281
     0
  0
CLASS
  1
MLEADERSTYLE
  2
AcDbMLeaderStyle
  3
ACDB_MLEADERSTYLE_CLASS
 90
     4095
280
     0
281
     0
  0
CLASS
  1
DIMASSOC
  2
AcDbDimAssoc
  3
"AcDbDimAssoc|Product Desc:     AcDim ARX App For Dimension|Company:          Autodesk, Inc.|WEB Address:      www.autodesk.com"
 90
        0
280
     0
281
     0
  0
CLASS
  1
SORTENTSTABLE
  2
AcDbSortentsTable
  3
ObjectDBX Classes
 90
        0
280
     0
281
     0
  0
CLASS
  1
XRECORD
  2
AcDbXrecord
  3
ObjectDBX Classes
 90
        0
280
     0
281
     0
  0
CLASS
  1
LWPOLYLINE
  2
AcDbPolyline
  3
ObjectDBX Classes
 90
        0
280
     0
281
     1
  0
CLASS
  1
HATCH
  2
AcDbHatch
  3
ObjectDBX Classes
 90
        0
280
     0
281
     1
  0
ENDSEC
  0
SECTION
  2
TABLES
  0
TABLE
  2
VPORT
  5
8
330
0
100
AcDbSymbolTable
 70
     1
  0
VPORT
  5
29
330
8
100
AcDbSymbolTableRecord
100
AcDbViewportTableRecord
  2
*ACTIVE
 70
     0
 10
0.0
 20
0.0
 11
1.0
 21
1.0
 12
314.39052982536
 22
255.3658945361182
 13
0.0
 23
0.0
 14
10.0
 24
10.0
 15
10.0
 25
10.0
 16
0.0
 26
0.0
 36
1.0
 17
-134.1869158878507
 27
0.0
 37
0.0
 40
986.7553710937458
 41
2.642163661581137
 42
50.0
 43
0.0
 44
0.0
 50
0.0
 51
0.0
 71
    16
 72
  1000
 73
     1
 74
     2
 75
     0
 76
     0
 77
     0
 78
     0
  0
ENDTAB
  0
TABLE
  2
LTYPE
  5
5
330
0
100
AcDbSymbolTable
 70
     2
  0
LTYPE
  5
14
330
5
100
AcDbSymbolTableRecord
100
AcDbLinetypeTableRecord
  2
BYBLOCK
 70
     0
  3

 72
    65
 73
     0
 40
0.0
  0
LTYPE
  5
15
330
5
100
AcDbSymbolTableRecord
100
AcDbLinetypeTableRecord
  2
BYLAYER
 70
     0
  3

 72
    65
 73
     0
 40
0.0
  0
LTYPE
  5
16
330
5
100
AcDbSymbolTableRecord
100
AcDbLinetypeTableRecord
  2
CONTINUOUS
 70
     0
  3
Solid line
 72
    65
 73
     0
 40
0.0
  0
LTYPE
  5
66D
330
5
100
AcDbSymbolTableRecord
100
AcDbLinetypeTableRecord
  2
CENTER
 70
     0
  3
Center ____ _ ____ _ ____ _ ____ _ ____ _ ____
 72
    65
 73
     4
 40
10.16
 49
6.35
 74
     0
 49
-1.27
 74
     0
 49
1.27
 74
     0
 49
-1.27
 74
     0
  0
ENDTAB
  0
TABLE
  2
LAYER
  5
2
102
{ACAD_XDICTIONARY
360
12A
102
}
330
0
100
AcDbSymbolTable
 70
    10
  0
LAYER
  5
10
330
2
100
AcDbSymbolTableRecord
100
AcDbLayerTableRecord
  2
0
 70
     0
 62
     7
  6
CONTINUOUS
  0
LAYER
  5
BD
330
2
100
AcDbSymbolTableRecord
100
AcDbLayerTableRecord
  2
TEXTO
 70
     0
 62
     7
  6
CONTINUOUS
  0
LAYER
  5
BF
330
2
100
AcDbSymbolTableRecord
100
AcDbLayerTableRecord
  2
LAYOUT
 70
     0
 62
     8
  6
CONTINUOUS
  0
LAYER
  5
4DB
330
2
100
AcDbSymbolTableRecord
100
AcDbLayerTableRecord
  2
COTAS
 70
     0
 62
     1
  6
CONTINUOUS
1001
ACAECLAYERSTANDARD
1000

1000

  0
LAYER
  5
66C
330
2
100
AcDbSymbolTableRecord
100
AcDbLayerTableRecord
  2
CENTRO
 70
     0
 62
     3
  6
CENTER
1001
ACAECLAYERSTANDARD
1000

1000

  0
LAYER
  5
66E
330
2
100
AcDbSymbolTableRecord
100
AcDbLayerTableRecord
  2
PRODUTO
 70
     0
 62
     7
  6
CONTINUOUS
1001
ACAECLAYERSTANDARD
1000

1000

  0
LAYER
  5
66F
330
2
100
AcDbSymbolTableRecord
100
AcDbLayerTableRecord
  2
FINA
 70
     0
 62
     8
  6
CONTINUOUS
1001
ACAECLAYERSTANDARD
1000

1000

  0
LAYER
  5
AAA
330
2
100
AcDbSymbolTableRecord
100
AcDbLayerTableRecord
  2
PERFIS
 70
     0
 62
     2
  6
CONTINUOUS
1001
ACAECLAYERSTANDARD
1000

1000

  0
LAYER
  5
FF2
330
2
100
AcDbSymbolTableRecord
100
AcDbLayerTableRecord
  2
DEFPOINTS
 70
     0
 62
    -7
  6
CONTINUOUS
  0
LAYER
  5
4D1B
330
2
100
AcDbSymbolTableRecord
100
AcDbLayerTableRecord
  2
OUTROS_COMPONENTES
 70
     0
 62
     4
  6
CONTINUOUS
1001
ACAECLAYERSTANDARD
1000

1000

  0
ENDTAB
  0
TABLE
  2
STYLE
  5
3
330
0
100
AcDbSymbolTable
 70
     1
  0
STYLE
  5
11
330
3
100
AcDbSymbolTableRecord
100
AcDbTextStyleTableRecord
  2
STANDARD
 70
     0
 40
0.0
 41
1.0
 50
0.0
 71
     0
 42
2.5
  3
arial.ttf
  4

1001
ACAD
1000
Arial
1071
        0
  0
ENDTAB
  0
TABLE
  2
VIEW
  5
6
330
0
100
AcDbSymbolTable
 70
     0
  0
ENDTAB
  0
TABLE
  2
UCS
  5
7
330
0
100
AcDbSymbolTable
 70
     0
  0
ENDTAB
  0
TABLE
  2
APPID
  5
9
330
0
100
AcDbSymbolTable
 70
     6
  0
APPID
  5
12
330
9
100
AcDbSymbolTableRecord
100
AcDbRegAppTableRecord
  2
ACAD
 70
     0
  0
APPID
  5
B9
330
9
100
AcDbSymbolTableRecord
100
AcDbRegAppTableRecord
  2
ACADANNOTATIVE
 70
     0
  0
APPID
  5
4DD
330
9
100
AcDbSymbolTableRecord
100
AcDbRegAppTableRecord
  2
ACAECLAYERSTANDARD
 70
     0
  0
APPID
  5
14AD
330
9
100
AcDbSymbolTableRecord
100
AcDbRegAppTableRecord
  2
ACAD_DSTYLE_DIMRADIAL_EXTE
 70
     0
  0
APPID
  5
14D1
330
9
100
AcDbSymbolTableRecord
100
AcDbRegAppTableRecord
  2
PE_DIMMEASUREMENT
 70
     0
  0
APPID
  5
176A
330
9
100
AcDbSymbolTableRecord
100
AcDbRegAppTableRecord
  2
PE_URL
 70
     0
  0
ENDTAB
  0
TABLE
  2
DIMSTYLE
  5
A
330
0
100
AcDbSymbolTable
 70
     1
  0
DIMSTYLE
105
4E0
102
{ACAD_REACTORS
330
51E1
330
51E2
330
5205
330
5206
330
5225
330
523C
330
5247
330
5248
330
5249
330
5256
330
5257
330
5258
330
525C
102
}
330
A
100
AcDbSymbolTableRecord
100
AcDbDimStyleTableRecord
  2
1-1
 70
     0
  3

  4

  5

  6

  7

 40
1.0
 41
2.0
 42
0.5
 43
0.5
 44
1.0
 45
0.0
 46
0.0
 47
0.0
 48
0.0
140
2.5
141
2.5
142
0.0
143
0.03937007874016
144
1.0
145
0.0
146
1.0
147
0.5
 71
     0
 72
     0
 73
     0
 74
     0
 75
     0
 76
     0
 77
     1
 78
     8
170
     0
171
     3
172
     1
173
     0
174
     0
175
     0
176
   256
177
   256
178
     7
270
     2
271
     2
272
     2
273
     2
274
     3
340
11
275
     0
280
     0
281
     0
282
     0
283
     0
284
     8
285
     0
286
     0
287
     3
288
     0
  0
ENDTAB
  0
TABLE
  2
BLOCK_RECORD
  5
1
330
0
100
AcDbSymbolTable
 70
    20
  0
BLOCK_RECORD
  5
1F
330
1
100
AcDbSymbolTableRecord
100
AcDbBlockTableRecord
  2
*MODEL_SPACE
  0
BLOCK_RECORD
  5
1B
330
1
100
AcDbSymbolTableRecord
100
AcDbBlockTableRecord
  2
*PAPER_SPACE
  0
BLOCK_RECORD
  5
E3
330
1
100
AcDbSymbolTableRecord
100
AcDbBlockTableRecord
  2
CATÁLOGO
  0
BLOCK_RECORD
  5
17B7
330
1
100
AcDbSymbolTableRecord
100
AcDbBlockTableRecord
  2
FIT-206
  0
BLOCK_RECORD
  5
17C6
330
1
100
AcDbSymbolTableRecord
100
AcDbBlockTableRecord
  2
CHR-005
  0
BLOCK_RECORD
  5
17CB
330
1
100
AcDbSymbolTableRecord
100
AcDbBlockTableRecord
  2
CHR-028
  0
BLOCK_RECORD
  5
17D5
102
{ACAD_XDICTIONARY
360
17D6
102
}
330
1
100
AcDbSymbolTableRecord
100
AcDbBlockTableRecord
  2
CHR-010
  0
BLOCK_RECORD
  5
1958
330
1
100
AcDbSymbolTableRecord
100
AcDbBlockTableRecord
  2
CTFASI-389
  0
BLOCK_RECORD
  5
4394
330
1
100
AcDbSymbolTableRecord
100
AcDbBlockTableRecord
  2
TRAVA_DA_FOLHA_FIXA
  0
BLOCK_RECORD
  5
50F4
330
1
100
AcDbSymbolTableRecord
100
AcDbBlockTableRecord
  2
*D7
  0
BLOCK_RECORD
  5
5100
330
1
100
AcDbSymbolTableRecord
100
AcDbBlockTableRecord
  2
*D8
  0
BLOCK_RECORD
  5
510F
330
1
100
AcDbSymbolTableRecord
100
AcDbBlockTableRecord
  2
*D9
  0
BLOCK_RECORD
  5
511B
330
1
100
AcDbSymbolTableRecord
100
AcDbBlockTableRecord
  2
*D10
  0
BLOCK_RECORD
  5
5128
330
1
100
AcDbSymbolTableRecord
100
AcDbBlockTableRecord
  2
*D11
  0
BLOCK_RECORD
  5
5133
330
1
100
AcDbSymbolTableRecord
100
AcDbBlockTableRecord
  2
*D12
  0
BLOCK_RECORD
  5
5142
330
1
100
AcDbSymbolTableRecord
100
AcDbBlockTableRecord
  2
*D13
  0
BLOCK_RECORD
  5
514E
330
1
100
AcDbSymbolTableRecord
100
AcDbBlockTableRecord
  2
*D14
  0
BLOCK_RECORD
  5
515A
330
1
100
AcDbSymbolTableRecord
100
AcDbBlockTableRecord
  2
*D15
  0
BLOCK_RECORD
  5
5166
330
1
100
AcDbSymbolTableRecord
100
AcDbBlockTableRecord
  2
*D16
  0
BLOCK_RECORD
  5
5172
330
1
100
AcDbSymbolTableRecord
100
AcDbBlockTableRecord
  2
*D17
  0
BLOCK_RECORD
  5
517E
330
1
100
AcDbSymbolTableRecord
100
AcDbBlockTableRecord
  2
*D18
  0
BLOCK_RECORD
  5
518A
330
1
100
AcDbSymbolTableRecord
100
AcDbBlockTableRecord
  2
*D19
  0
ENDTAB
  0
ENDSEC
  0
SECTION
  2
BLOCKS
  0
BLOCK
  5
20
330
1F
100
AcDbEntity
  8
0
100
AcDbBlockBegin
  2
*MODEL_SPACE
 70
     0
 10
0.0
 20
0.0
 30
0.0
  3
*MODEL_SPACE
  1

  0
ENDBLK
  5
21
330
1F
100
AcDbEntity
  8
0
100
AcDbBlockEnd
  0
BLOCK
  5
1C
330
1B
100
AcDbEntity
 67
     1
  8
0
100
AcDbBlockBegin
  2
*PAPER_SPACE
 70
     0
 10
0.0
 20
0.0
 30
0.0
  3
*PAPER_SPACE
  1

  0
ENDBLK
  5
1D
330
1B
100
AcDbEntity
 67
     1
  8
0
100
AcDbBlockEnd
  0
BLOCK
  5
E4
330
E3
100
AcDbEntity
  8
0
100
AcDbBlockBegin
  2
CATÁLOGO
 70
     2
 10
0.0
 20
0.0
 30
0.0
  3
CATÁLOGO
  1

  0
ATTDEF
  5
E5
330
E3
100
AcDbEntity
  8
TEXTO
100
AcDbText
 10
95.5612307933925
 20
276.4999999999986
 30
0.0
 40
4.0
  1
DESCRIÇÃO
 72
     1
 11
112.1592307933925
 21
278.4999999999986
 31
0.0
100
AcDbAttributeDefinition
  3
DESCRIÇÃO
  2
DESCRIÇÃO
 70
     0
 74
     2
  0
LWPOLYLINE
  5
E8
330
E3
100
AcDbEntity
  8
LAYOUT
100
AcDbPolyline
 90
        6
 70
     0
 43
0.0
 10
200.0
 20
269.9999999999986
 10
80.0
 20
269.9999999999986
 42
0.4142135623730951
 10
75.0
 20
264.9999999999986
 10
75.0
 20
223.9999999999986
 42
-0.414213562373095
 10
72.0
 20
220.9999999999986
 10
10.0
 20
220.9999999999982
  0
LWPOLYLINE
  5
E9
330
E3
100
AcDbEntity
  8
LAYOUT
100
AcDbPolyline
 90
        8
 70
     1
 43
0.0
 10
13.0
 20
286.9999999999986
 42
0.414213562373095
 10
10.0
 20
283.9999999999986
 10
10.0
 20
12.99999999999818
 42
0.414213562373095
 10
13.0
 20
9.999999999998181
 10
197.0
 20
9.999999999998181
 42
0.414213562373095
 10
200.0
 20
12.99999999999909
 10
200.0
 20
283.9999999999986
 42
0.414213562373095
 10
197.0
 20
286.9999999999986
  0
ATTDEF
  5
EA
330
E3
100
AcDbEntity
  8
TEXTO
100
AcDbText
 10
19.045
 20
25.24999999999818
 30
0.0
 40
2.5
  1
APLICAÇÃO1
 72
     1
 11
30.0
 21
26.49999999999818
 31
0.0
100
AcDbAttributeDefinition
  3
APLICAÇÃO1
  2
APLICAÇÃO1
 70
     0
 74
     2
  0
ATTDEF
  5
EB
330
E3
100
AcDbEntity
  8
TEXTO
100
AcDbText
 10
19.045
 20
19.24999999999818
 30
0.0
 40
2.5
  1
APLICAÇÃO2
 72
     1
 11
30.0
 21
20.49999999999818
 31
0.0
100
AcDbAttributeDefinition
  3
APLICAÇÃO2
  2
APLICAÇÃO2
 70
     0
 74
     2
  0
ATTDEF
  5
EC
330
E3
100
AcDbEntity
  8
TEXTO
100
AcDbText
 10
24.86125
 20
13.24999999999818
 30
0.0
 40
2.5
  1
LINHA
 72
     1
 11
30.0
 21
14.49999999999818
 31
0.0
100
AcDbAttributeDefinition
  3
LINHA
  2
LINHA
 70
     0
 74
     2
  0
LWPOLYLINE
  5
ED
330
E3
100
AcDbEntity
  8
LAYOUT
100
AcDbPolyline
 90
        8
 70
     1
 43
0.0
 10
47.0
 20
29.49999999999818
 10
13.0
 20
29.49999999999818
 42
0.414213562373095
 10
11.5
 20
27.99999999999818
 10
11.5
 20
12.99999999999818
 42
0.414213562373095
 10
13.0
 20
11.49999999999818
 10
47.0
 20
11.49999999999818
 42
0.414213562373095
 10
48.5
 20
12.99999999999818
 10
48.5
 20
27.99999999999818
 42
0.4142135623730949
  0
LWPOLYLINE
  5
EE
330
E3
100
AcDbEntity
  8
LAYOUT
100
AcDbPolyline
 90
        8
 70
     1
 43
0.0
 10
73.5
 20
11.49999999999818
 10
51.5
 20
11.49999999999818
 42
-0.414213562373095
 10
50.0
 20
12.99999999999818
 10
50.0
 20
27.99999999999818
 42
-0.414213562373095
 10
51.5
 20
29.49999999999818
 10
73.5
 20
29.49999999999818
 42
-0.414213562373095
 10
75.0
 20
27.99999999999818
 10
75.0
 20
12.99999999999818
 42
-0.414213562373095
  0
ATTDEF
  5
EF
330
E3
100
AcDbEntity
  8
LAYOUT
100
AcDbText
 10
195.0
 20
4.999999999998181
 30
0.0
 40
2.5
  1
1/1
100
AcDbAttributeDefinition
  3
FOLHA
  2
1/1
 70
     0
  0
HATCH
  5
F1
330
E3
100
AcDbEntity
  8
LAYOUT
100
AcDbHatch
 10
0.0
 20
0.0
 30
0.0
210
0.0
220
0.0
230
1.0
  2
SOLID
 70
     1
 71
     0
 91
        1
 92
        0
 93
       10
 72
     2
 10
173.0872281001821
 20
23.29140728832135
 40
1.305025806819293
 50
270.0000000000007
 51
450.0000000000395
 73
     0
 72
     1
 10
173.0872281001812
 20
21.98638148150167
 11
172.183056181796
 21
21.98638148150167
 72
     1
 10
172.1830561817951
 20
21.98638148150167
 11
171.9965438714271
 21
21.20516732215219
 72
     1
 10
171.9965438714271
 20
21.20516732215219
 11
173.6577788917757
 21
21.20516732215219
 72
     2
 10
173.1841644943343
 20
23.29371370789795
 40
2.141573394230017
 50
282.7767362723677
 51
449.4062933728175
 73
     1
 72
     1
 10
173.2063553707649
 20
25.43517212866573
 11
171.1391010576499
 21
25.43517212866573
 72
     1
 10
171.1391010576499
 20
25.43517212866573
 11
170.193026537524
 21
21.20516732215128
 72
     1
 10
170.193026537524
 20
21.20516732215219
 11
171.1391010576235
 21
21.20516732215219
 72
     1
 10
171.1391010576235
 20
21.20516732215219
 11
171.8975848621476
 21
24.59643309514013
 72
     1
 10
171.8975848621476
 20
24.59643309514013
 11
173.0872281001821
 21
24.59643309514013
 97
        0
 75
     0
 76
     1
 98
        1
 10
0.0188030870003786
 20
0.0014061040992601
  0
HATCH
  5
F2
330
E3
100
AcDbEntity
  8
LAYOUT
100
AcDbHatch
 10
0.0
 20
0.0
 30
0.0
210
0.0
220
0.0
230
1.0
  2
SOLID
 70
     1
 71
     0
 91
        1
 92
        0
 93
        4
 72
     1
 10
175.3573004869668
 20
21.20516732215219
 11
176.3359645904784
 21
21.20516732215219
 72
     1
 10
176.3359645904784
 20
21.20516732215219
 11
177.0155924401397
 21
24.29658452185868
 72
     1
 10
177.0155924401397
 20
24.29658452185868
 11
176.0912985646009
 21
24.29658452185868
 72
     1
 10
176.0912985646009
 20
24.29658452185868
 11
175.3573004869668
 21
21.20516732215219
 97
        0
 75
     0
 76
     1
 98
        1
 10
0.0188030870003786
 20
0.0014061040992601
  0
HATCH
  5
F3
330
E3
100
AcDbEntity
  8
LAYOUT
100
AcDbHatch
 10
0.0
 20
0.0
 30
0.0
210
0.0
220
0.0
230
1.0
  2
SOLID
 70
     1
 71
     0
 91
        2
 92
        0
 93
        8
 72
     1
 10
179.2476147042134
 20
12.67297683073048
 11
180.0928472258311
 21
12.67297683073048
 72
     1
 10
180.092847225832
 20
12.67297683073048
 11
180.3659109517093
 21
13.52854482664679
 72
     1
 10
180.3659109517084
 20
13.52854482664679
 11
181.8751739725512
 21
13.52854482664679
 72
     1
 10
181.8751739725512
 20
13.52854482664679
 11
182.1969760548418
 21
12.67297683073048
 72
     1
 10
182.1969760548427
 20
12.67297683073048
 11
183.0358857649599
 21
12.67297683073048
 72
     1
 10
183.0358857649599
 20
12.67297683073048
 11
181.5796417819311
 21
16.54466012518515
 72
     1
 10
181.5796417819311
 20
16.54466012518515
 11
180.6759182942269
 21
16.54466012518515
 72
     1
 10
180.6759182942269
 20
16.54466012518515
 11
179.2476147042134
 21
12.67297683073048
 97
        0
 92
        0
 93
        3
 72
     1
 10
181.1597915395532
 20
15.60375056966495
 11
181.6436647848795
 21
14.17596615848925
 72
     1
 10
181.6436647848805
 20
14.17596615848925
 11
180.6759182942269
 21
14.17596615848925
 72
     1
 10
180.6759182942269
 20
14.17596615848925
 11
181.1597915395532
 21
15.60375056966495
 97
        0
 75
     0
 76
     1
 98
        1
 10
0.0188030870003786
 20
0.0014061040992601
  0
HATCH
  5
F4
330
E3
100
AcDbEntity
  8
LAYOUT
100
AcDbHatch
 10
0.0
 20
0.0
 30
0.0
210
0.0
220
0.0
230
1.0
  2
SOLID
 70
     1
 71
     0
 91
        1
 92
        0
 93
        9
 72
     1
 10
194.3952996129246
 20
16.5433837342116
 11
193.4747816437757
 21
14.98801732821084
 72
     1
 10
193.4747816437748
 20
14.98801732821084
 11
192.5279925996638
 21
16.5433837342116
 72
     1
 10
192.5279925996647
 20
16.5433837342116
 11
191.5867906455396
 21
16.5433837342116
 72
     1
 10
191.5867906455387
 20
16.5433837342116
 11
193.0075561496569
 21
14.20017596760408
 72
     1
 10
193.0075561496569
 20
14.20017596760408
 11
193.0075561496569
 21
12.67297683073048
 72
     1
 10
193.0075561496569
 20
12.67297683073048
 11
193.9350406283493
 21
12.67297683073048
 72
     1
 10
193.9350406283502
 20
12.67297683073048
 11
193.9350406283502
 21
14.20017596760408
 72
     1
 10
193.9350406283502
 20
14.20017596760408
 11
195.3218295202087
 21
16.5433837342116
 72
     1
 10
195.3218295202087
 20
16.5433837342116
 11
194.3952996129246
 21
16.5433837342116
 97
        0
 75
     0
 76
     1
 98
        1
 10
0.0188030870003786
 20
0.0014061040992601
  0
HATCH
  5
F5
330
E3
100
AcDbEntity
  8
LAYOUT
100
AcDbHatch
 10
0.0
 20
0.0
 30
0.0
210
0.0
220
0.0
230
1.0
  2
SOLID
 70
     1
 71
     0
 91
        3
 92
        0
 93
       10
 72
     1
 10
183.0358857649599
 20
12.67297683073048
 11
185.2092263660734
 21
12.67297683073048
 72
     2
 10
185.2092263660734
 20
13.68709682786357
 40
1.014119997132617
 50
270.0000000000007
 51
351.0052235615959
 73
     1
 72
     1
 10
186.2108753222928
 20
13.52854482664679
 11
186.2108753222928
 21
13.9538280850993
 72
     2
 10
185.3842824840749
 20
13.95382808510021
 40
0.8265928382174673
 50
0.0
 51
79.93505949432449
 73
     1
 72
     1
 10
185.5287413798915
 20
14.76769991015044
 11
185.5287413798915
 21
14.81137955109898
 72
     2
 10
185.3409459200548
 20
15.48452765599723
 40
0.6988529930269587
 50
285.5880866537503
 51
352.3471735812969
 73
     1
 72
     1
 10
186.0335743547375
 20
15.39146124244235
 11
186.0335743547375
 21
15.67818471211649
 72
     2
 10
185.1683753326415
 20
15.67818471211649
 40
0.8651990220958083
 50
0.0
 51
90.0
 73
     1
 72
     1
 10
185.1683753326415
 20
16.5433837342116
 11
183.0358857649599
 21
16.5433837342116
 72
     1
 10
183.0358857649599
 20
16.5433837342116
 11
183.0358857649599
 21
12.67297683073048
 97
        0
 92
        0
 93
        4
 72
     2
 10
184.8379206107229
 20
13.85233373331448
 40
0.5517768147976221
 50
270.0000000000007
 51
450.0000000000008
 73
     0
 72
     1
 10
184.8379206107229
 20
13.30055691851612
 11
183.8378236755916
 21
13.30055691851612
 72
     1
 10
183.8378236755916
 20
13.30055691851612
 11
183.8378236755916
 21
14.40411054811102
 72
     1
 10
183.8378236755916
 20
14.40411054811193
 11
184.8379206107229
 21
14.40411054811193
 97
        0
 92
        0
 93
        4
 72
     2
 10
184.7835150004894
 20
15.44639094638114
 40
0.458373618170271
 50
263.6832764160837
 51
450.0000000000008
 73
     0
 72
     1
 10
184.7835150004894
 20
14.98801732821084
 11
183.8378236755916
 21
14.98801732821084
 72
     1
 10
183.8378236755916
 20
14.98801732821084
 11
183.8378236755916
 21
15.90198172500186
 72
     1
 10
183.8378236755916
 20
15.90198172500186
 11
184.7330827065643
 21
15.90198172500186
 97
        0
 75
     0
 76
     1
 98
        1
 10
0.0188030870003786
 20
0.0014061040992601
  0
HATCH
  5
F6
330
E3
100
AcDbEntity
  8
LAYOUT
100
AcDbHatch
 10
0.0
 20
0.0
 30
0.0
210
0.0
220
0.0
230
1.0
  2
SOLID
 70
     1
 71
     0
 91
        1
 92
        0
 93
       16
 72
     1
 10
183.4454647409111
 20
23.70570830076304
 11
183.6429937440653
 21
24.41283803456099
 72
     2
 10
184.0357304984627
 20
24.30313129209117
 40
0.4077716611022109
 50
195.6071280636315
 51
270.0000000000007
 73
     0
 72
     1
 10
184.0357304984627
 20
24.71090295319391
 11
186.3530312466946
 21
24.71090295319391
 72
     1
 10
186.3530312466955
 20
24.71090295319391
 11
186.5105230526178
 21
25.43681138847751
 72
     1
 10
186.5105230526178
 20
25.43681138847751
 11
183.3200631620539
 21
25.43681138847751
 72
     2
 10
183.3200631620539
 20
24.93754406759672
 40
0.4992673208808899
 50
90.0
 51
166.8022057871365
 73
     1
 72
     1
 10
182.8339826427973
 20
25.05153348157364
 11
182.114413997997
 21
21.98310556092747
 72
     2
 10
182.7312653286863
 20
21.83844944139491
 40
0.6335857930000013
 50
166.8022057871468
 51
268.2259906923874
 73
     1
 72
     1
 10
182.7116511873928
 20
21.20516732215219
 11
185.4504970865373
 21
21.20516732215219
 72
     1
 10
185.4504970865382
 20
21.20516732215219
 11
185.656924916344
 21
21.90712586990958
 72
     1
 10
185.656924916344
 20
21.90712586990867
 11
183.45428793472
 21
21.90712586990867
 72
     2
 10
183.45428793472
 20
22.21877257647066
 40
0.3116467065608197
 50
90.0
 51
192.2410777502558
 73
     0
 72
     1
 10
183.1497267854575
 20
22.28484962293987
 11
183.3149945166324
 21
23.0465987148209
 72
     1
 10
183.3149945166324
 20
23.0465987148209
 11
185.9405652057758
 21
23.0465987148209
 72
     1
 10
185.9405652057758
 20
23.0465987148209
 11
186.1246803027061
 21
23.70570830076304
 72
     1
 10
186.1246803027061
 20
23.70570830076304
 11
183.4454647409111
 21
23.70570830076304
 97
        0
 75
     0
 76
     1
 98
        1
 10
0.0188030870003786
 20
0.0014061040992601
  0
HATCH
  5
F7
330
E3
100
AcDbEntity
  8
LAYOUT
100
AcDbHatch
 10
0.0
 20
0.0
 30
0.0
210
0.0
220
0.0
230
1.0
  2
SOLID
 70
     1
 71
     0
 91
        1
 92
        0
 93
       12
 72
     2
 10
180.8947112428605
 20
21.89960808014621
 40
0.6982300656115565
 50
207.1936721057637
 51
264.0280674355271
 73
     1
 72
     1
 10
180.8220665034769
 20
21.20516732215219
 11
181.3207962431834
 21
21.20516732215219
 72
     1
 10
181.3207962431834
 20
21.20516732215219
 11
182.2560970550139
 21
25.51959103981335
 72
     1
 10
182.2560970550139
 20
25.51959103981335
 11
181.3207962431834
 21
25.51959103981335
 72
     1
 10
181.3207962431834
 20
25.51959103981335
 11
180.6759182942269
 21
22.74074511431081
 72
     1
 10
180.6759182942269
 20
22.7407451143099
 11
179.3128716302326
 21
25.25242075356527
 72
     2
 10
178.7472367228538
 20
24.77752854030132
 40
0.7385563368248844
 50
40.01593694048333
 51
94.19377315961732
 73
     1
 72
     1
 10
178.693226238498
 20
25.51410734141064
 11
178.0361614000221
 21
25.51410734141064
 72
     1
 10
178.0361614000212
 20
25.51410734141064
 11
177.0155924401388
 21
21.20516732215128
 72
     1
 10
177.0155924401397
 20
21.20516732215219
 11
177.952683878425
 21
21.20516732215219
 72
     1
 10
177.9526838784241
 20
21.20516732215219
 11
178.7197662971521
 21
24.4438628557773
 72
     1
 10
178.7197662971521
 20
24.44386285577639
 11
180.2736587451654
 21
21.58051715324473
 97
        0
 75
     0
 76
     1
 98
        1
 10
0.0188030870003786
 20
0.0014061040992601
  0
HATCH
  5
F8
330
E3
100
AcDbEntity
  8
LAYOUT
100
AcDbHatch
 10
0.0
 20
0.0
 30
0.0
210
0.0
220
0.0
230
1.0
  2
SOLID
 70
     1
 71
     0
 91
        1
 92
        0
 93
       14
 72
     1
 10
187.2281477722845
 20
24.06266190508723
 11
189.5030058586062
 21
22.04554796519915
 72
     2
 10
189.4563710219354
 20
21.99295419089231
 40
0.0702916288558194
 50
311.5633658068828
 51
408.4366341931477
 73
     0
 72
     1
 10
189.5030058586071
 20
21.94036041658546
 11
186.365331001406
 21
21.94036041658546
 72
     1
 10
186.3653310014051
 20
21.94036041658546
 11
186.1453942597655
 21
21.19108739653802
 72
     1
 10
186.1453942597655
 20
21.19108739653802
 11
189.7509202908586
 21
21.19108739653802
 72
     2
 10
189.7509202908586
 20
21.95122252088004
 40
0.7601351243420318
 50
270.0000000000007
 51
360.0000000000008
 73
     1
 72
     1
 10
190.5110554152006
 20
21.95122252088004
 11
190.5110554152006
 21
22.20500167700084
 72
     2
 10
190.1440694359972
 20
22.20500167700084
 40
0.3669859792037138
 50
0.0000000000171947
 51
46.81757321183044
 73
     1
 72
     1
 10
190.3952065626063
 20
22.47259998149912
 11
188.1629181314547
 21
24.56757028937682
 72
     2
 10
188.219642122679
 20
24.62801234380822
 40
0.0828906093854735
 50
133.1824267881008
 51
270.0000000000007
 73
     0
 72
     1
 10
188.219642122679
 20
24.71090295319391
 11
190.8890355074282
 21
24.71090295319391
 72
     1
 10
190.8890355074282
 20
24.71090295319391
 11
191.1226074285933
 21
25.43681138847751
 72
     1
 10
191.1226074285933
 20
25.43681138847751
 11
187.7496355574121
 21
25.43681138847751
 72
     2
 10
187.7496355574121
 20
24.65078470839308
 40
0.7860266800845418
 50
90.0
 51
228.4366341933596
 73
     1
 97
        0
 75
     0
 76
     1
 98
        1
 10
0.0188030870003786
 20
0.0014061040992601
  0
HATCH
  5
F9
330
E3
100
AcDbEntity
  8
LAYOUT
100
AcDbHatch
 10
0.0
 20
0.0
 30
0.0
210
0.0
220
0.0
230
1.0
  2
SOLID
 70
     1
 71
     0
 91
        1
 92
        0
 93
       16
 72
     2
 10
192.8583218104359
 20
24.34999500845697
 40
0.3609079447365545
 50
203.7463083835042
 51
270.0000000000007
 73
     0
 72
     1
 10
192.8583218104359
 20
24.71090295319391
 11
195.1711342060307
 21
24.71090295319391
 72
     1
 10
195.1711342060307
 20
24.71090295319391
 11
195.3218295202078
 21
25.43681138847751
 72
     1
 10
195.3218295202087
 20
25.43681138847751
 11
192.2483292102361
 21
25.43681138847751
 72
     2
 10
192.2483292102361
 20
24.8264925574731
 40
0.6103188310040094
 50
90.0
 51
167.3223162817401
 73
     1
 72
     1
 10
191.652889892267
 20
24.96043692687635
 11
190.9765554488722
 21
21.95384455208023
 72
     2
 10
191.5867906455387
 20
21.81657184243795
 40
0.6254844459003837
 50
167.3223162817523
 51
270.0000000000007
 73
     1
 72
     1
 10
191.5867906455387
 20
21.19108739653802
 11
194.3075083502135
 21
21.19108739653802
 72
     1
 10
194.3075083502135
 20
21.19108739653802
 11
194.513810400319
 21
21.95122252088004
 72
     1
 10
194.513810400319
 20
21.95122252088004
 11
192.2951022458255
 21
21.95122252088004
 72
     2
 10
192.2951022458255
 20
22.28326116412518
 40
0.3320386432447198
 50
90.0
 51
195.2944284970691
 73
     0
 72
     1
 10
191.9748233909049
 20
22.37084606977987
 11
192.159934445438
 21
23.04775673304812
 72
     1
 10
192.159934445438
 20
23.04775673304721
 11
194.7864215138388
 21
23.04775673304721
 72
     1
 10
194.7864215138388
 20
23.04775673304721
 11
194.9666646051728
 21
23.7068663189757
 72
     1
 10
194.9666646051728
 20
23.7068663189757
 11
192.3123529044424
 21
23.7068663189757
 72
     1
 10
192.3123529044424
 20
23.7068663189757
 11
192.5279692610848
 21
24.49532820394506
 97
        0
 75
     0
 76
     1
 98
        1
 10
0.0188030870003786
 20
0.0014061040992601
  0
HATCH
  5
FA
330
E3
100
AcDbEntity
  8
LAYOUT
100
AcDbHatch
 10
0.0
 20
0.0
 30
0.0
210
0.0
220
0.0
230
1.0
  2
SOLID
 70
     1
 71
     0
 91
        1
 92
        0
 93
        3
 72
     1
 10
177.3434742266163
 20
25.51959103981335
 11
176.3959808210338
 21
25.51959103981335
 72
     2
 10
175.9080447269826
 20
24.3448969309311
 40
1.272001525675369
 50
292.5566739760716
 51
345.4251522208027
 73
     0
 72
     1
 10
177.1391129038439
 20
24.66498914458134
 11
177.3434742266163
 21
25.51959103981244
 97
        0
 75
     0
 76
     1
 98
        1
 10
0.0188030870003786
 20
0.0014061040992601
  0
HATCH
  5
FB
330
E3
100
AcDbEntity
  8
LAYOUT
100
AcDbHatch
 10
0.0
 20
0.0
 30
0.0
210
0.0
220
0.0
230
1.0
  2
SOLID
 70
     1
 71
     0
 91
        1
 92
        0
 93
        7
 72
     3
 10
190.2770808450587
 20
14.59638268825802
 11
0.0
 21
-2.074329288377157
 40
0.9311589483712057
 50
44.70424042237897
 51
52.28045398614182
 73
     0
 72
     1
 10
188.7097181472591
 20
13.38413281117391
 11
187.2281477722854
 21
13.38413281117391
 72
     1
 10
187.2281477722854
 20
13.38413281117391
 11
187.2281477722854
 21
16.5433837342116
 72
     1
 10
187.2281477722854
 20
16.5433837342116
 11
186.365331001406
 21
16.5433837342116
 72
     1
 10
186.3653310014051
 20
16.5433837342116
 11
186.3653310014051
 21
12.67297683073048
 72
     1
 10
186.3653310014051
 20
12.67297683073048
 11
188.8702917723858
 21
12.67297683073048
 72
     1
 10
188.8702917723858
 20
12.67297683073048
 11
188.8702917723858
 21
13.17499449589468
 97
        0
 75
     0
 76
     1
 98
        1
 10
0.0188030870003786
 20
0.0014061040992601
  0
HATCH
  5
FC
330
E3
100
AcDbEntity
  8
LAYOUT
100
AcDbHatch
 10
0.0
 20
0.0
 30
0.0
210
0.0
220
0.0
230
1.0
  2
SOLID
 70
     1
 71
     0
 91
        1
 92
        0
 93
        3
 72
     1
 10
188.8702917723858
 20
13.38413281117391
 11
188.7097181472582
 21
13.38413281117391
 72
     3
 10
190.2770808450587
 20
14.59638268825802
 11
0.0
 21
-2.074329288377157
 40
0.9311589483716443
 50
307.719546013842
 51
315.2957595776301
 73
     1
 72
     1
 10
188.8702917723858
 20
13.17499449589468
 11
188.8702917723858
 21
13.38413281117482
 97
        0
 75
     0
 76
     1
 98
        1
 10
0.0188030870003786
 20
0.0014061040992601
  0
HATCH
  5
FD
330
E3
100
AcDbEntity
  8
LAYOUT
100
AcDbHatch
 10
0.0
 20
0.0
 30
0.0
210
0.0
220
0.0
230
1.0
  2
SOLID
 70
     1
 71
     0
 91
        1
 92
        0
 93
        3
 72
     1
 10
175.1501736936743
 20
13.72136292328469
 11
174.9558726532277
 21
13.20878234534393
 72
     2
 10
175.0698571200683
 20
13.46573045569039
 40
0.2810956956111486
 50
246.0775003099444
 51
248.2421866122009
 73
     1
 72
     2
 10
173.830643475645
 20
13.90127027666222
 40
1.331738207040926
 50
328.4607004015018
 51
352.2360525444682
 73
     1
 97
        0
 75
     0
 76
     1
 98
        1
 10
0.0188030870003786
 20
0.0014061040992601
  0
HATCH
  5
FE
330
E3
100
AcDbEntity
  8
LAYOUT
100
AcDbHatch
 10
0.0
 20
0.0
 30
0.0
210
0.0
220
0.0
230
1.0
  2
SOLID
 70
     1
 71
     0
 91
        1
 92
        0
 93
       26
 72
     1
 10
172.7181895757958
 20
13.95382808510021
 11
172.1057833753339
 21
13.95382808510021
 72
     2
 10
171.0450621866121
 20
13.8128469733465
 40
1.070049117599742
 50
352.4291545380157
 51
352.4322360011652
 73
     0
 72
     2
 10
170.8469533018933
 20
13.83078204776575
 40
1.264831423946627
 50
354.4198870536403
 51
384.7844794435853
 73
     0
 72
     2
 10
173.3037312006136
 20
14.10657423219891
 40
1.536783013470412
 50
211.633478359136
 51
269.7985515603569
 73
     1
 72
     1
 10
173.2983279771133
 20
12.56980071743965
 11
173.8038952989582
 21
12.56980071743965
 72
     2
 10
173.830643475645
 20
13.90127027666222
 40
1.331738207040926
 50
268.8491276386978
 51
326.2440801459376
 73
     1
 72
     1
 10
174.93786687594
 20
13.16128176733764
 11
174.9558726532277
 21
13.20878234534393
 72
     2
 10
175.0698571200683
 20
13.46573045569039
 40
0.2810956956111486
 50
113.9224996900565
 51
286.9717335693342
 73
     0
 72
     2
 10
173.830643475645
 20
13.90127027666222
 40
1.331738207040926
 50
352.8097526413649
 51
362.2593417500278
 73
     1
 72
     2
 10
174.1006176491401
 20
13.8128469733465
 40
1.070049117599464
 50
7.567763998838037
 51
74.79511182073757
 73
     1
 72
     1
 10
174.3812610447376
 20
14.84543808244234
 11
173.0867250339797
 21
15.1972743306751
 72
     2
 10
173.1796029762863
 20
15.53900671761585
 40
0.3541289827896589
 50
105.204888179325
 51
195.9801346085117
 73
     0
 72
     2
 10
173.2983279771133
 20
15.5050074155597
 40
0.4776262635763435
 50
195.9801346085197
 51
270.0000000000007
 73
     0
 72
     1
 10
173.2983279771133
 20
15.9826336791366
 11
173.7745427610726
 21
15.9826336791366
 72
     2
 10
173.6846953091053
 20
15.47484731699387
 40
0.515673883576584
 50
280.0340315360539
 51
371.1317214410727
 73
     0
 72
     1
 10
174.1906672655878
 20
15.37528862346699
 11
175.0349507273795
 21
15.37528862346699
 72
     2
 10
173.8730668520166
 20
15.46120842785604
 40
1.165056373148939
 50
355.7707493615579
 51
450.0000000000008
 73
     1
 72
     1
 10
173.8730668520166
 20
16.62626480100516
 11
173.140911858035
 21
16.62626480100516
 72
     2
 10
173.140911858035
 20
15.48980799394485
 40
1.136456807060184
 50
90.0
 51
192.7888499479176
 73
     1
 72
     2
 10
172.8869043453142
 20
15.43215088331272
 40
0.875987693871445
 50
192.7888499479167
 51
251.8134818904958
 73
     1
 72
     1
 10
172.6134986188636
 20
14.5999227003249
 11
173.9621391026731
 21
14.15686388696849
 72
     2
 10
173.7364809027749
 20
13.46997588314116
 40
0.7230053616561865
 50
288.1865181095286
 51
327.3783608240086
 73
     0
 72
     1
 10
174.3454313420498
 20
13.85974006247397
 11
174.3454313420498
 21
13.57946845659535
 72
     2
 10
173.8038952989582
 20
13.80331270156967
 40
0.5859757093723216
 50
22.4577836430545
 51
90.0
 73
     0
 72
     1
 10
173.8038952989582
 20
13.21733699219749
 11
173.3161047645781
 21
13.21733699219749
 72
     2
 10
173.360371225087
 20
13.86422660855987
 40
0.6484024177034085
 50
93.91463020234399
 51
187.9430110159454
 73
     0
 97
        0
 75
     0
 76
     1
 98
        1
 10
0.0188030870003786
 20
0.0014061040992601
  0
HATCH
  5
FF
330
E3
100
AcDbEntity
  8
LAYOUT
100
AcDbHatch
 10
0.0
 20
0.0
 30
0.0
210
0.0
220
0.0
230
1.0
  2
SOLID
 70
     1
 71
     0
 91
        1
 92
        0
 93
        3
 72
     2
 10
173.830643475645
 20
13.90127027666222
 40
1.331738207040926
 50
352.2360525444682
 51
352.8097526413649
 73
     1
 72
     2
 10
175.0698571200683
 20
13.46573045569039
 40
0.2810956956111486
 50
73.02826643066663
 51
246.0775003099444
 73
     1
 72
     1
 10
174.9558726532277
 20
13.20878234534484
 11
175.1501736936743
 21
13.7213629232856
 97
        0
 75
     0
 76
     1
 98
        1
 10
0.0188030870003786
 20
0.0014061040992601
  0
HATCH
  5
100
330
E3
100
AcDbEntity
  8
LAYOUT
100
AcDbHatch
 10
0.0
 20
0.0
 30
0.0
210
0.0
220
0.0
230
1.0
  2
SOLID
 70
     1
 71
     0
 91
        1
 92
        0
 93
        3
 72
     2
 10
173.830643475645
 20
13.90127027666222
 40
1.331738207040926
 50
7.763947455532613
 51
31.53929959849913
 73
     0
 72
     2
 10
175.0698571200683
 20
13.46573045569039
 40
0.2810956956111486
 50
248.2421866122009
 51
432.4026323804619
 73
     1
 72
     1
 10
175.1548396846956
 20
13.73367215420058
 11
175.1501736936752
 21
13.72136292328469
 97
        0
 75
     0
 76
     1
 98
        1
 10
0.0188030870003786
 20
0.0014061040992601
  0
HATCH
  5
101
330
E3
100
AcDbEntity
  8
LAYOUT
100
AcDbHatch
 10
0.0
 20
0.0
 30
0.0
210
0.0
220
0.0
230
1.0
  2
SOLID
 70
     1
 71
     0
 91
        2
 92
        0
 93
       11
 72
     2
 10
175.0698571200683
 20
13.46573045569039
 40
0.2810956956111486
 50
287.5973676195397
 51
471.7578133878006
 73
     0
 72
     2
 10
173.830643475645
 20
13.90127027666222
 40
1.331738207040926
 50
31.53929959849913
 51
33.75591985406313
 73
     0
 72
     1
 10
174.93786687594
 20
13.16128176733764
 11
174.7527678664937
 21
12.67297683073048
 72
     1
 10
174.7527678664937
 20
12.67297683073048
 11
175.5935778171115
 21
12.67297683073048
 72
     1
 10
175.5935778171115
 20
12.67297683073048
 11
175.9080447269826
 21
13.50256389848073
 72
     1
 10
175.9080447269826
 20
13.50256389848073
 11
177.3434742266163
 21
13.50256389848073
 72
     1
 10
177.3434742266163
 20
13.50256389848073
 11
177.6751285084074
 21
12.67297683073048
 72
     1
 10
177.6751285084074
 20
12.67297683073048
 11
178.5634231528657
 21
12.67297683073048
 72
     1
 10
178.5634231528666
 20
12.67297683073048
 11
177.0155924401397
 21
16.54466012518515
 72
     1
 10
177.0155924401397
 20
16.54466012518515
 11
176.2203851051645
 21
16.54466012518515
 72
     1
 10
176.2203851051645
 20
16.54466012518515
 11
175.1548396846956
 21
13.73367215420058
 97
        0
 92
        0
 93
        3
 72
     1
 10
176.6450437450831
 20
15.60375056966495
 11
177.1391129038429
 21
14.17596615848925
 72
     1
 10
177.1391129038439
 20
14.17596615848925
 11
176.0912985646009
 21
14.17596615848925
 72
     1
 10
176.0912985646009
 20
14.17596615848925
 11
176.6450437450831
 21
15.60375056966495
 97
        0
 75
     0
 76
     1
 98
        1
 10
0.0188030870003786
 20
0.0014061040992601
  0
CIRCLE
  5
102
330
E3
100
AcDbEntity
  8
LAYOUT
100
AcDbCircle
 10
175.0698571201001
 20
13.46573045569949
 30
0.0
 40
0.281095695611166
  0
ELLIPSE
  5
103
330
E3
100
AcDbEntity
  8
LAYOUT
100
AcDbEllipse
 10
190.2770808450996
 20
14.59638268829895
 30
0.0
 11
0.0
 21
-2.074329288377141
 31
0.0
210
0.0
220
0.0
230
1.0
 40
0.9311589484
 41
0.0
 42
6.283185307179586
  0
ELLIPSE
  5
104
330
E3
100
AcDbEntity
  8
LAYOUT
100
AcDbEllipse
 10
190.2770808450996
 20
14.59638268829895
 30
0.0
 11
0.02653369580983167
 21
-1.359239788981782
 31
0.0
210
0.0
220
0.0
230
1.0
 40
0.7975705451
 41
0.0
 42
6.283185307179586
  0
HATCH
  5
105
330
E3
100
AcDbEntity
  8
LAYOUT
100
AcDbHatch
 10
0.0
 20
0.0
 30
0.0
210
0.0
220
0.0
230
1.0
  2
SOLID
 70
     1
 71
     0
 91
        1
 92
        7
 72
     1
 73
     1
 93
       11
 10
196.2764163820002
 20
18.89441132159936
 42
0.4109258272662993
 10
196.1177982853997
 20
19.05127051390809
 42
0.0
 10
164.8227117762999
 20
19.051270513899
 42
0.0
 10
164.8227117762999
 20
20.03576141709891
 42
0.0
 10
164.5697627931995
 20
20.03576141709891
 42
0.0
 10
164.569762793195
 20
18.96562983729928
 42
0.4115429654270726
 10
164.7379050996178
 20
18.79594591939713
 42
0.0
 10
196.0327104167
 20
18.79594591939895
 42
0.0
 10
196.0327104167
 20
17.82714726659924
 42
0.0
 10
196.2764163820002
 20
17.82714726659924
 42
0.0
 10
196.2764163820102
 20
18.89265241729936
 42
0.0
 97
        0
 75
     0
 76
     1
 47
0.0
 98
        1
 10
184.7339037955053
 20
18.93707027999335
1001
ACAD
1010
0.0
1020
0.0
1030
0.0
  0
HATCH
  5
106
330
E3
100
AcDbEntity
  8
LAYOUT
100
AcDbHatch
 10
0.0
 20
0.0
 30
0.0
210
0.0
220
0.0
230
1.0
  2
SOLID
 70
     1
 71
     0
 91
        2
 92
        5
 93
        3
 72
     3
 10
190.2770808450996
 20
14.59638268829895
 11
0.0
 21
-2.074329288377157
 40
0.9311589484001437
 50
315.295728101389
 51
667.7195535242416
 73
     1
 72
     1
 10
188.709718646418
 20
13.38413281119938
 11
188.8702917723995
 21
13.38413281119938
 72
     1
 10
188.8702917723995
 20
13.38413281119938
 11
188.8702917723995
 21
13.17499595128538
 97
        0
 92
       20
 93
        1
 72
     3
 10
190.2770808450996
 20
14.59638268829895
 11
0.02653369581003062
 21
-1.359239788981995
 40
0.7975705450996485
 50
0.0
 51
360.0
 73
     1
 97
        0
 75
     0
 76
     1
 47
0.0
 98
        2
 10
191.073624203862
 20
16.27645075570854
 10
191.073624203862
 20
16.27645075570854
1001
ACAD
1010
0.0
1020
0.0
1030
0.0
  0
HATCH
  5
107
330
E3
100
AcDbEntity
  8
LAYOUT
100
AcDbHatch
 10
0.0
 20
0.0
 30
0.0
210
0.0
220
0.0
230
1.0
  2
SOLID
 70
     1
 71
     0
 91
        1
 92
        0
 93
       12
 72
     1
 10
166.2907953938002
 20
25.44991625357306
 11
165.5188255047533
 21
21.90712586990958
 72
     2
 10
166.0789759860536
 20
21.7850697339054
 40
0.5732942194352403
 50
167.7074622073168
 51
271.0168977182062
 73
     1
 72
     2
 10
167.3529237238299
 20
-49.9863219286799
 40
71.20940288803499
 50
268.9831022817926
 51
271.2851977310887
 73
     0
 72
     2
 10
168.9679096818281
 20
21.99976828208855
 40
0.7948009022819319
 50
268.7148022688892
 51
351.0868508344587
 73
     1
 72
     1
 10
169.753112834117
 20
21.87662412305872
 11
170.5285162905866
 21
25.43517212864299
 72
     1
 10
170.5285162905866
 20
25.4351721286439
 11
169.5786916985771
 21
25.4351721286439
 72
     1
 10
169.5786916985771
 20
25.4351721286439
 11
168.90795030964
 21
22.46775340018758
 72
     2
 10
168.1783994537791
 20
22.63265764833704
 40
0.7479557890313745
 50
12.73683110763711
 51
61.02938093758575
 73
     0
 72
     1
 10
168.540680110119
 20
21.97829491377252
 11
166.7837853325364
 21
21.97829491377252
 72
     2
 10
167.053833068514
 20
22.37355446623224
 40
0.4787023015586591
 50
124.3415228132398
 51
193.346307780738
 73
     0
 72
     1
 10
166.5880592602934
 20
22.48405629016543
 11
167.2916903569794
 21
25.44991625357306
 72
     1
 10
167.2916903569785
 20
25.44991625357306
 11
166.2907953937993
 21
25.44991625357306
 97
        0
 75
     0
 76
     1
 98
        1
 10
0.0188030870003786
 20
0.0014061040992601
  0
HATCH
  5
108
330
E3
100
AcDbEntity
  8
LAYOUT
100
AcDbHatch
 10
0.0
 20
0.0
 30
0.0
210
0.0
220
0.0
230
1.0
  2
SOLID
 70
     1
 71
     0
 91
        2
 92
        0
 93
       10
 72
     1
 10
168.3947503582176
 20
12.67297683073048
 11
169.2768486351415
 21
12.67297683073048
 72
     1
 10
169.2768486351415
 20
12.67297683073048
 11
169.1319420157624
 21
13.07061640889333
 72
     1
 10
169.1319420157624
 20
13.07061640889333
 11
168.8100846725201
 21
13.95382808510021
 72
     1
 10
168.8100846725192
 20
13.95382808510021
 11
167.865941451053
 21
16.54466012518515
 72
     1
 10
167.8659414510539
 20
16.54466012518515
 11
166.9472985442017
 21
16.54466012518515
 72
     1
 10
166.9472985442007
 20
16.54466012518515
 11
165.5188255047524
 21
12.67297683073048
 72
     1
 10
165.5188255047524
 20
12.67297683073048
 11
166.2907953937993
 21
12.67297683073048
 72
     1
 10
166.2907953938002
 20
12.67297683073048
 11
166.5880592602934
 21
13.54061448016455
 72
     1
 10
166.5880592602934
 20
13.54061448016455
 11
168.1783994537791
 21
13.54061448016455
 72
     1
 10
168.1783994537791
 20
13.54061448016455
 11
168.3947503582167
 21
12.67297683073048
 97
        0
 92
        0
 93
        3
 72
     1
 10
166.8806015529308
 20
14.17596615848925
 11
167.4053832404816
 21
15.60375056966495
 72
     1
 10
167.4053832404825
 20
15.60375056966495
 11
167.897070587378
 21
14.17596615848925
 72
     1
 10
167.8970705873771
 20
14.17596615848925
 11
166.8806015529308
 21
14.17596615848925
 97
        0
 75
     0
 76
     1
 98
        1
 10
0.0188030870003786
 20
0.0014061040992601
  0
HATCH
  5
109
330
E3
100
AcDbEntity
  8
LAYOUT
100
AcDbHatch
 10
0.0
 20
0.0
 30
0.0
210
0.0
220
0.0
230
1.0
  2
SOLID
 70
     1
 71
     0
 91
        1
 92
        0
 93
       25
 72
     2
 10
170.3048157625581
 20
13.86422660855987
 40
0.6484024177036284
 50
93.91463020234652
 51
187.9430110159402
 73
     0
 72
     1
 10
169.6626341132678
 20
13.95382808510021
 11
168.8100846725192
 21
13.95382808510021
 72
     1
 10
168.8100846725192
 20
13.95382808510021
 11
169.1319420157615
 21
13.07061640889333
 72
     2
 10
170.2672291744175
 20
14.10638911459773
 40
1.536783013470256
 50
222.3755813376623
 51
269.088145475632
 73
     1
 72
     1
 10
170.2427725145853
 20
12.56980071743965
 11
170.7483398364302
 21
12.56980071743965
 72
     2
 10
170.8469533018933
 20
13.83078204776575
 40
1.264831423946627
 50
265.5283564423802
 51
335.2155205564163
 73
     1
 72
     2
 10
170.8469533018933
 20
13.83078204776575
 40
1.264831423946627
 50
335.2155205564163
 51
365.5801129463612
 73
     1
 72
     2
 10
171.0450621866121
 20
13.8128469733465
 40
1.070049117599742
 50
7.567763998835667
 51
7.570845461985081
 73
     1
 72
     2
 10
171.0450621866121
 20
13.8128469733465
 40
1.070049117599742
 50
7.570845461985081
 51
74.79511182071398
 73
     1
 72
     1
 10
171.3257055822096
 20
14.84543808244234
 11
170.0311695714518
 21
15.1972743306751
 72
     2
 10
170.1240475137574
 20
15.53900671761585
 40
0.3541289827893871
 50
105.2048881792625
 51
195.9801346085318
 73
     0
 72
     2
 10
170.2427725145853
 20
15.5050074155597
 40
0.4776262635763435
 50
195.9801346085205
 51
270.0000000000007
 73
     0
 72
     1
 10
170.2427725145853
 20
15.9826336791366
 11
170.7189872985446
 21
15.9826336791366
 72
     2
 10
170.6291398465773
 20
15.47484731699387
 40
0.5156738835765453
 50
280.0340315360072
 51
371.1317214410727
 73
     0
 72
     1
 10
171.1351118030598
 20
15.37528862346699
 11
171.9793952648515
 21
15.37528862346699
 72
     1
 10
171.9793952648515
 20
15.37528862346699
 11
171.9793952648515
 21
15.46438092564222
 72
     2
 10
170.8175113894877
 20
15.46438092564222
 40
1.161883875363257
 50
0.0
 51
90.0
 73
     1
 72
     1
 10
170.8175113894877
 20
16.62626480100516
 11
170.085356395507
 21
16.62626480100516
 72
     2
 10
170.085356395507
 20
15.48980799394485
 40
1.1364568070604
 50
90.0
 51
192.7888499479132
 73
     1
 72
     2
 10
169.8313488827853
 20
15.43215088331272
 40
0.8759876938716616
 50
192.7888499479107
 51
251.8134818904939
 73
     1
 72
     1
 10
169.5579431563356
 20
14.5999227003249
 11
170.9065836401442
 21
14.15686388696849
 72
     2
 10
170.6809254402469
 20
13.46997588314116
 40
0.7230053616559301
 50
288.1865181094966
 51
327.3783608239891
 73
     0
 72
     1
 10
171.2898758795209
 20
13.85974006247397
 11
171.2898758795209
 21
13.57946845659535
 72
     2
 10
170.7483398364302
 20
13.80331270156967
 40
0.5859757093721164
 50
22.4577836430715
 51
90.0
 73
     0
 72
     1
 10
170.7483398364302
 20
13.21733699219749
 11
170.2605493020492
 21
13.21733699219749
 97
        0
 75
     0
 76
     1
 98
        1
 10
0.0188030870003786
 20
0.0014061040992601
  0
LWPOLYLINE
  5
10A
330
E3
100
AcDbEntity
  8
LAYOUT
100
AcDbPolyline
 90
       22
 70
     0
 43
0.0
 10
172.1057833753002
 20
13.9538280850993
 10
172.7181895758004
 20
13.9538280850993
 42
0.4349596299550234
 10
173.3161047645917
 20
13.21733699223614
 10
173.803895299
 20
13.21733699219931
 42
0.3035478487272821
 10
174.3454313419998
 20
13.57946845659899
 10
174.3454313419998
 20
13.85974006249944
 42
0.1726933381909528
 10
173.9621391026976
 20
14.15686388692711
 10
172.6134986188999
 20
14.59992270029943
 42
-0.2633929586259035
 10
172.03264775967
 20
15.23824336482176
 42
-0.4812075807346065
 10
173.1409118580004
 20
16.6262648009988
 10
173.8730668520002
 20
16.6262648009988
 42
-0.4360023050210734
 10
175.0349507273631
 20
15.37528862351064
 10
174.1906672655996
 20
15.37528862349882
 42
0.419836096989208
 10
173.7745427610998
 20
15.98263367909931
 10
173.2983279770997
 20
15.98263367909931
 42
0.3346917054964769
 10
172.8391585267518
 20
15.63649986224755
 42
0.4181821598473712
 10
173.0867250339934
 20
15.19727433065827
 10
174.3812610447003
 20
14.84543808239869
 42
-0.3020480096548743
 10
175.1613464184848
 20
13.95377103756709
 42
-0.4317558252612729
 10
173.803895299
 20
12.56980071739872
 10
173.2983279770997
 20
12.56980071739872
 42
-0.259386169078722
 10
171.9952824547427
 20
13.30055691851703
 42
-0.259386169078722
  0
LWPOLYLINE
  5
10B
330
E3
100
AcDbEntity
  8
LAYOUT
100
AcDbPolyline
 90
        9
 70
     1
 43
0.0
 10
194.3952996129001
 20
16.54338373419887
 10
195.3218295201996
 20
16.54338373419887
 10
193.9350406283002
 20
14.20017596759862
 10
193.9350406283002
 20
12.67297683069864
 10
193.0075561496997
 20
12.67297683069864
 10
193.0075561496997
 20
14.20017596759862
 10
191.5867906454996
 20
16.54338373419887
 10
192.5279925997002
 20
16.54338373419887
 10
193.4747816438003
 20
14.98801732819902
  0
LWPOLYLINE
  5
10C
330
E3
100
AcDbEntity
  8
LAYOUT
100
AcDbPolyline
 90
        7
 70
     0
 43
0.0
 10
186.3653310013997
 20
12.62860457459919
 10
186.3653310013997
 20
16.54338373419887
 10
187.2281477723
 20
16.54338373419887
 10
187.2281477723
 20
13.38413281119938
 10
188.8702917723995
 20
13.38413281119938
 10
188.8702917723995
 20
12.67297683069864
 10
186.3649380325996
 20
12.67297683069864
  0
LWPOLYLINE
  5
10D
330
E3
100
AcDbEntity
  8
LAYOUT
100
AcDbPolyline
 90
        4
 70
     1
 43
0.0
 10
183.8378236755998
 20
14.4041105480992
 10
183.8378236755998
 20
13.30055691849884
 10
184.8379206107002
 20
13.30055691849884
 42
0.9999999999999999
 10
184.8379206107002
 20
14.40411054809647
  0
LWPOLYLINE
  5
10E
330
E3
100
AcDbEntity
  8
LAYOUT
100
AcDbPolyline
 90
        4
 70
     1
 43
0.0
 10
184.7330827065998
 20
15.90198172499913
 10
183.8378236755998
 20
15.90198172499913
 10
183.8378236755998
 20
14.98801732819902
 10
184.7835150005003
 20
14.98801732819902
 42
1.056700957217066
  0
LWPOLYLINE
  5
10F
330
E3
100
AcDbEntity
  8
LAYOUT
100
AcDbPolyline
 90
       10
 70
     1
 43
0.0
 10
185.5287413798997
 20
14.76769991019864
 10
185.5287413798997
 20
14.81137955109898
 42
0.2998198032139969
 10
186.033574354783
 20
15.39146124244417
 10
186.0335743547002
 20
15.67818471209921
 42
0.414213562373095
 10
185.1683753325997
 20
16.54338373419887
 10
183.0358857649999
 20
16.54338373419887
 10
183.0358857649999
 20
12.67297683069864
 10
185.2092263660998
 20
12.67297683069864
 42
0.3689453714538178
 10
186.2108753223192
 20
13.52854482668317
 10
186.2108753223001
 20
13.9538280850993
 42
0.3636493734877073
  0
LWPOLYLINE
  5
110
330
E3
100
AcDbEntity
  8
LAYOUT
100
AcDbPolyline
 90
        3
 70
     1
 43
0.0
 10
181.6436647848996
 20
14.17596615849925
 10
180.6759182941996
 20
14.17596615849925
 10
181.1597915395996
 20
15.60375056969951
  0
LWPOLYLINE
  5
111
330
E3
100
AcDbEntity
  8
LAYOUT
100
AcDbPolyline
 90
        8
 70
     1
 43
0.0
 10
179.2476147041998
 20
12.67297683069864
 10
180.6759182941996
 20
16.54466012519879
 10
181.5796417819001
 20
16.54466012519879
 10
183.0358857649999
 20
12.67297683069864
 10
182.1969760548
 20
12.67297683069864
 10
181.8751739726004
 20
13.5285448265995
 10
180.3659109517002
 20
13.5285448265995
 10
180.0928472258001
 20
12.67297683069864
  0
LWPOLYLINE
  5
112
330
E3
100
AcDbEntity
  8
LAYOUT
100
AcDbPolyline
 90
        3
 70
     1
 43
0.0
 10
176.0912985646
 20
14.17596615849925
 10
176.6450437451003
 20
15.60375056969951
 10
177.1391129038002
 20
14.17596615849925
  0
LWPOLYLINE
  5
113
330
E3
100
AcDbEntity
  8
LAYOUT
100
AcDbPolyline
 90
        8
 70
     1
 43
0.0
 10
176.2203851052
 20
16.54466012519879
 10
177.0155924400997
 20
16.54466012519879
 10
178.5634231529002
 20
12.67297683069864
 10
177.6751285084001
 20
12.67297683069864
 10
177.3434742265999
 20
13.50256389849892
 10
175.9080447269998
 20
13.50256389849892
 10
175.5935778170997
 20
12.67297683069864
 10
174.7527678665001
 20
12.67297683069864
  0
LWPOLYLINE
  5
114
330
E3
100
AcDbEntity
  8
LAYOUT
100
AcDbPolyline
 90
       16
 70
     1
 43
0.0
 10
183.4454647409002
 20
23.70570830079942
 10
186.1246803026997
 20
23.70570830079942
 10
185.9405652058003
 20
23.04659871479907
 10
183.3149945165997
 20
23.04659871479907
 10
183.1497267855002
 20
22.28484962289895
 42
0.4782673946958509
 10
183.4542879347
 20
21.90712586993777
 10
185.6569249163003
 20
21.90712586989866
 10
185.4504970865
 20
21.20516732219949
 10
182.7116511874074
 20
21.20516732215629
 42
-0.4738930125601813
 10
182.1144139979997
 20
21.98310556089928
 10
182.8339826428
 20
25.05153348159911
 42
-0.3482476357783106
 10
183.3200631621003
 20
25.43681138849934
 10
186.5105230525996
 20
25.43681138849934
 10
186.3530312467001
 20
24.71090295319937
 10
184.0357304985
 20
24.71090295319937
 42
0.3365025571567784
 10
183.6429937441026
 20
24.41283803456827
  0
LWPOLYLINE
  5
115
330
E3
100
AcDbEntity
  8
LAYOUT
100
AcDbPolyline
 90
        4
 70
     1
 43
0.0
 10
175.3573004870004
 20
21.20516732219949
 10
176.0912985646
 20
24.29658452189869
 10
177.0155924400997
 20
24.29658452189869
 10
176.3359645905002
 20
21.20516732219949
  0
LWPOLYLINE
  5
116
330
E3
100
AcDbEntity
  8
LAYOUT
100
AcDbPolyline
 90
        3
 70
     0
 43
0.0
 10
196.276416382053
 20
18.89265241729936
 42
0.414213562373095
 10
196.1177982853997
 20
19.051270513899
 10
164.8227117762999
 20
19.051270513899
  0
LWPOLYLINE
  5
117
330
E3
100
AcDbEntity
  8
LAYOUT
100
AcDbPolyline
 90
        9
 70
     0
 43
0.0
 10
164.8227117762999
 20
19.04987892019926
 10
164.8227117762999
 20
20.03576141709891
 10
164.5697627931995
 20
20.03576141709891
 10
164.5697627931995
 20
18.96562983729928
 42
0.411542966222985
 10
164.7379051000999
 20
18.79594591939895
 10
196.0327104167
 20
18.79594591939895
 10
196.0327104167
 20
17.82714726659924
 10
196.2764163820002
 20
17.82714726659924
 10
196.2764163820002
 20
18.89441132159936
  0
LWPOLYLINE
  5
118
330
E3
100
AcDbEntity
  8
LAYOUT
100
AcDbPolyline
 90
       16
 70
     1
 43
0.0
 10
192.8583218104004
 20
24.71090295323575
 42
0.2974179543609481
 10
192.5279692610484
 20
24.49532820398781
 10
192.3123529043996
 20
23.70686631899935
 10
194.9666646052001
 20
23.70686631899935
 10
194.7864215137997
 20
23.04775673299901
 10
192.1599344453998
 20
23.04775673299901
 10
191.9748233908795
 20
22.37084606975441
 42
0.4947435521044363
 10
192.2951022458001
 20
21.95122252085366
 10
194.5138104002999
 20
21.95122252089914
 10
194.3075083501999
 20
21.19108739649892
 10
191.5867906454996
 20
21.19108739649892
 42
-0.4806103464045925
 10
190.9765554488331
 20
21.95384455204021
 10
191.6528898922998
 20
24.96043692689909
 42
-0.3507942888931328
 10
192.2483292101997
 20
25.43681138849934
 10
195.3218295201996
 20
25.43681138849934
 10
195.1711342059998
 20
24.71090295319937
  0
LWPOLYLINE
  5
119
330
E3
100
AcDbEntity
  8
LAYOUT
100
AcDbPolyline
 90
       14
 70
     1
 43
0.0
 10
189.5030058585999
 20
22.04554796519915
 10
187.2281477723
 20
24.06266190509905
 42
-0.6900897355293327
 10
187.7496355574003
 20
25.43681138849934
 10
191.1226074285996
 20
25.43681138849934
 10
190.8890355074
 20
24.71090295319937
 10
188.2196421227
 20
24.71090295318481
 42
0.679711395620131
 10
188.1629181314756
 20
24.56757028936772
 10
190.3952065625999
 20
22.47259998149912
 42
-0.2071700117172078
 10
190.5110554152034
 20
22.20500167699902
 10
190.5110554151997
 20
21.95122252089914
 42
-0.414213562373095
 10
189.7509202908996
 20
21.19108739649892
 10
186.1453942598
 20
21.19108739649892
 10
186.3653310013997
 20
21.94036041659911
 10
189.5030058585717
 20
21.94036041659228
 42
0.4498021390563035
  0
LWPOLYLINE
  5
11A
330
E3
100
AcDbEntity
  8
LAYOUT
100
AcDbPolyline
 90
       12
 70
     1
 43
0.0
 10
180.2736587452055
 20
21.58051715319743
 42
0.2531985942570196
 10
180.8220665035169
 20
21.20516732210444
 10
181.3207962431998
 20
21.20516732219949
 10
182.2560970550003
 20
25.5195910397988
 10
181.3207962431998
 20
25.5195910397988
 10
180.6759182941996
 20
22.74074511429899
 10
179.3128716302799
 20
25.25242075356255
 42
0.2408995935034076
 10
178.6932262384998
 20
25.51410734139881
 10
178.0361614000003
 20
25.51410734139881
 10
177.0155924400997
 20
21.20516732219949
 10
177.9526838783995
 20
21.20516732219949
 10
178.7197662972003
 20
24.44386285579913
  0
LWPOLYLINE
  5
11B
330
E3
100
AcDbEntity
  8
LAYOUT
100
AcDbPolyline
 90
        3
 70
     1
 43
0.0
 10
177.1391129038611
 20
24.66498914454951
 42
0.2348631347031157
 10
176.395980821052
 20
25.51959103978106
 10
177.3434742265999
 20
25.5195910397988
  0
LWPOLYLINE
  5
11C
330
E3
100
AcDbEntity
  8
LAYOUT
100
AcDbPolyline
 90
       10
 70
     1
 43
0.0
 10
170.1930265375004
 20
21.20516732219949
 10
171.1391010576999
 20
25.43517212869938
 10
173.2063553708003
 20
25.43517212869938
 42
-0.8896343214557727
 10
173.6577788918003
 20
21.20516732219949
 10
171.9965438713998
 20
21.20516732219949
 10
172.1830561817997
 20
21.98638148149894
 10
173.0872281002003
 20
21.98638148148029
 42
0.9999999999999999
 10
173.0872281002003
 20
24.59643309511875
 10
171.8975848621003
 20
24.5964330950992
 10
171.1391010575999
 20
21.20516732219949
  0
LWPOLYLINE
  5
11D
330
E3
100
AcDbEntity
  8
LAYOUT
100
AcDbPolyline
 90
        3
 70
     1
 43
0.0
 10
167.4053832404998
 20
15.60375056969951
 10
166.8806015528999
 20
14.17596615849925
 10
167.8970705873999
 20
14.17596615849925
  0
LWPOLYLINE
  5
11E
330
E3
100
AcDbEntity
  8
LAYOUT
100
AcDbPolyline
 90
        8
 70
     1
 43
0.0
 10
165.5188255047997
 20
12.67297683069864
 10
166.9472985441998
 20
16.54466012519879
 10
167.8659414511003
 20
16.54466012519879
 10
169.2768486350997
 20
12.67297683069864
 10
168.3947503582003
 20
12.67297683069864
 10
168.1783994538
 20
13.54061448019911
 10
166.5880592602998
 20
13.54061448019911
 10
166.2907953938002
 20
12.67297683069864
  0
LWPOLYLINE
  5
11F
330
E3
100
AcDbEntity
  8
LAYOUT
100
AcDbPolyline
 90
       12
 70
     1
 43
0.0
 10
168.9500830518391
 20
21.20516732216265
 42
0.3757361031771025
 10
169.7531128340997
 20
21.87662412309874
 10
170.5285162906002
 20
25.43517212859933
 10
169.5786916985999
 20
25.43517212859933
 10
168.9079503096
 20
22.4677534001994
 42
-0.2138910860917839
 10
168.5406801100999
 20
21.97829491379889
 10
166.7837853325227
 20
21.97829491373932
 42
-0.3105311449654351
 10
166.5880592602998
 20
22.48405629019908
 10
167.2916903570003
 20
25.44991625359944
 10
166.2907953938002
 20
25.44991625359944
 10
165.5188255047997
 20
21.90712586989866
 42
0.4840081159988556
 10
166.0891504000374
 20
21.21186580566837
 42
-0.0100451241670552
  0
LWPOLYLINE
  5
120
330
E3
100
AcDbEntity
  8
LAYOUT
100
AcDbPolyline
 90
       23
 70
     1
 43
0.0
 10
170.0853563954997
 20
16.62626480095969
 42
0.4812075807346065
 10
168.9770922971693
 20
15.23824336482176
 42
0.2633929586260083
 10
169.5579431563492
 20
14.59992270031125
 10
170.9065836400996
 20
14.15686388699942
 42
-0.1726933381719062
 10
171.2898758795
 20
13.85974006249944
 10
171.2898758795
 20
13.57946845659899
 42
-0.3035478487272821
 10
170.7483398364002
 20
13.21733699222659
 10
170.2605493020001
 20
13.21733699219931
 42
-0.4349596299550234
 10
169.6626341133087
 20
13.95382808513841
 10
168.8100846725001
 20
13.9538280850993
 10
169.1319420157997
 20
13.07061640889879
 42
0.2066922033349036
 10
170.2427725145999
 20
12.56980071739872
 10
170.7483398364002
 20
12.56980071739872
 42
0.4665826226572455
 10
172.1057909559895
 20
13.95377103748342
 42
0.3020480096549047
 10
171.3257055821978
 20
14.84543808239505
 10
170.0311695715
 20
15.19727433069875
 42
-0.4181821598474801
 10
169.7836030642802
 20
15.63649986219116
 42
-0.3346917054964769
 10
170.2427725145999
 20
15.98263367909931
 10
170.7189872985
 20
15.98263367909931
 42
-0.4198360969897656
 10
171.1351118030998
 20
15.37528862349882
 10
171.9793952648997
 20
15.37528862349882
 10
171.9793952648997
 20
15.46438092559947
 42
0.414213562373095
 10
170.8175113895004
 20
16.6262648009988
  0
TEXT
  5
122
330
E3
100
AcDbEntity
  8
TEXTO
100
AcDbText
 10
125.518
 20
263.4999999999986
 30
0.0
 40
3.0
  1
APLICAÇÃO
 72
     1
 11
137.5
 21
264.9999999999986
 31
0.0
100
AcDbText
 73
     2
  0
TEXT
  5
463
330
E3
100
AcDbEntity
  8
TEXTO
100
AcDbText
 10
21.338
 20
215.9899464039663
 30
0.0
 40
3.0
  1
CARACTERÍSTICAS
 72
     1
 11
41.0
 21
217.4899464039663
 31
0.0
100
AcDbText
 73
     2
  0
MTEXT
  5
825
330
E3
100
AcDbEntity
  8
DEFPOINTS
100
AcDbMText
 10
43.5893601476937
 20
252.8725839718154
 30
0.0
 40
3.0
 41
0.0
 71
     2
 72
     1
  1
DO PRODUTO
1001
PE_URL
1000

  0
MTEXT
  5
826
330
E3
100
AcDbEntity
  8
DEFPOINTS
100
AcDbMText
 10
43.18880965707604
 20
258.1059174179009
 30
0.0
 40
3.0
 41
0.0
 71
     2
 72
     1
  1
IMAGEM RENDER
1001
PE_URL
1000

  0
MTEXT
  5
827
330
E3
100
AcDbEntity
  8
DEFPOINTS
100
AcDbMText
 10
43.48646776972123
 20
242.4059170796445
 30
0.0
 40
3.0
 41
0.0
 71
     2
 72
     1
  1
BY: SOLIDWORKS
1001
PE_URL
1000

  0
TEXT
  5
894
330
E3
100
AcDbEntity
  8
LAYOUT
100
AcDbText
 10
202.6632145343
 20
49.0677071835982
 30
0.0
 40
2.0
  1
Reservamos o direito de alterações sem aviso prévio. Todas as medidas em mm.
 50
90.0000000000002
100
AcDbText
  0
LINE
  5
46F6
330
E3
100
AcDbEntity
  8
LAYOUT
100
AcDbLine
 10
62.427882335177
 20
27.29927171448489
 30
0.0
 11
62.42789358117141
 21
14.58016335088736
 31
0.0
  0
LINE
  5
46F7
330
E3
100
AcDbEntity
  8
LAYOUT
100
AcDbLine
 10
59.91867040022716
 20
20.41028387267761
 30
0.0
 11
60.17644540022694
 21
20.41028387267761
 31
0.0
  0
LINE
  5
46F8
330
E3
100
AcDbEntity
  8
LAYOUT
100
AcDbLine
 10
56.93861290022718
 20
26.74535387267761
 30
0.0
 11
52.51307290022713
 21
26.74535387267761
 31
0.0
  0
LINE
  5
46F9
330
E3
100
AcDbEntity
  8
LAYOUT
100
AcDbLine
 10
64.94339290022717
 20
21.65169887267761
 30
0.0
 11
64.94339290022717
 21
22.15454387267759
 31
0.0
  0
ARC
  5
46FA
330
E3
100
AcDbEntity
  8
LAYOUT
100
AcDbCircle
 10
58.91941029310465
 20
21.03101891706945
 30
0.0
 40
0.0763923684056683
100
AcDbArc
 50
140.5991722222284
 51
219.4006722221843
  0
LINE
  5
46FB
330
E3
100
AcDbEntity
  8
LAYOUT
100
AcDbLine
 10
59.91867040022716
 20
19.90754387267756
 30
0.0
 11
59.91867040022716
 21
20.41028387267761
 31
0.0
  0
ARC
  5
46FC
330
E3
100
AcDbEntity
  8
LAYOUT
100
AcDbCircle
 10
64.68554790824876
 20
21.57529719243233
 30
0.0
 40
0.0764016822476398
100
AcDbArc
 50
89.98688227122814
 51
179.9868822712015
  0
LINE
  5
46FD
330
E3
100
AcDbEntity
  8
LAYOUT
100
AcDbLine
 10
59.91867040022716
 20
21.65169887267761
 30
0.0
 11
59.91868963304368
 21
22.15453343197457
 31
0.0
  0
LINE
  5
46FE
330
E3
100
AcDbEntity
  8
LAYOUT
100
AcDbLine
 10
66.00174040022716
 20
21.0795013726776
 30
0.0
 11
66.0016724308133
 21
21.07950833711377
 31
0.0
  0
LINE
  5
46FF
330
E3
100
AcDbEntity
  8
LAYOUT
100
AcDbLine
 10
61.86379540022718
 20
26.74535387267761
 30
0.0
 11
57.43825540022716
 21
26.74535387267761
 31
0.0
  0
LINE
  5
4700
330
E3
100
AcDbEntity
  8
LAYOUT
100
AcDbLine
 10
60.17644540022714
 20
21.65169887267761
 30
0.0
 11
59.91867040022716
 21
21.65169887267761
 31
0.0
  0
ARC
  5
4701
330
E3
100
AcDbEntity
  8
LAYOUT
100
AcDbCircle
 10
64.6855385966111
 20
20.48672342087335
 30
0.0
 40
0.0763923686077561
100
AcDbArc
 50
180.0000000000107
 51
270.0000000000213
  0
LINE
  5
4702
330
E3
100
AcDbEntity
  8
LAYOUT
100
AcDbLine
 10
67.87509790022719
 20
15.3166288726776
 30
0.0
 11
72.30063790022716
 21
15.3166288726776
 31
0.0
  0
LINE
  5
4703
330
E3
100
AcDbEntity
  8
LAYOUT
100
AcDbLine
 10
72.30063790022716
 20
26.74535387267761
 30
0.0
 11
67.87509790022719
 21
26.74535387267761
 31
0.0
  0
ARC
  5
4704
330
E3
100
AcDbEntity
  8
LAYOUT
100
AcDbCircle
 10
59.84231622096085
 20
19.90750381763743
 30
0.0
 40
0.0764066802798174
100
AcDbArc
 50
219.3913233391345
 51
359.990667783545
  0
LINE
  5
4705
330
E3
100
AcDbEntity
  8
LAYOUT
100
AcDbLine
 10
51.99105124780249
 20
27.29927171448489
 30
0.0
 11
51.99106540022715
 21
14.5801588726776
 31
0.0
  0
LINE
  5
4706
330
E3
100
AcDbEntity
  8
LAYOUT
100
AcDbLine
 10
60.25283290022718
 20
20.4866713726776
 30
0.0
 11
60.25283290022718
 21
21.57531137267761
 31
0.0
  0
LINE
  5
4707
330
E3
100
AcDbEntity
  8
LAYOUT
100
AcDbLine
 10
60.17644540022694
 20
20.41028387267761
 30
0.0
 11
60.17651388002481
 21
20.4103310522709
 31
0.0
  0
LINE
  5
4708
330
E3
100
AcDbEntity
  8
LAYOUT
100
AcDbLine
 10
56.9563621021828
 20
27.29927128845815
 30
0.0
 11
56.95637334657507
 21
14.58016292486062
 31
0.0
  0
LINE
  5
4709
330
E3
100
AcDbEntity
  8
LAYOUT
100
AcDbLine
 10
67.37545540022715
 20
26.74535387267761
 30
0.0
 11
62.94986290022713
 21
26.74535387267761
 31
0.0
  0
LINE
  5
470A
330
E3
100
AcDbEntity
  8
LAYOUT
100
AcDbLine
 10
58.86032290022715
 20
21.0795013726776
 30
0.0
 11
58.86038004582083
 21
21.07950833711377
 31
0.0
  0
LINE
  5
470B
330
E3
100
AcDbEntity
  8
LAYOUT
100
AcDbLine
 10
60.17651388002325
 20
21.65170705301793
 30
0.0
 11
60.17644540022714
 21
21.65169887267761
 31
0.0
  0
LINE
  5
470C
330
E3
100
AcDbEntity
  8
LAYOUT
100
AcDbLine
 10
62.94986290022713
 20
26.74535387267761
 30
0.0
 11
62.94991540022718
 21
15.3166288726776
 31
0.0
  0
LINE
  5
470D
330
E3
100
AcDbEntity
  8
LAYOUT
100
AcDbLine
 10
66.00174040022716
 20
20.9825338726776
 30
0.0
 11
65.07878560639286
 21
19.85901510791051
 31
0.0
  0
ARC
  5
470E
330
E3
100
AcDbEntity
  8
LAYOUT
100
AcDbCircle
 10
65.9426421835295
 20
21.03101891706945
 30
0.0
 40
0.076392368405647
100
AcDbArc
 50
320.5993277778055
 51
39.40082777778512
  0
ARC
  5
470F
330
E3
100
AcDbEntity
  8
LAYOUT
100
AcDbCircle
 10
60.17651388002298
 20
20.48672342087864
 30
0.0
 40
0.0763923686077366
100
AcDbArc
 50
270.0000000013749
 51
0.0000000054517822
  0
LINE
  5
4710
330
E3
100
AcDbEntity
  8
LAYOUT
100
AcDbLine
 10
58.86032290022715
 20
20.9825338726776
 30
0.0
 11
59.78326687024129
 21
19.85901510791051
 31
0.0
  0
LINE
  5
4711
330
E3
100
AcDbEntity
  8
LAYOUT
100
AcDbLine
 10
64.94334040022713
 20
19.9074913726776
 30
0.0
 11
64.94339290022717
 21
19.90754387267763
 31
0.0
  0
LINE
  5
4712
330
E3
100
AcDbEntity
  8
LAYOUT
100
AcDbLine
 10
65.07879040022715
 20
22.20294887267761
 30
0.0
 11
66.00174040022716
 21
21.0795013726776
 31
0.0
  0
LINE
  5
4713
330
E3
100
AcDbEntity
  8
LAYOUT
100
AcDbLine
 10
62.94991540022718
 20
15.3166288726776
 30
0.0
 11
67.37545540022715
 21
15.3166288726776
 31
0.0
  0
ARC
  5
4714
330
E3
100
AcDbEntity
  8
LAYOUT
100
AcDbCircle
 10
65.01974166758338
 20
19.90750187985816
 30
0.0
 40
0.0764012680787457
100
AcDbArc
 50
180.0078796742204
 51
320.6072241186449
  0
ARC
  5
4715
330
E3
100
AcDbEntity
  8
LAYOUT
100
AcDbCircle
 10
65.01975521261363
 20
22.15453343197456
 30
0.0
 40
0.0763923690231891
100
AcDbArc
 50
39.40060277775922
 51
179.9999999999893
  0
LINE
  5
4716
330
E3
100
AcDbEntity
  8
LAYOUT
100
AcDbLine
 10
64.68561790022719
 20
21.65169887267761
 30
0.0
 11
64.94339290022717
 21
21.65169887267761
 31
0.0
  0
LINE
  5
4717
330
E3
100
AcDbEntity
  8
LAYOUT
100
AcDbLine
 10
65.07878565079172
 20
22.20302262059923
 30
0.0
 11
65.07879040022715
 21
22.20294887267761
 31
0.0
  0
LINE
  5
4718
330
E3
100
AcDbEntity
  8
LAYOUT
100
AcDbLine
 10
58.86037991417433
 20
20.98252965728989
 30
0.0
 11
58.86032290022715
 21
20.9825338726776
 31
0.0
  0
LINE
  5
4719
330
E3
100
AcDbEntity
  8
LAYOUT
100
AcDbLine
 10
57.43825540022716
 20
15.3166288726776
 30
0.0
 11
61.86379540022718
 21
15.3166288726776
 31
0.0
  0
LINE
  5
471A
330
E3
100
AcDbEntity
  8
LAYOUT
100
AcDbLine
 10
60.25283290022718
 20
21.57531137267761
 30
0.0
 11
60.25290624863061
 21
21.57531468441075
 31
0.0
  0
LINE
  5
471B
330
E3
100
AcDbEntity
  8
LAYOUT
100
AcDbLine
 10
59.91872290022715
 20
19.90749137267757
 30
0.0
 11
59.91867040022716
 21
19.90754387267756
 31
0.0
  0
LINE
  5
471C
330
E3
100
AcDbEntity
  8
LAYOUT
100
AcDbLine
 10
57.44486184007675
 20
26.74537746997742
 30
0.0
 11
57.44487308446895
 21
15.31662421159248
 31
0.0
  0
LINE
  5
471D
330
E3
100
AcDbEntity
  8
LAYOUT
100
AcDbLine
 10
67.37545777311759
 20
26.74537697190853
 30
0.0
 11
67.37546901911199
 21
15.31662371352358
 31
0.0
  0
ARC
  5
471E
330
E3
100
AcDbEntity
  8
LAYOUT
100
AcDbCircle
 10
59.84229726402049
 20
22.15453343197456
 30
0.0
 40
0.0763923690231811
100
AcDbArc
 50
0.0000000000106584
 51
140.599397222234
  0
LINE
  5
471F
330
E3
100
AcDbEntity
  8
LAYOUT
100
AcDbLine
 10
51.99106540022715
 20
14.5801588726776
 30
0.0
 11
62.42790790022715
 21
14.5801588726776
 31
0.0
  0
LINE
  5
4720
330
E3
100
AcDbEntity
  8
LAYOUT
100
AcDbLine
 10
64.94339290022717
 20
20.41028387267761
 30
0.0
 11
64.68561790022719
 21
20.41028387267761
 31
0.0
  0
LINE
  5
4721
330
E3
100
AcDbEntity
  8
LAYOUT
100
AcDbLine
 10
59.78326682584243
 20
22.20302262059923
 30
0.0
 11
59.78327290022717
 21
22.20294887267761
 31
0.0
  0
ARC
  5
4722
330
E3
100
AcDbEntity
  8
LAYOUT
100
AcDbCircle
 10
60.17651388002337
 20
21.5753146844107
 30
0.0
 40
0.0763923686072356
100
AcDbArc
 50
0.0000000000399691
 51
90.0000000000906
  0
LINE
  5
4723
330
E3
100
AcDbEntity
  8
LAYOUT
100
AcDbLine
 10
67.87509388185504
 20
27.29927171448489
 30
0.0
 11
67.8751051294517
 21
14.58016335088736
 31
0.0
  0
LINE
  5
4724
330
E3
100
AcDbEntity
  8
LAYOUT
100
AcDbLine
 10
72.30063385942391
 20
26.74537697190853
 30
0.0
 11
72.30064510381612
 21
15.31662371352358
 31
0.0
  0
LINE
  5
4725
330
E3
100
AcDbEntity
  8
LAYOUT
100
AcDbLine
 10
64.94339290022717
 20
19.90754387267763
 30
0.0
 11
64.94339290022717
 21
20.41028387267761
 31
0.0
  0
LINE
  5
4726
330
E3
100
AcDbEntity
  8
LAYOUT
100
AcDbLine
 10
52.51305046752051
 20
26.74537697190853
 30
0.0
 11
52.51306171191271
 21
15.31662371352358
 31
0.0
  0
LINE
  5
4727
330
E3
100
AcDbEntity
  8
LAYOUT
100
AcDbLine
 10
72.86469790022714
 20
27.29928137267758
 30
0.0
 11
62.42790790022715
 21
27.29928137267758
 31
0.0
  0
LINE
  5
4728
330
E3
100
AcDbEntity
  8
LAYOUT
100
AcDbLine
 10
62.42790790022715
 20
14.5801588726776
 30
0.0
 11
72.8647504002272
 21
14.5801588726776
 31
0.0
  0
LINE
  5
4729
330
E3
100
AcDbEntity
  8
LAYOUT
100
AcDbLine
 10
59.78327290022717
 20
22.20294887267761
 30
0.0
 11
58.86032290022715
 21
21.0795013726776
 31
0.0
  0
LINE
  5
472A
330
E3
100
AcDbEntity
  8
LAYOUT
100
AcDbLine
 10
72.86469790022714
 20
27.29928137267758
 30
0.0
 11
72.8647504002272
 21
14.5801588726776
 31
0.0
  0
LINE
  5
472B
330
E3
100
AcDbEntity
  8
LAYOUT
100
AcDbLine
 10
52.51307290022713
 20
15.3166288726776
 30
0.0
 11
56.93861290022718
 21
15.3166288726776
 31
0.0
  0
LINE
  5
472C
330
E3
100
AcDbEntity
  8
LAYOUT
100
AcDbLine
 10
66.0016725624598
 20
20.98252965728989
 30
0.0
 11
66.00174040022716
 21
20.9825338726776
 31
0.0
  0
LINE
  5
472D
330
E3
100
AcDbEntity
  8
LAYOUT
100
AcDbLine
 10
62.42790790022715
 20
27.29928137267758
 30
0.0
 11
51.99106540022715
 21
27.29928137267758
 31
0.0
  0
LINE
  5
472E
330
E3
100
AcDbEntity
  8
LAYOUT
100
AcDbLine
 10
64.60923040022713
 20
20.4866713726776
 30
0.0
 11
64.60923040022713
 21
21.57531137267761
 31
0.0
  0
LINE
  5
472F
330
E3
100
AcDbEntity
  8
LAYOUT
100
AcDbLine
 10
64.68561790022719
 20
20.41028387267761
 30
0.0
 11
64.68553859661112
 21
20.41033105226562
 31
0.0
  0
LINE
  5
4730
330
E3
100
AcDbEntity
  8
LAYOUT
100
AcDbLine
 10
61.8638027720494
 20
26.74537697190853
 30
0.0
 11
61.86381401804387
 21
15.31662371352358
 31
0.0
  0
LWPOLYLINE
  5
4E10
330
E3
100
AcDbEntity
  8
DEFPOINTS
100
AcDbPolyline
 90
        4
 70
     1
 43
0.0
 10
0.0
 20
0.0
 10
0.0
 20
296.9999999999985
 10
210.0
 20
296.9999999999985
 10
210.0
 20
0.0
  0
ENDBLK
  5
123
330
E3
100
AcDbEntity
  8
0
100
AcDbBlockEnd
  0
BLOCK
  5
17B8
330
17B7
100
AcDbEntity
  8
0
100
AcDbBlockBegin
  2
FIT-206
 70
     0
 10
0.0
 20
0.0
 30
0.0
  3
FIT-206
  1

  0
LINE
  5
17B9
330
17B7
100
AcDbEntity
  8
LAYOUT
100
AcDbLine
 10
0.9537446211124916
 20
0.004702902309873
 30
0.0
 11
0.9537446211124916
 21
-2.019902645954517
 31
0.0
  0
LWPOLYLINE
  5
17BA
330
17B7
100
AcDbEntity
  8
0
100
AcDbPolyline
 90
        4
 70
   129
 43
0.0
 10
2.671250038148173
 20
0.0
 10
0.0
 20
0.0
 10
0.0
 20
0.5800958281197381
 10
2.671250038148173
 20
0.5800958281197381
  0
LINE
  5
17BB
330
17B7
100
AcDbEntity
  8
LAYOUT
100
AcDbLine
 10
0.7037446211124916
 20
0.004702902309873
 30
0.0
 11
0.7037446211124916
 21
-2.019902645954517
 31
0.0
  0
LINE
  5
17BC
330
17B7
100
AcDbEntity
  8
LAYOUT
100
AcDbLine
 10
1.453744621112492
 20
0.0
 30
0.0
 11
1.453744621112492
 21
-2.019902645954517
 31
0.0
  0
LINE
  5
17BD
330
17B7
100
AcDbEntity
  8
LAYOUT
100
AcDbLine
 10
1.203744621112492
 20
0.004702902309873
 30
0.0
 11
1.203744621112492
 21
-2.019902645954517
 31
0.0
  0
LINE
  5
17BE
330
17B7
100
AcDbEntity
  8
LAYOUT
100
AcDbLine
 10
1.703744621112492
 20
0.0
 30
0.0
 11
1.703744621112492
 21
-2.019902645954517
 31
0.0
  0
LINE
  5
17BF
330
17B7
100
AcDbEntity
  8
LAYOUT
100
AcDbLine
 10
1.953744621112492
 20
0.0
 30
0.0
 11
1.953744621112492
 21
-2.019902645954517
 31
0.0
  0
ENDBLK
  5
17C0
330
17B7
100
AcDbEntity
  8
0
100
AcDbBlockEnd
  0
BLOCK
  5
17C7
330
17C6
100
AcDbEntity
  8
0
100
AcDbBlockBegin
  2
CHR-005
 70
     0
 10
0.0
 20
0.0
 30
0.0
  3
CHR-005
  1

  0
LWPOLYLINE
  5
17C8
330
17C6
100
AcDbEntity
  8
0
100
AcDbPolyline
 90
      161
 70
   129
 43
0.0
 10
-5031.721116092634
 20
-3963.486646397903
 42
-0.416308223364645
 10
-5031.221129265949
 20
-3963.9902193524
 10
-5031.221128860052
 20
-3964.111626231797
 42
-0.4141348194985087
 10
-5031.471062125229
 20
-3964.361626560872
 10
-5031.546533488307
 20
-3964.361646513553
 42
0.4140560813172792
 10
-5032.346102562254
 20
-3965.161646397903
 10
-5032.346103325216
 20
-3965.436646397905
 42
-0.414213562373095
 10
-5032.496102562253
 20
-3965.586647160866
 10
-5032.746103325217
 20
-3965.586646397905
 42
0.414213562373095
 10
-5032.821103325216
 20
-3965.661646397903
 10
-5032.821103325216
 20
-3965.761646397905
 42
0.4142135623739618
 10
-5032.746103325217
 20
-3965.836646397905
 42
-0.9999999999999999
 10
-5032.746103325217
 20
-3966.936646397904
 42
0.414213562373095
 10
-5032.821103325216
 20
-3967.011646397903
 10
-5032.821103325216
 20
-3968.511646397903
 42
0.414213562373095
 10
-5032.321103325216
 20
-3969.011646397903
 10
-5024.321103325216
 20
-3969.011646397903
 42
1.776772282397546
 10
-5024.764663425011
 20
-3968.280877167133
 42
-0.2797392812240911
 10
-5024.897730724734
 20
-3968.361646397903
 10
-5030.421103325216
 20
-3968.361646397903
 42
-0.414213562373095
 10
-5030.571103325216
 20
-3968.211646397903
 10
-5030.571103325216
 20
-3967.236646397903
 42
0.4142135623722283
 10
-5030.721103325216
 20
-3967.08664563494
 10
-5030.921103325216
 20
-3967.086646397903
 42
0.414213562373095
 10
-5031.071103325216
 20
-3967.23664563494
 10
-5031.071103325216
 20
-3967.611646397903
 42
-0.4142135623722283
 10
-5031.221103325216
 20
-3967.761646397903
 10
-5031.546103325216
 20
-3967.761646397903
 42
-0.414213562373095
 10
-5031.696102562254
 20
-3967.611646397903
 10
-5031.696103325216
 20
-3965.161646397903
 42
-0.4142135623739618
 10
-5031.546102562254
 20
-3965.011646397903
 10
-5031.221103325216
 20
-3965.011646397903
 42
-0.414213562373095
 10
-5031.071103325216
 20
-3965.161646397903
 10
-5031.071103325216
 20
-3965.536646397903
 42
0.4142135623739618
 10
-5030.921103325217
 20
-3965.686647160866
 10
-5030.721103325216
 20
-3965.686646397903
 42
0.414213562373095
 10
-5030.571103325216
 20
-3965.536647160866
 10
-5030.571103325216
 20
-3963.986646397903
 42
-0.414213562373095
 10
-5030.071103325216
 20
-3963.486647160866
 10
-5029.371103325216
 20
-3963.486646397904
 42
-0.414213562373095
 10
-5028.871103325217
 20
-3963.986647160866
 10
-5028.871103325216
 20
-3964.186646397904
 42
0.414213562373095
 10
-5028.371103325217
 20
-3964.686647160866
 10
-5027.871103325217
 20
-3964.686646397904
 42
0.414213562373095
 10
-5027.721103325216
 20
-3964.536647160866
 10
-5027.721103325217
 20
-3964.236646397903
 42
0.4142135623739618
 10
-5027.871103325217
 20
-3964.086647160866
 10
-5028.196103325216
 20
-3964.086646397904
 42
-0.414213562373095
 10
-5028.346104088179
 20
-3963.936647160866
 10
-5028.346103325217
 20
-3963.636646397904
 42
-0.4142135623722283
 10
-5028.196104088179
 20
-3963.486647160866
 10
-5025.746103325217
 20
-3963.486646397904
 42
-0.414213562373095
 10
-5025.596104088179
 20
-3963.636647160866
 10
-5025.596103325217
 20
-3963.936646397904
 42
-0.4142135623739618
 10
-5025.746104088179
 20
-3964.086647160866
 10
-5026.071103325216
 20
-3964.086646397904
 42
0.414213562373095
 10
-5026.221103325216
 20
-3964.236647160866
 10
-5026.221103325217
 20
-3964.536646397903
 42
0.4142135623722283
 10
-5026.071103325216
 20
-3964.686647160866
 10
-5025.571103325216
 20
-3964.686646397904
 42
0.414213562373095
 10
-5025.071103325216
 20
-3964.186647160866
 10
-5025.071103325216
 20
-3963.386646397903
 42
0.414213562373095
 10
-5025.571103325216
 20
-3962.886647160866
 10
-5029.309788155396
 20
-3962.886646397903
 42
-0.2679596617232944
 10
-5029.439695201189
 20
-3962.811641820127
 10
-5030.292090925141
 20
-3961.335114864361
 42
0.7591445147516753
 10
-5030.571103325216
 20
-3961.410146413162
 10
-5030.571103325216
 20
-3962.386646397903
 42
-0.9999999999999999
 10
-5031.571103325216
 20
-3962.386647160866
 10
-5031.571103325216
 20
-3960.161646397903
 42
0.414213562373095
 10
-5031.721103325217
 20
-3960.011646397903
 42
-0.4142135623726617
 10
-5031.871103325217
 20
-3959.861646397903
 10
-5031.871103325217
 20
-3958.861646397903
 10
-5031.971103325216
 20
-3958.761646397903
 10
-5031.871103325217
 20
-3958.661646397903
 10
-5031.871103325217
 20
-3957.661646397903
 42
-0.414213562373095
 10
-5031.721103325217
 20
-3957.511646397903
 42
0.4142135623726617
 10
-5031.571103325216
 20
-3957.361646397903
 10
-5031.571103325216
 20
-3955.136646397903
 42
-0.9999999999999999
 10
-5030.571103325216
 20
-3955.136647160866
 10
-5030.571103325216
 20
-3956.113146397903
 42
0.7591445147545905
 10
-5030.292090904183
 20
-3956.188177664116
 10
-5029.439694896251
 20
-3954.711651473539
 42
-0.2679596617232944
 10
-5029.309788587828
 20
-3954.636647160866
 10
-5025.571103325216
 20
-3954.636646397903
 42
0.414213562373095
 10
-5025.071103325216
 20
-3954.136647160866
 10
-5025.071103325216
 20
-3953.336646397903
 42
0.414213562373095
 10
-5025.571103325216
 20
-3952.836647160866
 10
-5026.071103325216
 20
-3952.836646397903
 42
0.414213562373095
 10
-5026.221103325216
 20
-3952.986647160866
 10
-5026.221103325217
 20
-3953.286646397903
 42
0.4142135623722283
 10
-5026.071103325216
 20
-3953.43664563494
 10
-5025.746103325217
 20
-3953.436646397903
 42
-0.414213562373095
 10
-5025.596104088179
 20
-3953.586647160866
 10
-5025.596103325217
 20
-3953.886646397903
 42
-0.4142135623739618
 10
-5025.746104088179
 20
-3954.03664563494
 10
-5028.196103325216
 20
-3954.036646397903
 42
-0.414213562373095
 10
-5028.346104088179
 20
-3953.88664563494
 10
-5028.346103325217
 20
-3953.586646397903
 42
-0.4142135623722283
 10
-5028.196104088179
 20
-3953.43664563494
 10
-5027.871103325217
 20
-3953.436646397903
 42
0.414213562373095
 10
-5027.721103325216
 20
-3953.28664563494
 10
-5027.721103325217
 20
-3952.986646397903
 42
0.4142135623739618
 10
-5027.871103325217
 20
-3952.836647160866
 10
-5028.371103325216
 20
-3952.836646397903
 42
0.414213562373095
 10
-5028.871103325217
 20
-3953.336647160866
 10
-5028.871103325216
 20
-3953.536646397903
 42
-0.414213562373095
 10
-5029.371103325217
 20
-3954.03664563494
 10
-5030.071103325216
 20
-3954.036646397903
 42
-0.414213562373095
 10
-5030.571103325216
 20
-3953.53664563494
 10
-5030.571103325216
 20
-3951.986646397904
 42
0.414213562373095
 10
-5030.721103325216
 20
-3951.836647160866
 10
-5030.921103325216
 20
-3951.836646397903
 42
0.414213562373095
 10
-5031.071103325216
 20
-3951.986647160866
 10
-5031.071103325216
 20
-3952.361646397903
 42
-0.4142135623722283
 10
-5031.221103325216
 20
-3952.511646397903
 10
-5031.546103325216
 20
-3952.511646397903
 42
-0.414213562373095
 10
-5031.696102562254
 20
-3952.361646397903
 10
-5031.696103325216
 20
-3949.911646397903
 42
-0.4142135623739618
 10
-5031.546102562254
 20
-3949.761646397903
 10
-5031.221103325216
 20
-3949.761646397903
 42
-0.414213562373095
 10
-5031.071103325216
 20
-3949.911646397903
 10
-5031.071103325216
 20
-3950.286646397903
 42
0.4142135623739618
 10
-5030.921103325217
 20
-3950.436647160866
 10
-5030.721103325216
 20
-3950.436646397904
 42
0.414213562373095
 10
-5030.571103325216
 20
-3950.286647160866
 10
-5030.571103325216
 20
-3949.311646397903
 42
-0.4142135623739618
 10
-5030.421103325217
 20
-3949.161646397903
 10
-5024.89773145495
 20
-3949.161646397903
 42
-0.2797392812240911
 10
-5024.764663425011
 20
-3949.242415628673
 42
1.776772282397546
 10
-5024.321103325216
 20
-3948.511646397903
 10
-5032.321103325216
 20
-3948.511646397904
 42
0.414213562373095
 10
-5032.821103325216
 20
-3949.011646397903
 10
-5032.821103325216
 20
-3950.511646397902
 42
0.4142135623704948
 10
-5032.746103325217
 20
-3950.586646397902
 42
-0.9999999999999999
 10
-5032.746103325217
 20
-3951.686646397902
 42
0.414213562373095
 10
-5032.821103325216
 20
-3951.761646397903
 10
-5032.821103325216
 20
-3951.861646397902
 42
0.4142135623739618
 10
-5032.746102562253
 20
-3951.93664563494
 10
-5032.496103325217
 20
-3951.936646397902
 42
-0.4142135623726617
 10
-5032.346102562254
 20
-3952.08664563494
 10
-5032.346103325216
 20
-3952.361646397903
 42
0.4140560810078955
 10
-5031.546532873237
 20
-3953.161646397903
 10
-5031.471061646935
 20
-3953.161666573044
 42
-0.414134819498942
 10
-5031.221129265949
 20
-3953.411666234934
 10
-5031.221128860052
 20
-3953.533073268329
 42
-0.4163044783748395
 10
-5031.721109708926
 20
-3954.036646397944
 42
0.4142098228878298
 10
-5032.221103325216
 20
-3954.53664563494
 10
-5032.221103325216
 20
-3957.111646397903
 42
-0.4142135623722283
 10
-5032.371103325217
 20
-3957.261646397903
 10
-5032.671103325216
 20
-3957.261646397903
 42
0.414213562373095
 10
-5032.821103325216
 20
-3957.411646397903
 10
-5032.821103325216
 20
-3958.661646397903
 10
-5032.721103325216
 20
-3958.761646397903
 10
-5032.821103325216
 20
-3958.861646397903
 10
-5032.821103325216
 20
-3960.111646397903
 42
0.414213562373095
 10
-5032.671103325217
 20
-3960.261646397903
 10
-5032.371103325216
 20
-3960.261646397903
 42
-0.414213562373095
 10
-5032.221103325216
 20
-3960.411646397903
 10
-5032.221103325216
 20
-3962.986646397903
 42
0.4142060835082242
 10
-5031.721116092634
 20
-3963.486646397903
210
0.0
220
0.0
230
-1.0
  0
ENDBLK
  5
17C9
330
17C6
100
AcDbEntity
  8
0
100
AcDbBlockEnd
  0
BLOCK
  5
17CC
330
17CB
100
AcDbEntity
  8
0
100
AcDbBlockBegin
  2
CHR-028
 70
     0
 10
0.0
 20
0.0
 30
0.0
  3
CHR-028
  1

  0
LWPOLYLINE
  5
17CD
330
17CB
100
AcDbEntity
  8
0
100
AcDbPolyline
 90
        9
 70
   129
 43
0.0
 10
56.40000000002601
 20
1.725000000611502
 42
0.4142135623735284
 10
56.70000000001255
 20
2.024999237647492
 10
56.69999999999982
 20
30.62500000061205
 42
0.414213562373095
 10
56.40000000001328
 20
30.92499923764713
 10
24.10000000000127
 20
30.92500000061314
 42
0.4142135623735284
 10
23.80000000001291
 20
30.62499923764786
 10
23.80000000002565
 20
2.025000000611684
 42
0.4142135623726617
 10
24.10000000001219
 20
1.72499923764731
 10
56.40000000001328
 20
1.72499923764731
  0
LWPOLYLINE
  5
17CE
330
17CB
100
AcDbEntity
  8
0
100
AcDbPolyline
 90
        9
 70
   129
 43
0.0
 10
-56.4000000000251
 20
1.725000000611502
 42
-0.4142135623735284
 10
-56.70000000001164
 20
2.024999237647492
 10
-56.69999999999891
 20
30.62500000061205
 42
-0.414213562373095
 10
-56.40000000001237
 20
30.92499923764713
 10
-24.10000000000036
 20
30.92500000061314
 42
-0.4142135623735284
 10
-23.80000000001201
 20
30.62499923764786
 10
-23.80000000002474
 20
2.025000000611684
 42
-0.4142135623726617
 10
-24.1000000000131
 20
1.72499923764731
 10
-56.40000000001237
 20
1.72499923764731
210
0.0
220
0.0
230
-1.0
  0
LWPOLYLINE
  5
17CF
330
17CB
100
AcDbEntity
  8
0
100
AcDbPolyline
 90
        9
 70
   129
 43
0.0
 10
56.40000000002601
 20
1.725000000611502
 42
0.4142135623735284
 10
56.70000000001255
 20
2.024999237647492
 10
56.69999999999982
 20
30.62500000061205
 42
0.414213562373095
 10
56.40000000001328
 20
30.92499923764713
 10
24.10000000000127
 20
30.92500000061314
 42
0.4142135623735284
 10
23.80000000001291
 20
30.62499923764786
 10
23.80000000002565
 20
2.025000000611684
 42
0.4142135623726617
 10
24.10000000001219
 20
1.72499923764731
 10
56.40000000001328
 20
1.72499923764731
  0
LWPOLYLINE
  5
17D0
330
17CB
100
AcDbEntity
  8
0
100
AcDbPolyline
 90
        9
 70
   129
 43
0.0
 10
-56.4000000000251
 20
1.725000000611502
 42
-0.4142135623735284
 10
-56.70000000001164
 20
2.024999237647492
 10
-56.69999999999891
 20
30.62500000061205
 42
-0.414213562373095
 10
-56.40000000001237
 20
30.92499923764713
 10
-24.10000000000036
 20
30.92500000061314
 42
-0.4142135623735284
 10
-23.80000000001201
 20
30.62499923764786
 10
-23.80000000002474
 20
2.025000000611684
 42
-0.4142135623726617
 10
-24.1000000000131
 20
1.72499923764731
 10
-56.40000000001237
 20
1.72499923764731
210
0.0
220
0.0
230
-1.0
  0
LWPOLYLINE
  5
17D1
330
17CB
100
AcDbEntity
  8
0
100
AcDbPolyline
 90
       77
 70
   129
 43
0.0
 10
0.0
 20
8.625000000612047
 42
0.4142135623791621
 10
-0.2000000000116415
 20
8.824999237647674
 10
-1.500000000001819
 20
8.825000000613684
 42
0.4142135623743951
 10
-1.700000000011642
 20
8.624999237647856
 10
-1.700000000000728
 20
8.012245763210515
 42
0.4806248474867858
 10
-1.450000000002547
 20
7.825000000612775
 42
-0.5004070447288106
 10
-1.200000000011642
 20
7.624999237647856
 10
-1.200000000000728
 20
6.525000000611684
 42
-0.4142135623752618
 10
-1.400000000012369
 20
6.324999237647674
 10
-5.000000000001819
 20
6.325000000612775
 42
-0.414213562373095
 10
-5.200000000011642
 20
6.524999237647492
 10
-5.200000000000728
 20
7.625000000612047
 42
-0.4142135623709283
 10
-5.000000000012733
 20
7.824999237647674
 10
-4.900000000001455
 20
7.825000000612775
 42
0.4142135623704948
 10
-4.700000000011642
 20
8.024999237647492
 10
-4.700000000000728
 20
8.625000000612047
 42
0.4142135623765619
 10
-4.900000000012369
 20
8.824999237647674
 10
-6.899999999999636
 20
8.825000000612775
 42
0.4142135623748285
 10
-7.200000000011642
 20
8.524999237647492
 10
-7.200000000000728
 20
8.125000000612957
 42
0.4142135623735284
 10
-6.900000000012369
 20
7.824999237647674
 10
-6.500000000001819
 20
7.825000000612775
 42
-0.4142135623748285
 10
-6.200000000011642
 20
7.524999237647492
 10
-6.200000000000728
 20
5.525000000614412
 42
0.4142135623696282
 10
-6.000000000012733
 20
5.324999237647674
 10
-1.400000000001455
 20
5.325000000613684
 42
-0.414213562371795
 10
-1.200000000011642
 20
5.124999237647856
 10
-1.200000000000728
 20
1.825000000612775
 42
-0.414213562373095
 10
-1.500000000012733
 20
1.524999237647492
 10
-22.10000000002583
 20
1.525000000612593
 42
-0.4142135623735284
 10
-22.40000000001237
 20
1.824999237647674
 10
-22.39999999999964
 20
30.82500000061277
 42
-0.414213562373095
 10
-22.1000000000131
 20
31.12499923764786
 10
-1.500000000001819
 20
31.12500000061387
 42
-0.4142135623735284
 10
-1.200000000011642
 20
30.82499923764767
 10
-1.200000000002547
 20
27.5250000006135
 42
-0.4142135623722283
 10
-1.400000000012369
 20
27.32499923764767
 10
-6.000000000001819
 20
27.32500000061368
 42
0.4142135623743951
 10
-6.200000000011642
 20
27.12499923764786
 10
-6.200000000000728
 20
25.12500000061478
 42
-0.4142135623726617
 10
-6.500000000012733
 20
24.82499923764767
 10
-6.899999999999636
 20
24.82500000061277
 42
0.414213562373095
 10
-7.200000000011642
 20
24.52499923764749
 10
-7.199999999998909
 20
24.12500000061478
 42
0.414213562371795
 10
-6.900000000012369
 20
23.82499923764767
 10
-4.900000000001455
 20
23.82500000061277
 42
0.414213562373095
 10
-4.700000000011642
 20
24.02499923764749
 10
-4.700000000002547
 20
24.63775423801594
 42
0.4806248474917945
 10
-4.950000000002547
 20
24.82500000061459
 42
-0.5004070447288106
 10
-5.200000000011642
 20
25.02499923764749
 10
-5.200000000002547
 20
26.12500000061387
 42
-0.4142135623739618
 10
-5.000000000012733
 20
26.32499923764767
 10
-1.400000000001455
 20
26.32500000061368
 42
-0.4142135623691948
 10
-1.200000000011642
 20
26.12499923764786
 10
-1.200000000002547
 20
25.0250000006135
 42
-0.4142135623722283
 10
-1.400000000012369
 20
24.82499923764767
 10
-1.500000000001819
 20
24.82500000061368
 42
0.414213562371795
 10
-1.700000000011642
 20
24.62499923764786
 10
-1.700000000002547
 20
24.0250000006135
 42
0.4142135623722283
 10
-1.500000000012733
 20
23.82499923764767
 10
-0.2000000000025466
 20
23.82500000061277
 42
0.414213562373095
 10
-0.0000000000127329
 20
24.02499923764749
 10
-0.000000000001819
 20
31.82500000061277
 42
0.4142135623739618
 10
-0.5000000000127329
 20
32.32499923764767
 10
-68.33856217223365
 20
32.32500000061096
 42
2.215250437023224
 10
-68.3385631885867
 20
30.82499923764767
 10
-58.39999999999964
 20
30.82500000060914
 42
-0.414213562373095
 10
-58.1000000000131
 20
30.52499923764749
 10
-58.10000000002583
 20
1.975000000610592
 42
-0.4142135623726617
 10
-58.40000000001237
 20
1.675000763572783
 10
-68.14013082460042
 20
1.67500000061132
 42
-0.1826758134749568
 10
-68.33856217275024
 20
1.750000000452886
 42
2.215250435598545
 10
-68.33856217244647
 20
0.2499999998153299
 42
-0.1826758135238833
 10
-68.14013183997304
 20
0.324999237647674
 10
-0.500000000001819
 20
0.3250000006127749
 42
0.4142135623735284
 10
-0.0000000000127329
 20
0.824999237647674
 10
-0.0000000000127329
 20
8.624999237647856
210
0.0
220
0.0
230
-1.0
  0
LWPOLYLINE
  5
17D2
330
17CB
100
AcDbEntity
  8
0
100
AcDbPolyline
 90
       77
 70
   129
 43
0.0
 10
0.0
 20
8.625000000612047
 42
0.4142135623791621
 10
-0.2000000000116415
 20
8.824999237647674
 10
-1.500000000001819
 20
8.825000000613684
 42
0.4142135623743951
 10
-1.700000000011642
 20
8.624999237647856
 10
-1.700000000000728
 20
8.012245763210515
 42
0.4806248474867858
 10
-1.450000000002547
 20
7.825000000612775
 42
-0.5004070447288106
 10
-1.200000000011642
 20
7.624999237647856
 10
-1.200000000000728
 20
6.525000000611684
 42
-0.4142135623752618
 10
-1.400000000012369
 20
6.324999237647674
 10
-5.000000000001819
 20
6.325000000612775
 42
-0.414213562373095
 10
-5.200000000011642
 20
6.524999237647492
 10
-5.200000000000728
 20
7.625000000612047
 42
-0.4142135623709283
 10
-5.000000000012733
 20
7.824999237647674
 10
-4.900000000001455
 20
7.825000000612775
 42
0.4142135623704948
 10
-4.700000000011642
 20
8.024999237647492
 10
-4.700000000000728
 20
8.625000000612047
 42
0.4142135623765619
 10
-4.900000000012369
 20
8.824999237647674
 10
-6.899999999999636
 20
8.825000000612775
 42
0.4142135623748285
 10
-7.200000000011642
 20
8.524999237647492
 10
-7.200000000000728
 20
8.125000000612957
 42
0.4142135623735284
 10
-6.900000000012369
 20
7.824999237647674
 10
-6.500000000001819
 20
7.825000000612775
 42
-0.4142135623748285
 10
-6.200000000011642
 20
7.524999237647492
 10
-6.200000000000728
 20
5.525000000614412
 42
0.4142135623696282
 10
-6.000000000012733
 20
5.324999237647674
 10
-1.400000000001455
 20
5.325000000613684
 42
-0.414213562371795
 10
-1.200000000011642
 20
5.124999237647856
 10
-1.200000000000728
 20
1.825000000612775
 42
-0.414213562373095
 10
-1.500000000012733
 20
1.524999237647492
 10
-22.10000000002583
 20
1.525000000612593
 42
-0.4142135623735284
 10
-22.40000000001237
 20
1.824999237647674
 10
-22.39999999999964
 20
30.82500000061277
 42
-0.414213562373095
 10
-22.1000000000131
 20
31.12499923764786
 10
-1.500000000001819
 20
31.12500000061387
 42
-0.4142135623735284
 10
-1.200000000011642
 20
30.82499923764767
 10
-1.200000000002547
 20
27.5250000006135
 42
-0.4142135623722283
 10
-1.400000000012369
 20
27.32499923764767
 10
-6.000000000001819
 20
27.32500000061368
 42
0.4142135623743951
 10
-6.200000000011642
 20
27.12499923764786
 10
-6.200000000000728
 20
25.12500000061478
 42
-0.4142135623726617
 10
-6.500000000012733
 20
24.82499923764767
 10
-6.899999999999636
 20
24.82500000061277
 42
0.414213562373095
 10
-7.200000000011642
 20
24.52499923764749
 10
-7.199999999998909
 20
24.12500000061478
 42
0.414213562371795
 10
-6.900000000012369
 20
23.82499923764767
 10
-4.900000000001455
 20
23.82500000061277
 42
0.414213562373095
 10
-4.700000000011642
 20
24.02499923764749
 10
-4.700000000002547
 20
24.63775423801594
 42
0.4806248474917945
 10
-4.950000000002547
 20
24.82500000061459
 42
-0.5004070447288106
 10
-5.200000000011642
 20
25.02499923764749
 10
-5.200000000002547
 20
26.12500000061387
 42
-0.4142135623739618
 10
-5.000000000012733
 20
26.32499923764767
 10
-1.400000000001455
 20
26.32500000061368
 42
-0.4142135623691948
 10
-1.200000000011642
 20
26.12499923764786
 10
-1.200000000002547
 20
25.0250000006135
 42
-0.4142135623722283
 10
-1.400000000012369
 20
24.82499923764767
 10
-1.500000000001819
 20
24.82500000061368
 42
0.414213562371795
 10
-1.700000000011642
 20
24.62499923764786
 10
-1.700000000002547
 20
24.0250000006135
 42
0.4142135623722283
 10
-1.500000000012733
 20
23.82499923764767
 10
-0.2000000000025466
 20
23.82500000061277
 42
0.414213562373095
 10
-0.0000000000127329
 20
24.02499923764749
 10
-0.000000000001819
 20
31.82500000061277
 42
0.4142135623739618
 10
-0.5000000000127329
 20
32.32499923764767
 10
-68.33856217223365
 20
32.32500000061096
 42
2.215250437023224
 10
-68.3385631885867
 20
30.82499923764767
 10
-58.39999999999964
 20
30.82500000060914
 42
-0.414213562373095
 10
-58.1000000000131
 20
30.52499923764749
 10
-58.10000000002583
 20
1.975000000610592
 42
-0.4142135623726617
 10
-58.40000000001237
 20
1.675000763572783
 10
-68.14013082460042
 20
1.67500000061132
 42
-0.1826758134749568
 10
-68.33856217275024
 20
1.750000000452886
 42
2.215250435598545
 10
-68.33856217244647
 20
0.2499999998153299
 42
-0.1826758135238833
 10
-68.14013183997304
 20
0.324999237647674
 10
-0.500000000001819
 20
0.3250000006127749
 42
0.4142135623735284
 10
-0.0000000000127329
 20
0.824999237647674
 10
-0.0000000000127329
 20
8.624999237647856
210
0.0
220
0.0
230
-1.0
  0
ENDBLK
  5
17D3
330
17CB
100
AcDbEntity
  8
0
100
AcDbBlockEnd
  0
BLOCK
  5
17D8
330
17D5
100
AcDbEntity
  8
0
100
AcDbBlockBegin
  2
CHR-010
 70
     0
 10
0.0
 20
0.0
 30
0.0
  3
CHR-010
  1

  0
LWPOLYLINE
  5
17D9
330
17D5
100
AcDbEntity
  8
0
100
AcDbPolyline
 90
       28
 70
     1
 43
0.0
 10
1.100000000436012
 20
1.700004874391198
 42
0.4142148602520869
 10
1.400001329813563
 20
1.400004874401333
 10
12.10001198942598
 20
1.40005228889811
 42
0.4142122664505573
 10
12.40001066004947
 20
1.70005229090475
 10
12.40000999833489
 20
100.5000171941392
 42
0.4142132832053719
 10
12.10001028225258
 20
100.8000171921303
 10
1.400020759571703
 20
100.8000273190378
 42
0.4142100914247441
 10
1.100020475664508
 20
100.5000311581407
 10
1.100000000044702
 20
98.89999999892007
 42
-0.4142135623730948
 10
0.800000000045543
 20
98.59999999891909
 10
0.3000000000455429
 20
98.59999999891988
 42
-0.4117100293762168
 10
0.0000109785827362
 20
98.89743348351021
 10
0.0000000000454747
 20
101.8999999989201
 42
-0.414213562373095
 10
0.3000179162253289
 20
102.2000283601245
 10
25.70308548106811
 20
102.2000043176258
 42
-0.4112140602004568
 10
26.00001791622606
 20
101.9000283601245
 10
26.00001158281748
 20
101.1000019455842
 42
-0.4142115208909089
 10
25.70001129889522
 20
100.8000043205338
 10
14.30001820015775
 20
100.8000151099514
 42
0.4142138395785048
 10
14.00001791622498
 20
100.5000151099521
 10
14.00001791622526
 20
0.3000593789256527
 42
-0.4142122644881908
 10
13.70001924560245
 20
0.0000593789281993
 10
0.2999999996599172
 20
0.0
 42
-0.4142135623722069
 10
0.0000179162260565
 20
0.3000283601240881
 10
0.000000000048999
 20
16.29999999891879
 42
-0.4142135623730951
 10
0.3000000000464524
 20
16.59999999891807
 10
0.800000000045543
 20
16.59999999891807
 42
-0.4142135623730949
 10
1.100000000043906
 20
16.29999999891788
  0
ENDBLK
  5
17DA
330
17D5
100
AcDbEntity
  8
0
100
AcDbBlockEnd
  0
BLOCK
  5
1959
330
1958
100
AcDbEntity
  8
0
100
AcDbBlockBegin
  2
CTFASI-389
 70
     0
 10
0.0
 20
0.0
 30
0.0
  3
CTFASI-389
  1

  0
LINE
  5
195A
330
1958
100
AcDbEntity
  8
0
100
AcDbLine
 10
4.899999999999977
 20
12.10000000000014
 30
0.0
 11
1.250000000008527
 21
12.10000000000002
 31
0.0
  0
ARC
  5
195B
330
1958
100
AcDbEntity
  8
0
100
AcDbCircle
 10
-4.900000000000034
 20
11.80000000000001
 30
0.0
 40
0.2999999999999972
100
AcDbArc
 50
90.0
 51
180.0
  0
LINE
  5
195C
330
1958
100
AcDbEntity
  8
0
100
AcDbLine
 10
-5.199999999999989
 20
11.80000000000001
 30
0.0
 11
-5.199999999999989
 21
4.482606157515363
 31
0.0
  0
ARC
  5
195D
330
1958
100
AcDbEntity
  8
0
100
AcDbCircle
 10
-4.900000000000034
 20
4.482606157515363
 30
0.0
 40
0.2999999999999884
100
AcDbArc
 50
180.0
 51
240.000000000003
  0
LINE
  5
195E
330
1958
100
AcDbEntity
  8
0
100
AcDbLine
 10
-5.050000000000011
 20
4.222798536380054
 30
0.0
 11
-4.387306695894608
 21
3.840192378864657
 31
0.0
  0
ARC
  5
195F
330
1958
100
AcDbEntity
  8
0
100
AcDbCircle
 10
-4.237306695894688
 20
4.099999999999994
 30
0.0
 40
0.3000000000000114
100
AcDbArc
 50
240.0000000000056
 51
270.0
  0
LINE
  5
1960
330
1958
100
AcDbEntity
  8
0
100
AcDbLine
 10
-4.237306695894688
 20
3.799999999999983
 30
0.0
 11
4.237306695894631
 21
3.799999999999983
 31
0.0
  0
ARC
  5
1961
330
1958
100
AcDbEntity
  8
0
100
AcDbCircle
 10
4.237306695894631
 20
4.099999999999994
 30
0.0
 40
0.2999999999999972
100
AcDbArc
 50
270.0
 51
300.0000000000078
  0
LINE
  5
1962
330
1958
100
AcDbEntity
  8
0
100
AcDbLine
 10
4.387306695894551
 20
3.840192378864657
 30
0.0
 11
5.050000000000011
 21
4.222798536380054
 31
0.0
  0
ARC
  5
1963
330
1958
100
AcDbEntity
  8
0
100
AcDbCircle
 10
4.899999999999977
 20
4.482606157515363
 30
0.0
 40
0.2999999999999972
100
AcDbArc
 50
300.0000000000078
 51
0.0
  0
LINE
  5
1964
330
1958
100
AcDbEntity
  8
0
100
AcDbLine
 10
5.199999999999989
 20
4.482606157515363
 30
0.0
 11
5.199999999999989
 21
11.80000000000001
 31
0.0
  0
ARC
  5
1965
330
1958
100
AcDbEntity
  8
0
100
AcDbCircle
 10
4.899999999999977
 20
11.80000000000001
 30
0.0
 40
0.3000000000000114
100
AcDbArc
 50
0.0
 51
90.0
  0
LINE
  5
1966
330
1958
100
AcDbEntity
  8
0
100
AcDbLine
 10
-6.600000000000023
 20
12.97573593128806
 30
0.0
 11
-6.600000000000023
 21
3.674315780649891
 31
0.0
  0
ARC
  5
1967
330
1958
100
AcDbEntity
  8
0
100
AcDbCircle
 10
-6.300000000000011
 20
12.97573593128806
 30
0.0
 40
0.2999999999999972
100
AcDbArc
 50
135.0000000000057
 51
180.0
  0
LINE
  5
196A
330
1958
100
AcDbEntity
  8
0
100
AcDbLine
 10
2.477331366139651
 20
14.10000000000002
 30
0.0
 11
1.250000000008527
 21
14.10000000000002
 31
0.0
  0
LINE
  5
196C
330
1958
100
AcDbEntity
  8
0
100
AcDbLine
 10
6.512132034355943
 20
13.18786796564416
 30
0.0
 11
6.173807513218208
 21
13.52619248678195
 31
0.0
  0
ARC
  5
196D
330
1958
100
AcDbEntity
  8
0
100
AcDbCircle
 10
6.300000000000011
 20
12.97573593128806
 30
0.0
 40
0.3000000000000044
100
AcDbArc
 50
0.0
 51
45.00000000000767
  0
LINE
  5
196E
330
1958
100
AcDbEntity
  8
0
100
AcDbLine
 10
6.599999999999966
 20
3.674315780649891
 30
0.0
 11
6.599999999999966
 21
12.97573593128806
 31
0.0
  0
ARC
  5
196F
330
1958
100
AcDbEntity
  8
0
100
AcDbCircle
 10
6.300000000000011
 20
3.674315780649891
 30
0.0
 40
0.2999999999999972
100
AcDbArc
 50
299.9999999999957
 51
0.0
  0
LINE
  5
1970
330
1958
100
AcDbEntity
  8
0
100
AcDbLine
 10
4.899999999999977
 20
2.519615242270675
 30
0.0
 11
6.449999999999989
 21
3.414508159514554
 31
0.0
  0
ARC
  5
1971
330
1958
100
AcDbEntity
  8
0
100
AcDbCircle
 10
5.199999999999989
 20
1.999999999999972
 30
0.0
 40
0.6000000000000205
100
AcDbArc
 50
119.9999999999997
 51
270.0000000000054
  0
LINE
  5
1972
330
1958
100
AcDbEntity
  8
0
100
AcDbLine
 10
6.300000000000011
 20
1.400000000000006
 30
0.0
 11
5.199999999999989
 21
1.400000000000006
 31
0.0
  0
ARC
  5
1973
330
1958
100
AcDbEntity
  8
0
100
AcDbCircle
 10
6.300000000000011
 20
1.099999999999994
 30
0.0
 40
0.3000000000000114
100
AcDbArc
 50
0.0
 51
90.0
  0
LINE
  5
1974
330
1958
100
AcDbEntity
  8
0
100
AcDbLine
 10
6.599999999999966
 20
0.2999999999999829
 30
0.0
 11
6.599999999999966
 21
1.099999999999994
 31
0.0
  0
ARC
  5
1975
330
1958
100
AcDbEntity
  8
0
100
AcDbCircle
 10
6.300000000000011
 20
0.2999999999999829
 30
0.0
 40
0.2999999999999972
100
AcDbArc
 50
270.0
 51
0.0
  0
LINE
  5
1976
330
1958
100
AcDbEntity
  8
0
100
AcDbLine
 10
-6.300000000000011
 20
0.0
 30
0.0
 11
6.300000000000011
 21
0.0
 31
0.0
  0
ARC
  5
1977
330
1958
100
AcDbEntity
  8
0
100
AcDbCircle
 10
-6.300000000000011
 20
0.2999999999999829
 30
0.0
 40
0.2999999999999972
100
AcDbArc
 50
180.0
 51
270.0
  0
LINE
  5
1978
330
1958
100
AcDbEntity
  8
0
100
AcDbLine
 10
-6.600000000000023
 20
1.099999999999994
 30
0.0
 11
-6.600000000000023
 21
0.2999999999999829
 31
0.0
  0
ARC
  5
1979
330
1958
100
AcDbEntity
  8
0
100
AcDbCircle
 10
-6.300000000000011
 20
1.099999999999994
 30
0.0
 40
0.2999999999999972
100
AcDbArc
 50
90.0
 51
180.0
  0
LINE
  5
197A
330
1958
100
AcDbEntity
  8
0
100
AcDbLine
 10
-5.199999999999989
 20
1.400000000000006
 30
0.0
 11
-6.300000000000011
 21
1.400000000000006
 31
0.0
  0
ARC
  5
197B
330
1958
100
AcDbEntity
  8
0
100
AcDbCircle
 10
-5.199999999999989
 20
2.0
 30
0.0
 40
0.6000000000000015
100
AcDbArc
 50
270.0
 51
60.00000000000498
  0
LINE
  5
197C
330
1958
100
AcDbEntity
  8
0
100
AcDbLine
 10
-6.449999999999989
 20
3.414508159514554
 30
0.0
 11
-4.900000000000034
 21
2.519615242270675
 31
0.0
  0
ARC
  5
197D
330
1958
100
AcDbEntity
  8
0
100
AcDbCircle
 10
-6.300000000000011
 20
3.674315780649891
 30
0.0
 40
0.3000000000000007
100
AcDbArc
 50
180.0
 51
240.0000000000043
  0
LINE
  5
197E
330
1958
100
AcDbEntity
  8
CENTRO
100
AcDbLine
 10
-0.0000000000000568
 20
5.299975343291408
 30
0.0
 11
-0.0000000000000568
 21
-1.700024656708592
 31
0.0
1001
PE_URL
1000

  0
LINE
  5
197F
330
1958
100
AcDbEntity
  8
0
100
AcDbLine
 10
2.696088053499977
 20
4.65529826309141
 30
0.0
 11
2.445499999999981
 21
4.799975343291408
 31
0.0
  0
LINE
  5
1980
330
1958
100
AcDbEntity
  8
0
100
AcDbLine
 10
2.445500000099969
 20
4.479834618991418
 30
0.0
 11
2.696088053599965
 21
4.65529826309141
 31
0.0
  0
LINE
  5
1981
330
1958
100
AcDbEntity
  8
0
100
AcDbLine
 10
3.0
 20
4.09156953909141
 30
0.0
 11
2.445499999999981
 21
4.479834618991418
 31
0.0
  0
LINE
  5
1982
330
1958
100
AcDbEntity
  8
0
100
AcDbLine
 10
3.0
 20
4.09156953909141
 30
0.0
 11
-3.0
 21
4.09156953909141
 31
0.0
  0
LINE
  5
1983
330
1958
100
AcDbEntity
  8
0
100
AcDbLine
 10
-3.0
 20
4.09156953909141
 30
0.0
 11
-3.0
 21
4.032127834391417
 31
0.0
  0
LINE
  5
1984
330
1958
100
AcDbEntity
  8
0
100
AcDbLine
 10
3.0
 20
4.032127834391417
 30
0.0
 11
3.0
 21
4.09156953909141
 31
0.0
  0
LINE
  5
1985
330
1958
100
AcDbEntity
  8
0
100
AcDbLine
 10
2.445499999999981
 20
4.47983461899139
 30
0.0
 11
1.250000000008527
 21
4.47983461899139
 31
0.0
  0
LINE
  5
1986
330
1958
100
AcDbEntity
  8
0
100
AcDbLine
 10
-2.260191241500024
 20
4.479834618991418
 30
0.0
 11
-2.445500000000038
 21
4.479834618991418
 31
0.0
  0
LINE
  5
1987
330
1958
100
AcDbEntity
  8
0
100
AcDbLine
 10
-2.7000000000005
 20
-0.0000246567085895
 30
0.0
 11
-1.500000000000512
 21
-1.200024656708592
 31
0.0
  0
LINE
  5
1988
330
1958
100
AcDbEntity
  8
0
100
AcDbLine
 10
2.445499999999981
 20
4.799975343291408
 30
0.0
 11
1.250000000008527
 21
4.799975343291408
 31
0.0
  0
LINE
  5
1989
330
1958
100
AcDbEntity
  8
0
100
AcDbLine
 10
-2.445500000000038
 20
4.799975343291408
 30
0.0
 11
-2.696088053500034
 21
4.65529826309141
 31
0.0
  0
LINE
  5
198A
330
1958
100
AcDbEntity
  8
0
100
AcDbLine
 10
2.668451882599982
 20
3.799975343291408
 30
0.0
 11
3.0
 21
4.032127834391417
 31
0.0
  0
LINE
  5
198B
330
1958
100
AcDbEntity
  8
0
100
AcDbLine
 10
2.696088053599965
 20
4.655298263091481
 30
0.0
 11
1.250000000008527
 21
4.655298263091368
 31
0.0
  0
LINE
  5
198C
330
1958
100
AcDbEntity
  8
0
100
AcDbLine
 10
1.499999999999488
 20
-1.200024656708592
 30
0.0
 11
2.699999999999477
 21
-0.0000246567085895
 31
0.0
  0
LINE
  5
198D
330
1958
100
AcDbEntity
  8
0
100
AcDbLine
 10
-2.696088053600022
 20
4.65529826309141
 30
0.0
 11
-2.445500000200013
 21
4.479834618991418
 31
0.0
  0
LINE
  5
198E
330
1958
100
AcDbEntity
  8
0
100
AcDbLine
 10
-2.445500000000038
 20
4.479834618991418
 30
0.0
 11
-3.0
 21
4.09156953909141
 31
0.0
  0
LINE
  5
198F
330
1958
100
AcDbEntity
  8
0
100
AcDbLine
 10
1.499999999999488
 20
-1.200024656708592
 30
0.0
 11
-1.500000000000512
 21
-1.200024656708592
 31
0.0
  0
LINE
  5
1990
330
1958
100
AcDbEntity
  8
0
100
AcDbLine
 10
3.0
 20
4.032127834391417
 30
0.0
 11
-3.0
 21
4.032127834391417
 31
0.0
  0
LINE
  5
1991
330
1958
100
AcDbEntity
  8
0
100
AcDbLine
 10
-3.0
 20
4.032127834391417
 30
0.0
 11
-2.668451882600039
 21
3.799975343291408
 31
0.0
  0
LINE
  5
4296
330
1958
100
AcDbEntity
  8
0
100
AcDbLine
 10
-1.249999999991473
 20
4.47983461899139
 30
0.0
 11
-2.260191241500024
 21
4.47983461899139
 31
0.0
  0
LINE
  5
4297
330
1958
100
AcDbEntity
  8
0
100
AcDbLine
 10
-1.249999999991473
 20
4.799975343291408
 30
0.0
 11
-2.445500000000038
 21
4.799975343291408
 31
0.0
  0
LINE
  5
4298
330
1958
100
AcDbEntity
  8
0
100
AcDbLine
 10
-1.249999999991473
 20
12.10000000000002
 30
0.0
 11
-4.900000000000034
 21
12.10000000000002
 31
0.0
  0
LINE
  5
4299
330
1958
100
AcDbEntity
  8
0
100
AcDbLine
 10
-1.249999999991473
 20
14.10000000000002
 30
0.0
 11
-2.477331366122769
 21
14.10000000000002
 31
0.0
  0
LINE
  5
429A
330
1958
100
AcDbEntity
  8
0
100
AcDbLine
 10
-1.249999999991473
 20
4.655298263091368
 30
0.0
 11
-2.696088053600022
 21
4.655298263091368
 31
0.0
  0
LINE
  5
429B
330
1958
100
AcDbEntity
  8
0
100
AcDbLine
 10
6.094415265549344
 20
13.60558473445076
 30
0.0
 11
5.92623272789109
 21
13.77376727210901
 31
0.0
  0
LINE
  5
429C
330
1958
100
AcDbEntity
  8
0
100
AcDbLine
 10
-6.173802116509535
 20
13.52619788349045
 30
0.0
 11
-6.512132034355943
 21
13.18786796564405
 31
0.0
  0
LINE
  5
445C
330
1958
100
AcDbEntity
  8
0
100
AcDbLine
 10
-5.926232779541692
 20
13.77376722045835
 30
0.0
 11
-6.094415265491875
 21
13.60558473450817
 31
0.0
  0
ENDBLK
  5
1992
330
1958
100
AcDbEntity
  8
0
100
AcDbBlockEnd
  0
BLOCK
  5
43EC
330
4394
100
AcDbEntity
  8
0
100
AcDbBlockBegin
  2
TRAVA_DA_FOLHA_FIXA
 70
     0
 10
0.0
 20
0.0
 30
0.0
  3
TRAVA_DA_FOLHA_FIXA
  1

  0
ARC
  5
4395
330
4394
100
AcDbEntity
  8
0
100
AcDbCircle
 10
2.0
 20
20.0
 30
0.0
 40
7.999999999999973
100
AcDbArc
 50
197.5435212380002
 51
207.8181392847
  0
ARC
  5
4396
330
4394
100
AcDbEntity
  8
0
100
AcDbCircle
 10
2.0
 20
20.0
 30
0.0
 40
8.000000000000039
100
AcDbArc
 50
152.1818607153
 51
162.4612410397002
  0
LINE
  5
4397
330
4394
100
AcDbEntity
  8
0
100
AcDbLine
 10
-0.5
 20
18.39999999999998
 30
0.0
 11
0.0
 21
18.39999999999998
 31
0.0
  0
LINE
  5
4398
330
4394
100
AcDbEntity
  8
0
100
AcDbLine
 10
0.0
 20
21.60000000000002
 30
0.0
 11
-0.5
 21
21.60000000000002
 31
0.0
  0
LINE
  5
4399
330
4394
100
AcDbEntity
  8
0
100
AcDbLine
 10
4.87132486539997
 20
21.60000000000002
 30
0.0
 11
3.848675134600057
 21
21.60000000000002
 31
0.0
  0
ARC
  5
439A
330
4394
100
AcDbEntity
  8
0
100
AcDbCircle
 10
2.0
 20
8.5
 30
0.0
 40
7.99999999999996
100
AcDbArc
 50
197.5435212380002
 51
207.8181392847
  0
ARC
  5
439B
330
4394
100
AcDbEntity
  8
0
100
AcDbCircle
 10
2.0
 20
8.5
 30
0.0
 40
8.000000000000039
100
AcDbArc
 50
152.1818607153
 51
162.4612410397002
  0
LINE
  5
439C
330
4394
100
AcDbEntity
  8
0
100
AcDbLine
 10
-0.5
 20
6.899999999999977
 30
0.0
 11
0.0
 21
6.899999999999977
 31
0.0
  0
LINE
  5
439D
330
4394
100
AcDbEntity
  8
0
100
AcDbLine
 10
0.0
 20
10.10000000000002
 30
0.0
 11
-0.5
 21
10.10000000000002
 31
0.0
  0
LINE
  5
439E
330
4394
100
AcDbEntity
  8
0
100
AcDbLine
 10
6.471324865399993
 20
10.10000000000002
 30
0.0
 11
5.448675134599966
 21
10.10000000000002
 31
0.0
  0
SPLINE
  5
439F
330
4394
100
AcDbEntity
  8
0
100
AcDbSpline
210
0.0
220
0.0
230
1.0
 70
    24
 71
     3
 72
    10
 73
     6
 74
     0
 42
0.000000001
 43
0.00000001
 40
0.0
 40
0.0
 40
0.0
 40
0.0
 40
0.4959467013991333
 40
0.9925240834009864
 40
1.0
 40
1.0
 40
1.0
 40
1.0
 10
-5.608171610531258
 20
17.5911828232031
 30
0.0
 10
-5.613611383320631
 20
17.5906110800446
 30
0.0
 10
-5.624497846495615
 20
17.58946686665854
 30
0.0
 10
-5.629713241072523
 20
17.58891870659977
 30
0.0
 10
-5.628025048874292
 20
17.58909614274967
 30
0.0
 10
-5.628000010283927
 20
17.58909877441158
 30
0.0
  0
SPLINE
  5
43A0
330
4394
100
AcDbEntity
  8
0
100
AcDbSpline
210
0.0
220
0.0
230
1.0
 70
     8
 71
     3
 72
    11
 73
     7
 74
     0
 42
0.000000001
 43
0.00000001
 40
0.0
 40
0.0
 40
0.0
 40
0.0
 40
0.2493881397329049
 40
0.4990197299027455
 40
0.7493866991568506
 40
1.0
 40
1.0
 40
1.0
 40
1.0
 10
-5.856352917664708
 20
18.53226143179461
 30
0.0
 10
-5.840013098490545
 20
18.45311640685708
 30
0.0
 10
-5.807317509359223
 20
18.29474909632745
 30
0.0
 10
-5.748516124154889
 20
18.05876397431098
 30
0.0
 10
-5.683180170379842
 20
17.82385439084362
 30
0.0
 10
-5.633182658392798
 20
17.66876543145474
 30
0.0
 10
-5.608171610531258
 20
17.5911828232031
 30
0.0
  0
SPLINE
  5
43A1
330
4394
100
AcDbEntity
  8
0
100
AcDbSpline
210
0.0
220
0.0
230
1.0
 70
     8
 71
     3
 72
     9
 73
     5
 74
     0
 42
0.000000001
 43
0.00000001
 40
0.0
 40
0.0
 40
0.0
 40
0.0
 40
0.4993447608087672
 40
1.0
 40
1.0
 40
1.0
 40
1.0
 10
-5.926435406640621
 20
19.23461717278167
 30
0.0
 10
-5.919954404845157
 20
19.11704880293667
 30
0.0
 10
-5.906975392539493
 20
18.88160351728959
 30
0.0
 10
-5.873241811665821
 20
18.64881048370557
 30
0.0
 10
-5.856352917664708
 20
18.53226143179461
 30
0.0
  0
SPLINE
  5
43A2
330
4394
100
AcDbEntity
  8
0
100
AcDbSpline
210
0.0
220
0.0
230
1.0
 70
     8
 71
     3
 72
     9
 73
     5
 74
     0
 42
0.000000001
 43
0.00000001
 40
0.0
 40
0.0
 40
0.0
 40
0.0
 40
0.4993447608089179
 40
0.9999999999999999
 40
0.9999999999999999
 40
0.9999999999999999
 40
0.9999999999999999
 10
-5.856352917664708
 20
19.64862793428642
 30
0.0
 10
-5.873202101602942
 20
19.57947006517378
 30
0.0
 10
-5.906944688409908
 20
19.440972829315
 30
0.0
 10
-5.919932827005368
 20
19.30346245974829
 30
0.0
 10
-5.926435406640621
 20
19.23461717278167
 30
0.0
  0
SPLINE
  5
43A3
330
4394
100
AcDbEntity
  8
0
100
AcDbSpline
210
0.0
220
0.0
230
1.0
 70
     8
 71
     3
 72
    11
 73
     7
 74
     0
 42
0.000000001
 43
0.00000001
 40
0.0
 40
0.0
 40
0.0
 40
0.0
 40
0.2493881397974938
 40
0.4990197299460271
 40
0.7493866991784701
 40
1.0
 40
1.0
 40
1.0
 40
1.0
 10
-5.608171610557747
 20
19.44024598833249
 30
0.0
 10
-5.633063722721317
 20
19.45684978278166
 30
0.0
 10
-5.68287224649373
 20
19.49007358014779
 30
0.0
 10
-5.748150860197143
 20
19.54162980786612
 30
0.0
 10
-5.807098349982994
 20
19.59433368806418
 30
0.0
 10
-5.839929347445945
 20
19.6305239206431
 30
0.0
 10
-5.856352917664708
 20
19.64862793428642
 30
0.0
  0
SPLINE
  5
43A4
330
4394
100
AcDbEntity
  8
0
100
AcDbSpline
210
0.0
220
0.0
230
1.0
 70
     8
 71
     3
 72
    11
 73
     7
 74
     0
 42
0.000000001
 43
0.00000001
 40
0.0
 40
0.0
 40
0.0
 40
0.0
 40
0.2498403264114133
 40
0.4999999999692623
 40
0.7498403260312034
 40
0.9999999999999999
 40
0.9999999999999999
 40
0.9999999999999999
 40
0.9999999999999999
 10
-5.608171610537511
 20
20.55975401154387
 30
0.0
 10
-5.613854083987349
 20
20.46661065989508
 30
0.0
 10
-5.625226294252684
 20
20.28020490030269
 30
0.0
 10
-5.629497289173173
 20
20.00011926857485
 30
0.0
 10
-5.625230386110843
 20
19.71991444972087
 30
0.0
 10
-5.61386028975312
 20
19.5335084943631
 30
0.0
 10
-5.608171610557747
 20
19.44024598833249
 30
0.0
  0
SPLINE
  5
43A5
330
4394
100
AcDbEntity
  8
0
100
AcDbSpline
210
0.0
220
0.0
230
1.0
 70
     8
 71
     3
 72
    11
 73
     7
 74
     0
 42
0.000000001
 43
0.00000001
 40
0.0
 40
0.0
 40
0.0
 40
0.0
 40
0.2493881395333353
 40
0.4990197295030165
 40
0.7493866985552164
 40
1.0
 40
1.0
 40
1.0
 40
1.0
 10
-5.856352917664708
 20
20.35137206566026
 30
0.0
 10
-5.840013098504642
 20
20.36938808276767
 30
0.0
 10
-5.807317509401514
 20
20.40543770405486
 30
0.0
 10
-5.748516124255048
 20
20.45806350324187
 30
0.0
 10
-5.683180170479204
 20
20.50971246948268
 30
0.0
 10
-5.633182658456803
 20
20.54306803053828
 30
0.0
 10
-5.608171610537511
 20
20.55975401154387
 30
0.0
  0
SPLINE
  5
43A6
330
4394
100
AcDbEntity
  8
0
100
AcDbSpline
210
0.0
220
0.0
230
1.0
 70
     8
 71
     3
 72
     9
 73
     5
 74
     0
 42
0.000000001
 43
0.00000001
 40
0.0
 40
0.0
 40
0.0
 40
0.0
 40
0.4993447608088861
 40
1.0
 40
1.0
 40
1.0
 40
1.0
 10
-5.926435406640621
 20
20.76538282716388
 30
0.0
 10
-5.919954404845271
 20
20.69671813742167
 30
0.0
 10
-5.906975392539607
 20
20.55920855460147
 30
0.0
 10
-5.873241811665821
 20
20.42071139448547
 30
0.0
 10
-5.856352917664708
 20
20.35137206566026
 30
0.0
  0
SPLINE
  5
43A7
330
4394
100
AcDbEntity
  8
0
100
AcDbSpline
210
0.0
220
0.0
230
1.0
 70
     8
 71
     3
 72
     9
 73
     5
 74
     0
 42
0.000000001
 43
0.00000001
 40
0.0
 40
0.0
 40
0.0
 40
0.0
 40
0.4993447608088932
 40
1.0
 40
1.0
 40
1.0
 40
1.0
 10
-5.856352917664708
 20
21.4677385681515
 30
0.0
 10
-5.873202101602942
 20
21.35149546629066
 30
0.0
 10
-5.906944688410022
 20
21.11870419464015
 30
0.0
 10
-5.919932827005368
 20
20.8832594647323
 30
0.0
 10
-5.926435406640621
 20
20.76538282716388
 30
0.0
  0
SPLINE
  5
43A8
330
4394
100
AcDbEntity
  8
0
100
AcDbSpline
210
0.0
220
0.0
230
1.0
 70
     8
 71
     3
 72
    11
 73
     7
 74
     0
 42
0.000000001
 43
0.00000001
 40
0.0
 40
0.0
 40
0.0
 40
0.0
 40
0.2493881397329103
 40
0.4990197299027608
 40
0.7493866991568718
 40
1.0
 40
1.0
 40
1.0
 40
1.0
 10
-5.608171610531258
 20
22.40881717674307
 30
0.0
 10
-5.633063722691531
 20
22.33161485619428
 30
0.0
 10
-5.682872246465649
 20
22.17713485089246
 30
0.0
 10
-5.748150860175997
 20
21.94262106998474
 30
0.0
 10
-5.807098349973899
 20
21.70626030880118
 30
0.0
 10
-5.839929347442876
 20
21.547271873196
 30
0.0
 10
-5.856352917664708
 20
21.4677385681515
 30
0.0
  0
SPLINE
  5
43A9
330
4394
100
AcDbEntity
  8
0
100
AcDbSpline
210
0.0
220
0.0
230
1.0
 70
    24
 71
     3
 72
     9
 73
     5
 74
     0
 42
0.000000001
 43
0.00000001
 40
0.0
 40
0.0
 40
0.0
 40
0.0
 40
0.4983740093924072
 40
1.0
 40
1.0
 40
1.0
 40
1.0
 10
-5.628048428834177
 20
22.41090631452977
 30
0.0
 10
-5.627234269200699
 20
22.41082074290409
 30
0.0
 10
-5.625600637393745
 20
22.41064904128228
 30
0.0
 10
-5.613993867817726
 20
22.40942912064247
 30
0.0
 10
-5.608171610531258
 20
22.40881717674307
 30
0.0
  0
LINE
  5
43AA
330
4394
100
AcDbEntity
  8
0
100
AcDbLine
 10
-5.620705919900047
 20
20.3249148676
 30
0.0
 11
-5.856352917699951
 21
20.35137206569999
 31
0.0
  0
LINE
  5
43AB
330
4394
100
AcDbEntity
  8
0
100
AcDbLine
 10
-5.856352917699951
 20
19.64862793429995
 30
0.0
 11
-5.620700605000025
 21
19.67508572899999
 31
0.0
  0
LINE
  5
43AC
330
4394
100
AcDbEntity
  8
0
100
AcDbLine
 10
3.559999999999945
 20
17.89999999999998
 30
0.0
 11
3.559999999999945
 21
22.10000000000002
 31
0.0
  0
LINE
  5
43AD
330
4394
100
AcDbEntity
  8
0
100
AcDbLine
 10
1.960000000000036
 20
17.89999999989999
 30
0.0
 11
1.960000000000036
 21
22.10000000000002
 31
0.0
  0
LINE
  5
43AE
330
4394
100
AcDbEntity
  8
0
100
AcDbLine
 10
5.159999999999968
 20
17.89999999999998
 30
0.0
 11
5.159999999999968
 21
22.10000000000002
 31
0.0
  0
LINE
  5
43AF
330
4394
100
AcDbEntity
  8
0
100
AcDbLine
 10
6.660673326000051
 20
18.07203884579997
 30
0.0
 11
6.660673326000051
 21
21.92796115419998
 31
0.0
  0
LINE
  5
43B0
330
4394
100
AcDbEntity
  8
0
100
AcDbLine
 10
7.048675134599989
 20
18.39999999999998
 30
0.0
 11
7.048675134599989
 21
21.60000000000002
 31
0.0
  0
SPLINE
  5
43B1
330
4394
100
AcDbEntity
  8
0
100
AcDbSpline
210
0.0
220
0.0
230
1.0
 70
    24
 71
     3
 72
    10
 73
     6
 74
     0
 42
0.000000001
 43
0.00000001
 40
0.0
 40
0.0
 40
0.0
 40
0.0
 40
0.4959467013991333
 40
0.9925240834009864
 40
1.0
 40
1.0
 40
1.0
 40
1.0
 10
-5.608171610531258
 20
6.091182823202871
 30
0.0
 10
-5.613611383320631
 20
6.090611080044255
 30
0.0
 10
-5.624497846495728
 20
6.08946686665837
 30
0.0
 10
-5.629713241072295
 20
6.088918706599543
 30
0.0
 10
-5.628025048874292
 20
6.08909614274944
 30
0.0
 10
-5.628000010283927
 20
6.089098774411354
 30
0.0
  0
SPLINE
  5
43B2
330
4394
100
AcDbEntity
  8
0
100
AcDbSpline
210
0.0
220
0.0
230
1.0
 70
     8
 71
     3
 72
    11
 73
     7
 74
     0
 42
0.000000001
 43
0.00000001
 40
0.0
 40
0.0
 40
0.0
 40
0.0
 40
0.2493881397329049
 40
0.4990197299027455
 40
0.7493866991568506
 40
1.0
 40
1.0
 40
1.0
 40
1.0
 10
-5.856352917664708
 20
7.032261431794268
 30
0.0
 10
-5.840013098490545
 20
6.953116406856793
 30
0.0
 10
-5.807317509359223
 20
6.79474909632728
 30
0.0
 10
-5.748516124154889
 20
6.55876397431075
 30
0.0
 10
-5.683180170379842
 20
6.323854390843394
 30
0.0
 10
-5.633182658392684
 20
6.168765431454574
 30
0.0
 10
-5.608171610531258
 20
6.091182823202871
 30
0.0
  0
SPLINE
  5
43B3
330
4394
100
AcDbEntity
  8
0
100
AcDbSpline
210
0.0
220
0.0
230
1.0
 70
     8
 71
     3
 72
     9
 73
     5
 74
     0
 42
0.000000001
 43
0.00000001
 40
0.0
 40
0.0
 40
0.0
 40
0.0
 40
0.4993447608087672
 40
1.0
 40
1.0
 40
1.0
 40
1.0
 10
-5.926435406640621
 20
7.734617172781384
 30
0.0
 10
-5.919954404845157
 20
7.617048802936495
 30
0.0
 10
-5.906975392539493
 20
7.381603517289363
 30
0.0
 10
-5.873241811665821
 20
7.148810483705347
 30
0.0
 10
-5.856352917664708
 20
7.032261431794268
 30
0.0
  0
SPLINE
  5
43B4
330
4394
100
AcDbEntity
  8
0
100
AcDbSpline
210
0.0
220
0.0
230
1.0
 70
     8
 71
     3
 72
     9
 73
     5
 74
     0
 42
0.000000001
 43
0.00000001
 40
0.0
 40
0.0
 40
0.0
 40
0.0
 40
0.4993447608089179
 40
0.9999999999999999
 40
0.9999999999999999
 40
0.9999999999999999
 40
0.9999999999999999
 10
-5.856352917664708
 20
8.148627934286196
 30
0.0
 10
-5.873202101602942
 20
8.07947006517361
 30
0.0
 10
-5.906944688409908
 20
7.940972829314774
 30
0.0
 10
-5.919932827005368
 20
7.803462459748062
 30
0.0
 10
-5.926435406640621
 20
7.734617172781384
 30
0.0
  0
SPLINE
  5
43B5
330
4394
100
AcDbEntity
  8
0
100
AcDbSpline
210
0.0
220
0.0
230
1.0
 70
     8
 71
     3
 72
    11
 73
     7
 74
     0
 42
0.000000001
 43
0.00000001
 40
0.0
 40
0.0
 40
0.0
 40
0.0
 40
0.2493881397974938
 40
0.4990197299460271
 40
0.7493866991784701
 40
1.0
 40
1.0
 40
1.0
 40
1.0
 10
-5.608171610557747
 20
7.940245988332322
 30
0.0
 10
-5.633063722721317
 20
7.956849782781489
 30
0.0
 10
-5.68287224649373
 20
7.990073580147623
 30
0.0
 10
-5.748150860197143
 20
8.041629807865888
 30
0.0
 10
-5.807098349982994
 20
8.094333688064012
 30
0.0
 10
-5.839929347445945
 20
8.130523920642872
 30
0.0
 10
-5.856352917664708
 20
8.148627934286196
 30
0.0
  0
SPLINE
  5
43B6
330
4394
100
AcDbEntity
  8
0
100
AcDbSpline
210
0.0
220
0.0
230
1.0
 70
     8
 71
     3
 72
    11
 73
     7
 74
     0
 42
0.000000001
 43
0.00000001
 40
0.0
 40
0.0
 40
0.0
 40
0.0
 40
0.2498403264114133
 40
0.4999999999692623
 40
0.7498403260312034
 40
0.9999999999999999
 40
0.9999999999999999
 40
0.9999999999999999
 40
0.9999999999999999
 10
-5.608171610537511
 20
9.059754011543646
 30
0.0
 10
-5.613854083987349
 20
8.966610659894855
 30
0.0
 10
-5.625226294252684
 20
8.780204900302465
 30
0.0
 10
-5.629497289173173
 20
8.500119268574679
 30
0.0
 10
-5.625230386110843
 20
8.219914449720704
 30
0.0
 10
-5.61386028975312
 20
8.033508494362763
 30
0.0
 10
-5.608171610557747
 20
7.940245988332322
 30
0.0
  0
SPLINE
  5
43B7
330
4394
100
AcDbEntity
  8
0
100
AcDbSpline
210
0.0
220
0.0
230
1.0
 70
     8
 71
     3
 72
    11
 73
     7
 74
     0
 42
0.000000001
 43
0.00000001
 40
0.0
 40
0.0
 40
0.0
 40
0.0
 40
0.2493881395333353
 40
0.4990197295030165
 40
0.7493866985552164
 40
1.0
 40
1.0
 40
1.0
 40
1.0
 10
-5.856352917664708
 20
8.851372065659973
 30
0.0
 10
-5.840013098504642
 20
8.8693880827675
 30
0.0
 10
-5.8073175094014
 20
8.905437704054691
 30
0.0
 10
-5.748516124255048
 20
8.958063503241647
 30
0.0
 10
-5.683180170479204
 20
9.009712469482452
 30
0.0
 10
-5.633182658456803
 20
9.043068030538052
 30
0.0
 10
-5.608171610537511
 20
9.059754011543646
 30
0.0
  0
SPLINE
  5
43B8
330
4394
100
AcDbEntity
  8
0
100
AcDbSpline
210
0.0
220
0.0
230
1.0
 70
     8
 71
     3
 72
     9
 73
     5
 74
     0
 42
0.000000001
 43
0.00000001
 40
0.0
 40
0.0
 40
0.0
 40
0.0
 40
0.4993447608088861
 40
1.0
 40
1.0
 40
1.0
 40
1.0
 10
-5.926435406640621
 20
9.265382827163648
 30
0.0
 10
-5.919954404845157
 20
9.196718137421499
 30
0.0
 10
-5.906975392539607
 20
9.059208554601241
 30
0.0
 10
-5.873241811665821
 20
8.920711394485295
 30
0.0
 10
-5.856352917664708
 20
8.851372065659973
 30
0.0
  0
SPLINE
  5
43B9
330
4394
100
AcDbEntity
  8
0
100
AcDbSpline
210
0.0
220
0.0
230
1.0
 70
     8
 71
     3
 72
     9
 73
     5
 74
     0
 42
0.000000001
 43
0.00000001
 40
0.0
 40
0.0
 40
0.0
 40
0.0
 40
0.4993447608088932
 40
1.0
 40
1.0
 40
1.0
 40
1.0
 10
-5.856352917664708
 20
9.967738568151162
 30
0.0
 10
-5.873202101602942
 20
9.851495466290487
 30
0.0
 10
-5.906944688410022
 20
9.618704194639975
 30
0.0
 10
-5.919932827005368
 20
9.383259464731964
 30
0.0
 10
-5.926435406640621
 20
9.265382827163648
 30
0.0
  0
SPLINE
  5
43BA
330
4394
100
AcDbEntity
  8
0
100
AcDbSpline
210
0.0
220
0.0
230
1.0
 70
     8
 71
     3
 72
    11
 73
     7
 74
     0
 42
0.000000001
 43
0.00000001
 40
0.0
 40
0.0
 40
0.0
 40
0.0
 40
0.2493881397329103
 40
0.4990197299027608
 40
0.7493866991568718
 40
1.0
 40
1.0
 40
1.0
 40
1.0
 10
-5.608171610531258
 20
10.9088171767429
 30
0.0
 10
-5.633063722691531
 20
10.83161485619405
 30
0.0
 10
-5.682872246465649
 20
10.67713485089229
 30
0.0
 10
-5.748150860175997
 20
10.44262106998457
 30
0.0
 10
-5.807098349973899
 20
10.20626030880101
 30
0.0
 10
-5.839929347442876
 20
10.04727187319577
 30
0.0
 10
-5.856352917664708
 20
9.967738568151162
 30
0.0
  0
SPLINE
  5
43BB
330
4394
100
AcDbEntity
  8
0
100
AcDbSpline
210
0.0
220
0.0
230
1.0
 70
    24
 71
     3
 72
     9
 73
     5
 74
     0
 42
0.000000001
 43
0.00000001
 40
0.0
 40
0.0
 40
0.0
 40
0.0
 40
0.4983740093924072
 40
1.0
 40
1.0
 40
1.0
 40
1.0
 10
-5.628048428834177
 20
10.9109063145296
 30
0.0
 10
-5.627234269200699
 20
10.91082074290387
 30
0.0
 10
-5.625600637393745
 20
10.91064904128211
 30
0.0
 10
-5.613993867817726
 20
10.90942912064224
 30
0.0
 10
-5.608171610531258
 20
10.9088171767429
 30
0.0
  0
LINE
  5
43BC
330
4394
100
AcDbEntity
  8
0
100
AcDbLine
 10
-5.620705919900047
 20
8.8249148676
 30
0.0
 11
-5.856352917699951
 21
8.85137206569999
 31
0.0
  0
LINE
  5
43BD
330
4394
100
AcDbEntity
  8
0
100
AcDbLine
 10
-5.856352917699951
 20
8.148627934299952
 30
0.0
 11
-5.620700605000025
 21
8.175085728999989
 31
0.0
  0
LINE
  5
43BE
330
4394
100
AcDbEntity
  8
0
100
AcDbLine
 10
3.559999999999945
 20
6.399999999999977
 30
0.0
 11
3.559999999999945
 21
10.60000000000002
 31
0.0
  0
LINE
  5
43BF
330
4394
100
AcDbEntity
  8
0
100
AcDbLine
 10
1.960000000000036
 20
6.39999999989999
 30
0.0
 11
1.960000000000036
 21
10.60000000000002
 31
0.0
  0
LINE
  5
43C0
330
4394
100
AcDbEntity
  8
0
100
AcDbLine
 10
5.159999999999968
 20
6.39999999989999
 30
0.0
 11
5.159999999999968
 21
10.60000000000002
 31
0.0
  0
LINE
  5
43C1
330
4394
100
AcDbEntity
  8
0
100
AcDbLine
 10
6.660673326000051
 20
6.572038845799966
 30
0.0
 11
6.660673326000051
 21
10.42796115419998
 31
0.0
  0
LINE
  5
43C2
330
4394
100
AcDbEntity
  8
0
100
AcDbLine
 10
7.048675134599989
 20
6.899999999999977
 30
0.0
 11
7.048675134599989
 21
10.10000000000002
 31
0.0
  0
LINE
  5
43C3
330
4394
100
AcDbEntity
  8
0
100
AcDbLine
 10
-5.794418383999982
 20
20.34441838390001
 30
0.0
 11
-5.624962811599971
 21
20.1749628115
 31
0.0
  0
LINE
  5
43C4
330
4394
100
AcDbEntity
  8
0
100
AcDbLine
 10
-5.624966715500022
 20
8.325033284399979
 30
0.0
 11
-5.794418383999982
 21
8.15558161599995
 31
0.0
  0
LINE
  5
43C5
330
4394
100
AcDbEntity
  8
CENTRO
100
AcDbLine
 10
10.5898060339
 20
20.0
 30
0.0
 11
-6.49682684039999
 21
20.0
 31
0.0
  0
LINE
  5
43C6
330
4394
100
AcDbEntity
  8
CENTRO
100
AcDbLine
 10
10.53847737870001
 20
8.5
 30
0.0
 11
-6.371919545699939
 21
8.5
 31
0.0
  0
LWPOLYLINE
  5
43C7
330
4394
100
AcDbEntity
  8
0
100
AcDbPolyline
 90
        3
 70
     0
 43
0.0
 10
7.228718707900043
 20
21.60000000000002
 10
7.048675134599989
 20
21.59999999989998
 10
6.958653347999984
 20
21.75592230809997
  0
LWPOLYLINE
  5
43C8
330
4394
100
AcDbEntity
  8
0
100
AcDbPolyline
 90
        3
 70
     0
 43
0.0
 10
1.671324865400038
 20
18.39999999999998
 10
1.671324865400038
 20
21.60000000000002
 10
1.399999999999977
 20
21.60000000000002
  0
LWPOLYLINE
  5
43C9
330
4394
100
AcDbEntity
  8
0
100
AcDbPolyline
 90
        3
 70
     0
 43
0.0
 10
1.671324865400038
 20
6.899999999999977
 10
1.671324865400038
 20
10.10000000000002
 10
1.399999999999977
 20
10.10000000000002
  0
LWPOLYLINE
  5
43CA
330
4394
100
AcDbEntity
  8
0
100
AcDbPolyline
 90
       11
 70
     0
 43
0.0
 10
1.399999999999977
 20
6.899999999999977
 10
1.671324865400038
 20
6.899999999999977
 10
1.960000000000036
 20
6.39999999989999
 10
2.248675134600035
 20
6.899999999999977
 10
3.271324865399947
 20
6.899999999999977
 10
3.559999999999945
 20
6.399999999999977
 10
3.848675134600057
 20
6.899999999999977
 10
4.87132486539997
 20
6.899999999999977
 10
5.159999999999968
 20
6.39999999989999
 10
5.448675134599966
 20
6.899999999999977
 10
6.471324865399993
 20
6.899999999999977
  0
LWPOLYLINE
  5
43CB
330
4394
100
AcDbEntity
  8
0
100
AcDbPolyline
 90
       10
 70
     0
 43
0.0
 10
1.399999999999977
 20
18.39999999999998
 10
1.671324865400038
 20
18.39999999999998
 10
1.960000000000036
 20
17.89999999989999
 10
2.248675134600035
 20
18.39999999999998
 10
3.271324865399947
 20
18.39999999999998
 10
3.559999999999945
 20
17.89999999999998
 10
3.848675134600057
 20
18.39999999999998
 10
3.848675134600057
 20
21.60000000000002
 10
3.559999999999945
 20
22.09999999989998
 10
3.271324865399947
 20
21.60000000009995
  0
LWPOLYLINE
  5
43CC
330
4394
100
AcDbEntity
  8
0
100
AcDbPolyline
 90
        3
 70
     0
 43
0.0
 10
3.271324865399947
 20
18.39999999999998
 10
3.271324865399947
 20
21.60000000000002
 10
2.248675134600035
 20
21.60000000000002
  0
LWPOLYLINE
  5
43CD
330
4394
100
AcDbEntity
  8
0
100
AcDbPolyline
 90
        4
 70
     0
 43
0.0
 10
2.248675134600035
 20
18.39999999999998
 10
2.248675134600035
 20
21.60000000000002
 10
1.960000000000036
 20
22.10000000009995
 10
1.671324865400038
 20
21.60000000009995
  0
LWPOLYLINE
  5
43CE
330
4394
100
AcDbEntity
  8
0
100
AcDbPolyline
 90
        4
 70
     0
 43
0.0
 10
4.87132486539997
 20
18.39999999999998
 10
4.87132486539997
 20
21.60000000000002
 10
5.159999999999968
 20
22.09999999989998
 10
5.448675134599966
 20
21.59999999989998
  0
LWPOLYLINE
  5
43CF
330
4394
100
AcDbEntity
  8
0
100
AcDbPolyline
 90
        4
 70
     0
 43
0.0
 10
6.471324865399993
 20
18.39999999999998
 10
6.471324865399993
 20
21.60000000000002
 10
5.448675134599966
 20
21.60000000000002
 10
5.448675134599966
 20
18.39999999999998
  0
LWPOLYLINE
  5
43D0
330
4394
100
AcDbEntity
  8
0
100
AcDbPolyline
 90
        4
 70
     0
 43
0.0
 10
6.958653347999984
 20
18.2440776917
 10
6.958653347999984
 20
21.75592230819996
 10
6.660673326000051
 20
21.92796115419998
 10
6.471324865399993
 20
21.60000000009995
  0
LWPOLYLINE
  5
43D1
330
4394
100
AcDbEntity
  8
0
100
AcDbPolyline
 90
       12
 70
     0
 43
0.0
 10
7.228718707900043
 20
18.39999999999998
 10
7.228718707900043
 20
21.60000000000002
 10
10.0
 20
20.0
 10
7.228718707900043
 20
18.39999999999998
 10
7.048675134599989
 20
18.39999999999998
 10
6.958653347999984
 20
18.24407769179999
 10
6.660673326000051
 20
18.07203884579997
 10
6.471324865399993
 20
18.3999999998
 10
5.448675134599966
 20
18.39999999999998
 10
5.159999999999968
 20
17.89999999999998
 10
4.87132486539997
 20
18.39999999999998
 10
3.848675134600057
 20
18.39999999999998
  0
LWPOLYLINE
  5
43D2
330
4394
100
AcDbEntity
  8
0
100
AcDbPolyline
 90
        4
 70
     0
 43
0.0
 10
3.848675134600057
 20
6.899999999999977
 10
3.848675134600057
 20
10.10000000000002
 10
3.559999999999945
 20
10.59999999989998
 10
3.271324865399947
 20
10.10000000009995
  0
LWPOLYLINE
  5
43D3
330
4394
100
AcDbEntity
  8
0
100
AcDbPolyline
 90
        3
 70
     0
 43
0.0
 10
3.271324865399947
 20
6.899999999999977
 10
3.271324865399947
 20
10.10000000000002
 10
2.248675134600035
 20
10.10000000000002
  0
LWPOLYLINE
  5
43D4
330
4394
100
AcDbEntity
  8
0
100
AcDbPolyline
 90
        4
 70
     0
 43
0.0
 10
2.248675134600035
 20
6.899999999999977
 10
2.248675134600035
 20
10.10000000000002
 10
1.960000000000036
 20
10.60000000009995
 10
1.671324865400038
 20
10.10000000009995
  0
LWPOLYLINE
  5
43D5
330
4394
100
AcDbEntity
  8
0
100
AcDbPolyline
 90
        3
 70
     0
 43
0.0
 10
4.87132486539997
 20
6.899999999999977
 10
4.87132486539997
 20
10.10000000000002
 10
3.848675134600057
 20
10.10000000000002
  0
LWPOLYLINE
  5
43D6
330
4394
100
AcDbEntity
  8
0
100
AcDbPolyline
 90
        4
 70
     0
 43
0.0
 10
5.448675134599966
 20
6.899999999999977
 10
5.448675134599966
 20
10.10000000000002
 10
5.159999999999968
 20
10.60000000009995
 10
4.87132486539997
 20
10.10000000009995
  0
LWPOLYLINE
  5
43D7
330
4394
100
AcDbEntity
  8
0
100
AcDbPolyline
 90
       10
 70
     0
 43
0.0
 10
7.228718707900043
 20
10.10000000000002
 10
10.0
 20
8.5
 10
7.228718707900043
 20
6.899999999999977
 10
7.048675134599989
 20
6.899999999999977
 10
6.958653347999984
 20
6.744077691799987
 10
6.660673326000051
 20
6.572038845799966
 10
6.471324865399993
 20
6.899999999999977
 10
6.471324865399993
 20
10.10000000000002
 10
6.660673326000051
 20
10.42796115409999
 10
6.958653347999984
 20
10.25592230819996
  0
LWPOLYLINE
  5
43D8
330
4394
100
AcDbEntity
  8
0
100
AcDbPolyline
 90
        5
 70
     0
 43
0.0
 10
7.228718707900043
 20
6.899999999999977
 10
7.228718707900043
 20
10.10000000000002
 10
7.048675134599989
 20
10.10000000000002
 10
6.958653347999984
 20
10.25592230809997
 10
6.958653347999984
 20
6.744077691699999
  0
LWPOLYLINE
  5
43D9
330
4394
100
AcDbEntity
  8
0
100
AcDbPolyline
 90
       16
 70
     1
 43
0.0
 10
-0.5
 20
24.0
 10
-0.5
 20
4.5
 10
0.0
 20
4.0
 10
0.0
 20
0.0
 10
-2.100000000000023
 20
0.0
 10
-2.100000000000023
 20
3.5
 10
-3.0
 20
4.399999999999977
 10
-3.0
 20
13.0
 10
-15.0
 20
13.0
 10
-15.0
 20
15.5
 10
-3.0
 20
15.5
 10
-3.0
 20
24.10000000000002
 10
-2.100000000000023
 20
25.0
 10
-2.100000000000023
 20
28.5
 10
0.0
 20
28.5
 10
0.0
 20
24.5
  0
ARC
  5
43DA
330
4394
100
AcDbEntity
  8
0
100
AcDbCircle
 10
-3.5
 20
12.0
 30
0.0
 40
0.5
100
AcDbArc
 50
0.0
 51
90.0
  0
LINE
  5
43DB
330
4394
100
AcDbEntity
  8
FINA
100
AcDbLine
 10
-3.5
 20
12.5
 30
0.0
 11
-3.5
 21
4.5
 31
0.0
  0
ARC
  5
43DC
330
4394
100
AcDbEntity
  8
0
100
AcDbCircle
 10
-3.5
 20
5.0
 30
0.0
 40
0.5
100
AcDbArc
 50
270.0
 51
0.0
  0
LINE
  5
43DD
330
4394
100
AcDbEntity
  8
0
100
AcDbLine
 10
-3.5
 20
12.5
 30
0.0
 11
-4.633249580699953
 21
12.5
 31
0.0
  0
LINE
  5
43DE
330
4394
100
AcDbEntity
  8
FINA
100
AcDbLine
 10
-4.633249580699953
 20
12.5
 30
0.0
 11
-4.633249580699953
 21
4.5
 31
0.0
  0
ARC
  5
43DF
330
4394
100
AcDbEntity
  8
0
100
AcDbCircle
 10
-4.633249580699953
 20
12.0
 30
0.0
 40
0.5000000000000786
100
AcDbArc
 50
90.0
 51
152.1818607154091
  0
LINE
  5
43E0
330
4394
100
AcDbEntity
  8
FINA
100
AcDbLine
 10
-5.075466219414352
 20
12.23333333333289
 30
0.0
 11
-5.075466219400028
 21
4.766666666599974
 31
0.0
  0
ARC
  5
43E1
330
4394
100
AcDbEntity
  8
0
100
AcDbCircle
 10
-4.633249580748497
 20
4.999999999954639
 30
0.0
 40
0.499999999954677
100
AcDbArc
 50
207.8181392901593
 51
270.0000000055628
  0
LINE
  5
43E2
330
4394
100
AcDbEntity
  8
0
100
AcDbLine
 10
-4.633249580699953
 20
4.499999999999943
 30
0.0
 11
-3.5
 21
4.5
 31
0.0
  0
ARC
  5
43E3
330
4394
100
AcDbEntity
  8
0
100
AcDbCircle
 10
-3.5
 20
23.5
 30
0.0
 40
0.5
100
AcDbArc
 50
0.0
 51
90.0
  0
LINE
  5
43E4
330
4394
100
AcDbEntity
  8
FINA
100
AcDbLine
 10
-3.5
 20
24.0
 30
0.0
 11
-3.5
 21
16.0
 31
0.0
  0
ARC
  5
43E5
330
4394
100
AcDbEntity
  8
0
100
AcDbCircle
 10
-3.5
 20
16.5
 30
0.0
 40
0.5
100
AcDbArc
 50
270.0
 51
0.0
  0
LINE
  5
43E6
330
4394
100
AcDbEntity
  8
0
100
AcDbLine
 10
-3.5
 20
24.0
 30
0.0
 11
-4.633249580699953
 21
24.0
 31
0.0
  0
LINE
  5
43E7
330
4394
100
AcDbEntity
  8
FINA
100
AcDbLine
 10
-4.633249580699953
 20
24.0
 30
0.0
 11
-4.633249580699953
 21
16.0
 31
0.0
  0
ARC
  5
43E8
330
4394
100
AcDbEntity
  8
0
100
AcDbCircle
 10
-4.633249580699953
 20
23.5
 30
0.0
 40
0.5000000000000786
100
AcDbArc
 50
90.0
 51
152.1818607154091
  0
LINE
  5
43E9
330
4394
100
AcDbEntity
  8
FINA
100
AcDbLine
 10
-5.075466219414352
 20
23.73333333333289
 30
0.0
 11
-5.075466219400028
 21
16.26666666659997
 31
0.0
  0
ARC
  5
43EA
330
4394
100
AcDbEntity
  8
0
100
AcDbCircle
 10
-4.633249580748384
 20
16.49999999995464
 30
0.0
 40
0.4999999999547186
100
AcDbArc
 50
207.8181392901532
 51
270.0000000055497
  0
LINE
  5
43EB
330
4394
100
AcDbEntity
  8
0
100
AcDbLine
 10
-4.633249580699953
 20
15.99999999999994
 30
0.0
 11
-3.5
 21
16.0
 31
0.0
  0
ENDBLK
  5
43ED
330
4394
100
AcDbEntity
  8
0
100
AcDbBlockEnd
  0
BLOCK
  5
50F5
330
50F4
100
AcDbEntity
  8
0
100
AcDbBlockBegin
  2
*D7
 70
     1
 10
0.0
 20
0.0
 30
0.0
  3
*D7
  1

  0
LINE
  5
50F7
330
50F4
100
AcDbEntity
  8
COTAS
100
AcDbLine
 10
29.21216615524202
 20
105.7788958476945
 30
0.0
 11
19.25640334064438
 21
105.7788958476945
 31
0.0
  0
LINE
  5
50F8
330
50F4
100
AcDbEntity
  8
COTAS
100
AcDbLine
 10
28.38790208653006
 20
91.6788958476945
 30
0.0
 11
19.25640334064443
 21
91.67889584769446
 31
0.0
  0
LINE
  5
50F9
330
50F4
100
AcDbEntity
  8
COTAS
100
AcDbLine
 10
20.25640334064438
 20
103.7788958476945
 30
0.0
 11
20.25640334064442
 21
93.67889584769446
 31
0.0
  0
SOLID
  5
50FA
330
50F4
100
AcDbEntity
  8
COTAS
100
AcDbTrace
 10
20.58973667397771
 20
103.7788958476945
 30
0.0
 11
19.92307000731105
 21
103.7788958476945
 31
0.0
 12
20.25640334064438
 22
105.7788958476945
 32
0.0
 13
20.25640334064438
 23
105.7788958476945
 33
0.0
  0
SOLID
  5
50FB
330
50F4
100
AcDbEntity
  8
COTAS
100
AcDbTrace
 10
19.92307000731109
 20
93.67889584769446
 30
0.0
 11
20.58973667397775
 21
93.67889584769446
 31
0.0
 12
20.25640334064443
 22
91.67889584769446
 32
0.0
 13
20.25640334064443
 23
91.67889584769446
 33
0.0
  0
MTEXT
  5
50FC
330
50F4
100
AcDbEntity
  8
COTAS
 62
     7
100
AcDbMText
 10
18.5014033406444
 20
98.7288958476944
 30
0.0
 40
2.5
 41
0.0
 71
     5
 72
     1
  1
14.1
 11
-3.527517127887027E-15
 21
1.0
 31
0.0
  0
POINT
  5
50FD
330
50F4
100
AcDbEntity
  8
DEFPOINTS
 62
     0
100
AcDbPoint
 10
29.71216615524202
 20
105.7788958476945
 30
0.0
  0
POINT
  5
50FE
330
50F4
100
AcDbEntity
  8
DEFPOINTS
 62
     0
100
AcDbPoint
 10
28.88790208653006
 20
91.6788958476945
 30
0.0
  0
POINT
  5
50FF
330
50F4
100
AcDbEntity
  8
DEFPOINTS
 62
     0
100
AcDbPoint
 10
20.25640334064443
 20
91.67889584769448
 30
0.0
  0
ENDBLK
  5
50F6
330
50F4
100
AcDbEntity
  8
0
100
AcDbBlockEnd
  0
BLOCK
  5
5101
330
5100
100
AcDbEntity
  8
0
100
AcDbBlockBegin
  2
*D8
 70
     1
 10
0.0
 20
0.0
 30
0.0
  3
*D8
  1

  0
LINE
  5
5103
330
5100
100
AcDbEntity
  8
COTAS
100
AcDbLine
 10
39.92520878242476
 20
95.4788958476944
 30
0.0
 11
49.28175315174573
 21
95.47889584769443
 31
0.0
  0
LINE
  5
5104
330
5100
100
AcDbEntity
  8
COTAS
100
AcDbLine
 10
41.98790208653008
 20
91.6788958476945
 30
0.0
 11
49.28175315174574
 21
91.67889584769452
 31
0.0
  0
LINE
  5
5105
330
5100
100
AcDbEntity
  8
COTAS
100
AcDbLine
 10
48.28175315174573
 20
95.47889584769443
 30
0.0
 11
48.28175315174569
 21
105.0288958476945
 31
0.0
  0
LINE
  5
5106
330
5100
100
AcDbEntity
  8
COTAS
100
AcDbLine
 10
48.28175315174573
 20
95.47889584769443
 30
0.0
 11
48.28175315174574
 21
91.67889584769452
 31
0.0
  0
LINE
  5
5107
330
5100
100
AcDbEntity
  8
COTAS
100
AcDbLine
 10
48.28175315174572
 20
97.47889584769443
 30
0.0
 11
48.28175315174571
 21
99.47889584769443
 31
0.0
  0
LINE
  5
5108
330
5100
100
AcDbEntity
  8
COTAS
100
AcDbLine
 10
48.28175315174575
 20
89.67889584769452
 30
0.0
 11
48.28175315174575
 21
87.67889584769452
 31
0.0
  0
SOLID
  5
5109
330
5100
100
AcDbEntity
  8
COTAS
100
AcDbTrace
 10
47.94841981841238
 20
97.47889584769443
 30
0.0
 11
48.61508648507905
 21
97.47889584769443
 31
0.0
 12
48.28175315174573
 22
95.47889584769443
 32
0.0
 13
48.28175315174573
 23
95.47889584769443
 33
0.0
  0
SOLID
  5
510A
330
5100
100
AcDbEntity
  8
COTAS
100
AcDbTrace
 10
48.61508648507908
 20
89.67889584769452
 30
0.0
 11
47.94841981841241
 21
89.67889584769452
 31
0.0
 12
48.28175315174574
 22
91.67889584769452
 32
0.0
 13
48.28175315174574
 23
91.67889584769452
 33
0.0
  0
MTEXT
  5
510B
330
5100
100
AcDbEntity
  8
COTAS
 62
     7
100
AcDbMText
 10
46.50550315174569
 20
102.2538958476945
 30
0.0
 40
2.5
 41
0.0
 71
     5
 72
     1
  1
3.8
 11
-3.739698609263786E-15
 21
1.0
 31
0.0
  0
POINT
  5
510C
330
5100
100
AcDbEntity
  8
DEFPOINTS
 62
     0
100
AcDbPoint
 10
39.42520878242476
 20
95.4788958476944
 30
0.0
  0
POINT
  5
510D
330
5100
100
AcDbEntity
  8
DEFPOINTS
 62
     0
100
AcDbPoint
 10
41.48790208653008
 20
91.6788958476945
 30
0.0
  0
POINT
  5
510E
330
5100
100
AcDbEntity
  8
DEFPOINTS
 62
     0
100
AcDbPoint
 10
48.28175315174574
 20
91.67889584769453
 30
0.0
  0
ENDBLK
  5
5102
330
5100
100
AcDbEntity
  8
0
100
AcDbBlockEnd
  0
BLOCK
  5
5110
330
510F
100
AcDbEntity
  8
0
100
AcDbBlockBegin
  2
*D9
 70
     1
 10
0.0
 20
0.0
 30
0.0
  3
*D9
  1

  0
LINE
  5
5112
330
510F
100
AcDbEntity
  8
COTAS
100
AcDbLine
 10
59.66014174917873
 20
91.1788958476945
 30
0.0
 11
59.66014174917873
 21
80.67889584769448
 31
0.0
  0
LINE
  5
5113
330
510F
100
AcDbEntity
  8
COTAS
100
AcDbLine
 10
79.66014174917873
 20
91.1788958476945
 30
0.0
 11
79.66014174917873
 21
80.67889584769448
 31
0.0
  0
LINE
  5
5114
330
510F
100
AcDbEntity
  8
COTAS
100
AcDbLine
 10
61.66014174917873
 20
81.67889584769448
 30
0.0
 11
77.66014174917873
 21
81.67889584769448
 31
0.0
  0
SOLID
  5
5115
330
510F
100
AcDbEntity
  8
COTAS
100
AcDbTrace
 10
61.66014174917873
 20
82.0122291810278
 30
0.0
 11
61.66014174917873
 21
81.34556251436115
 31
0.0
 12
59.66014174917873
 22
81.67889584769448
 32
0.0
 13
59.66014174917873
 23
81.67889584769448
 33
0.0
  0
SOLID
  5
5116
330
510F
100
AcDbEntity
  8
COTAS
100
AcDbTrace
 10
77.66014174917873
 20
81.34556251436115
 30
0.0
 11
77.66014174917873
 21
82.0122291810278
 31
0.0
 12
79.66014174917873
 22
81.67889584769448
 32
0.0
 13
79.66014174917873
 23
81.67889584769448
 33
0.0
  0
MTEXT
  5
5117
330
510F
100
AcDbEntity
  8
COTAS
 62
     7
100
AcDbMText
 10
69.66014174917873
 20
83.45514584769448
 30
0.0
 40
2.5
 41
0.0
 71
     5
 72
     1
  1
20
  0
POINT
  5
5118
330
510F
100
AcDbEntity
  8
DEFPOINTS
 62
     0
100
AcDbPoint
 10
59.66014174917873
 20
91.6788958476945
 30
0.0
  0
POINT
  5
5119
330
510F
100
AcDbEntity
  8
DEFPOINTS
 62
     0
100
AcDbPoint
 10
79.66014174917873
 20
91.6788958476945
 30
0.0
  0
POINT
  5
511A
330
510F
100
AcDbEntity
  8
DEFPOINTS
 62
     0
100
AcDbPoint
 10
79.66014174917873
 20
81.67889584769448
 30
0.0
  0
ENDBLK
  5
5111
330
510F
100
AcDbEntity
  8
0
100
AcDbBlockEnd
  0
BLOCK
  5
511C
330
511B
100
AcDbEntity
  8
0
100
AcDbBlockBegin
  2
*D10
 70
     1
 10
0.0
 20
0.0
 30
0.0
  3
*D10
  1

  0
LINE
  5
511E
330
511B
100
AcDbEntity
  8
COTAS
100
AcDbLine
 10
66.51014174917876
 20
106.2788958476945
 30
0.0
 11
66.51014174917876
 21
114.7788961099549
 31
0.0
  0
LINE
  5
511F
330
511B
100
AcDbEntity
  8
COTAS
100
AcDbLine
 10
72.81014174917883
 20
106.2788958476945
 30
0.0
 11
72.81014174917883
 21
114.7788961099549
 31
0.0
  0
LINE
  5
5120
330
511B
100
AcDbEntity
  8
COTAS
100
AcDbLine
 10
66.51014174917876
 20
113.7788961099549
 30
0.0
 11
53.83181152402596
 21
113.7788961099549
 31
0.0
  0
LINE
  5
5121
330
511B
100
AcDbEntity
  8
COTAS
100
AcDbLine
 10
68.51014174917876
 20
113.7788961099549
 30
0.0
 11
70.81014174917883
 21
113.7788961099549
 31
0.0
  0
SOLID
  5
5122
330
511B
100
AcDbEntity
  8
COTAS
100
AcDbTrace
 10
68.51014174917876
 20
114.1122294432882
 30
0.0
 11
68.51014174917876
 21
113.4455627766216
 31
0.0
 12
66.51014174917876
 22
113.7788961099549
 32
0.0
 13
66.51014174917876
 23
113.7788961099549
 33
0.0
  0
SOLID
  5
5123
330
511B
100
AcDbEntity
  8
COTAS
100
AcDbTrace
 10
70.81014174917883
 20
113.4455627766216
 30
0.0
 11
70.81014174917883
 21
114.1122294432882
 31
0.0
 12
72.81014174917883
 22
113.7788961099549
 32
0.0
 13
72.81014174917883
 23
113.7788961099549
 33
0.0
  0
MTEXT
  5
5124
330
511B
100
AcDbEntity
  8
COTAS
 62
     7
100
AcDbMText
 10
57.96556152402596
 20
115.6238961099549
 30
0.0
 40
2.5
 41
0.0
 71
     5
 72
     1
  1
%%c6.3
  0
POINT
  5
5125
330
511B
100
AcDbEntity
  8
DEFPOINTS
 62
     0
100
AcDbPoint
 10
66.51014174917876
 20
105.7788958476945
 30
0.0
  0
POINT
  5
5126
330
511B
100
AcDbEntity
  8
DEFPOINTS
 62
     0
100
AcDbPoint
 10
72.81014174917883
 20
105.7788958476945
 30
0.0
  0
POINT
  5
5127
330
511B
100
AcDbEntity
  8
DEFPOINTS
 62
     0
100
AcDbPoint
 10
72.81014174917883
 20
113.7788961099549
 30
0.0
  0
ENDBLK
  5
511D
330
511B
100
AcDbEntity
  8
0
100
AcDbBlockEnd
  0
BLOCK
  5
5129
330
5128
100
AcDbEntity
  8
0
100
AcDbBlockBegin
  2
*D11
 70
     1
 10
0.0
 20
0.0
 30
0.0
  3
*D11
  1

  0
LINE
  5
512B
330
5128
100
AcDbEntity
  8
COTAS
100
AcDbLine
 10
31.65236818059737
 20
67.10060089336223
 30
0.0
 11
22.4248807717286
 21
57.87311348449344
 31
0.0
  0
LINE
  5
512C
330
5128
100
AcDbEntity
  8
COTAS
100
AcDbLine
 10
38.72343599246288
 20
74.17166870522773
 30
0.0
 11
40.13764955483597
 21
75.58588226760082
 31
0.0
  0
MTEXT
  5
512D
330
5128
100
AcDbEntity
  8
COTAS
 62
     7
100
AcDbMText
 10
23.08867726256747
 20
61.04890681549752
 30
0.0
 40
2.5
 41
0.0
 71
     5
 72
     1
  1
{M6}
 11
0.7071067811865475
 21
0.7071067811865475
 31
0.0
  0
LINE
  5
512E
330
5128
100
AcDbEntity
  8
COTAS
100
AcDbLine
 10
37.30922243008979
 20
72.75745514285464
 30
0.0
 11
33.06658174297047
 21
68.51481445573532
 31
0.0
  0
SOLID
  5
512F
330
5128
100
AcDbEntity
  8
COTAS
100
AcDbTrace
 10
38.48773373206737
 20
74.40737096562324
 30
0.0
 11
38.95913825285839
 21
73.93596644483222
 31
0.0
 12
37.30922243008979
 22
72.75745514285464
 32
0.0
 13
37.30922243008979
 23
72.75745514285464
 33
0.0
  0
SOLID
  5
5130
330
5128
100
AcDbEntity
  8
COTAS
100
AcDbTrace
 10
31.88807044099289
 20
66.86489863296671
 30
0.0
 11
31.41666592020186
 21
67.33630315375774
 31
0.0
 12
33.06658174297047
 22
68.51481445573532
 32
0.0
 13
33.06658174297047
 23
68.51481445573532
 33
0.0
  0
POINT
  5
5131
330
5128
100
AcDbEntity
  8
DEFPOINTS
 62
     0
100
AcDbPoint
 10
33.06658174297047
 20
68.51481445573532
 30
0.0
  0
POINT
  5
5132
330
5128
100
AcDbEntity
  8
DEFPOINTS
 62
     0
100
AcDbPoint
 10
37.30922243008979
 20
72.75745514285464
 30
0.0
  0
ENDBLK
  5
512A
330
5128
100
AcDbEntity
  8
0
100
AcDbBlockEnd
  0
BLOCK
  5
5134
330
5133
100
AcDbEntity
  8
0
100
AcDbBlockBegin
  2
*D12
 70
     1
 10
0.0
 20
0.0
 30
0.0
  3
*D12
  1

  0
LINE
  5
5136
330
5133
100
AcDbEntity
  8
COTAS
100
AcDbLine
 10
121.307012952809
 20
106.2788965271874
 30
0.0
 11
121.307012952809
 21
114.7788961099549
 31
0.0
  0
LINE
  5
5137
330
5133
100
AcDbEntity
  8
COTAS
100
AcDbLine
 10
123.807012952809
 20
106.2788965271874
 30
0.0
 11
123.807012952809
 21
114.7788961099549
 31
0.0
  0
LINE
  5
5138
330
5133
100
AcDbEntity
  8
COTAS
100
AcDbLine
 10
121.307012952809
 20
113.7788961099549
 30
0.0
 11
110.3310410314247
 21
113.7788961099549
 31
0.0
  0
LINE
  5
5139
330
5133
100
AcDbEntity
  8
COTAS
100
AcDbLine
 10
121.307012952809
 20
113.7788961099549
 30
0.0
 11
123.807012952809
 21
113.7788961099549
 31
0.0
  0
LINE
  5
513A
330
5133
100
AcDbEntity
  8
COTAS
100
AcDbLine
 10
119.307012952809
 20
113.7788961099549
 30
0.0
 11
117.307012952809
 21
113.7788961099549
 31
0.0
  0
LINE
  5
513B
330
5133
100
AcDbEntity
  8
COTAS
100
AcDbLine
 10
125.807012952809
 20
113.7788961099549
 30
0.0
 11
127.807012952809
 21
113.7788961099549
 31
0.0
  0
SOLID
  5
513C
330
5133
100
AcDbEntity
  8
COTAS
100
AcDbTrace
 10
119.307012952809
 20
113.4455627766216
 30
0.0
 11
119.307012952809
 21
114.1122294432882
 31
0.0
 12
121.307012952809
 22
113.7788961099549
 32
0.0
 13
121.307012952809
 23
113.7788961099549
 33
0.0
  0
SOLID
  5
513D
330
5133
100
AcDbEntity
  8
COTAS
100
AcDbTrace
 10
125.807012952809
 20
114.1122294432882
 30
0.0
 11
125.807012952809
 21
113.4455627766216
 31
0.0
 12
123.807012952809
 22
113.7788961099549
 32
0.0
 13
123.807012952809
 23
113.7788961099549
 33
0.0
  0
MTEXT
  5
513E
330
5133
100
AcDbEntity
  8
COTAS
 62
     7
100
AcDbMText
 10
113.1347910314247
 20
115.5551461099549
 30
0.0
 40
2.5
 41
0.0
 71
     5
 72
     1
  1
2.5
  0
POINT
  5
513F
330
5133
100
AcDbEntity
  8
DEFPOINTS
 62
     0
100
AcDbPoint
 10
121.307012952809
 20
105.7788965271874
 30
0.0
  0
POINT
  5
5140
330
5133
100
AcDbEntity
  8
DEFPOINTS
 62
     0
100
AcDbPoint
 10
123.807012952809
 20
105.7788965271874
 30
0.0
  0
POINT
  5
5141
330
5133
100
AcDbEntity
  8
DEFPOINTS
 62
     0
100
AcDbPoint
 10
123.807012952809
 20
113.7788961099549
 30
0.0
  0
ENDBLK
  5
5135
330
5133
100
AcDbEntity
  8
0
100
AcDbBlockEnd
  0
BLOCK
  5
5143
330
5142
100
AcDbEntity
  8
0
100
AcDbBlockBegin
  2
*D13
 70
     1
 10
0.0
 20
0.0
 30
0.0
  3
*D13
  1

  0
LINE
  5
5145
330
5142
100
AcDbEntity
  8
COTAS
100
AcDbLine
 10
160.6184920810244
 20
105.7788965271874
 30
0.0
 11
152.1184861205601
 21
105.7788965271874
 31
0.0
  0
LINE
  5
5146
330
5142
100
AcDbEntity
  8
COTAS
100
AcDbLine
 10
160.6184920810244
 20
90.7788965271874
 30
0.0
 11
152.1184861205601
 21
90.77889652718737
 31
0.0
  0
LINE
  5
5147
330
5142
100
AcDbEntity
  8
COTAS
100
AcDbLine
 10
153.1184861205601
 20
103.7788965271874
 30
0.0
 11
153.1184861205601
 21
92.77889652718737
 31
0.0
  0
SOLID
  5
5148
330
5142
100
AcDbEntity
  8
COTAS
100
AcDbTrace
 10
153.4518194538934
 20
103.7788965271874
 30
0.0
 11
152.7851527872267
 21
103.7788965271874
 31
0.0
 12
153.1184861205601
 22
105.7788965271874
 32
0.0
 13
153.1184861205601
 23
105.7788965271874
 33
0.0
  0
SOLID
  5
5149
330
5142
100
AcDbEntity
  8
COTAS
100
AcDbTrace
 10
152.7851527872268
 20
92.77889652718737
 30
0.0
 11
153.4518194538935
 21
92.77889652718737
 31
0.0
 12
153.1184861205601
 22
90.77889652718737
 32
0.0
 13
153.1184861205601
 23
90.77889652718737
 33
0.0
  0
MTEXT
  5
514A
330
5142
100
AcDbEntity
  8
COTAS
 62
     7
100
AcDbMText
 10
151.3422361205601
 20
98.2788965271874
 30
0.0
 40
2.5
 41
0.0
 71
     5
 72
     1
  1
15
 11
-3.789561257387201E-15
 21
1.0
 31
0.0
  0
POINT
  5
514B
330
5142
100
AcDbEntity
  8
DEFPOINTS
 62
     0
100
AcDbPoint
 10
161.1184920810244
 20
105.7788965271874
 30
0.0
  0
POINT
  5
514C
330
5142
100
AcDbEntity
  8
DEFPOINTS
 62
     0
100
AcDbPoint
 10
161.1184920810244
 20
90.7788965271874
 30
0.0
  0
POINT
  5
514D
330
5142
100
AcDbEntity
  8
DEFPOINTS
 62
     0
100
AcDbPoint
 10
153.1184861205601
 20
90.77889652718737
 30
0.0
  0
ENDBLK
  5
5144
330
5142
100
AcDbEntity
  8
0
100
AcDbBlockEnd
  0
BLOCK
  5
514F
330
514E
100
AcDbEntity
  8
0
100
AcDbBlockBegin
  2
*D14
 70
     1
 10
0.0
 20
0.0
 30
0.0
  3
*D14
  1

  0
LINE
  5
5151
330
514E
100
AcDbEntity
  8
COTAS
100
AcDbLine
 10
181.1185032866978
 20
98.7788963595493
 30
0.0
 11
195.1184920810246
 21
98.77889635954935
 31
0.0
  0
LINE
  5
5152
330
514E
100
AcDbEntity
  8
COTAS
100
AcDbLine
 10
186.6184920810242
 20
90.7788965271874
 30
0.0
 11
195.1184920810246
 21
90.77889652718743
 31
0.0
  0
LINE
  5
5153
330
514E
100
AcDbEntity
  8
COTAS
100
AcDbLine
 10
194.1184920810246
 20
96.77889635954935
 30
0.0
 11
194.1184920810246
 21
92.77889652718743
 31
0.0
  0
SOLID
  5
5154
330
514E
100
AcDbEntity
  8
COTAS
100
AcDbTrace
 10
194.451825414358
 20
96.77889635954935
 30
0.0
 11
193.7851587476913
 21
96.77889635954935
 31
0.0
 12
194.1184920810246
 22
98.77889635954935
 32
0.0
 13
194.1184920810246
 23
98.77889635954935
 33
0.0
  0
SOLID
  5
5155
330
514E
100
AcDbEntity
  8
COTAS
100
AcDbTrace
 10
193.7851587476913
 20
92.77889652718743
 30
0.0
 11
194.451825414358
 21
92.77889652718743
 31
0.0
 12
194.1184920810246
 22
90.77889652718743
 32
0.0
 13
194.1184920810246
 23
90.77889652718743
 33
0.0
  0
MTEXT
  5
5156
330
514E
100
AcDbEntity
  8
COTAS
 62
     7
100
AcDbMText
 10
192.3422420810246
 20
94.7788965034387
 30
0.0
 40
2.5
 41
0.0
 71
     5
 72
     1
  1
8
 11
-3.552713753246764E-15
 21
1.0
 31
0.0
  0
POINT
  5
5157
330
514E
100
AcDbEntity
  8
DEFPOINTS
 62
     0
100
AcDbPoint
 10
180.6185032866978
 20
98.7788963595493
 30
0.0
  0
POINT
  5
5158
330
514E
100
AcDbEntity
  8
DEFPOINTS
 62
     0
100
AcDbPoint
 10
186.1184920810242
 20
90.7788965271874
 30
0.0
  0
POINT
  5
5159
330
514E
100
AcDbEntity
  8
DEFPOINTS
 62
     0
100
AcDbPoint
 10
194.1184920810246
 20
90.77889652718743
 30
0.0
  0
ENDBLK
  5
5150
330
514E
100
AcDbEntity
  8
0
100
AcDbBlockEnd
  0
BLOCK
  5
515B
330
515A
100
AcDbEntity
  8
0
100
AcDbBlockBegin
  2
*D15
 70
     1
 10
0.0
 20
0.0
 30
0.0
  3
*D15
  1

  0
LINE
  5
515D
330
515A
100
AcDbEntity
  8
COTAS
100
AcDbLine
 10
186.1184920810244
 20
106.2788965271874
 30
0.0
 11
186.1184920810244
 21
114.7788961099549
 31
0.0
  0
LINE
  5
515E
330
515A
100
AcDbEntity
  8
COTAS
100
AcDbLine
 10
161.1184920810244
 20
106.2788965271874
 30
0.0
 11
161.1184920810244
 21
114.7788961099549
 31
0.0
  0
LINE
  5
515F
330
515A
100
AcDbEntity
  8
COTAS
100
AcDbLine
 10
184.1184920810244
 20
113.7788961099549
 30
0.0
 11
163.1184920810244
 21
113.7788961099549
 31
0.0
  0
SOLID
  5
5160
330
515A
100
AcDbEntity
  8
COTAS
100
AcDbTrace
 10
184.1184920810244
 20
113.4455627766216
 30
0.0
 11
184.1184920810244
 21
114.1122294432882
 31
0.0
 12
186.1184920810244
 22
113.7788961099549
 32
0.0
 13
186.1184920810244
 23
113.7788961099549
 33
0.0
  0
SOLID
  5
5161
330
515A
100
AcDbEntity
  8
COTAS
100
AcDbTrace
 10
163.1184920810244
 20
114.1122294432882
 30
0.0
 11
163.1184920810244
 21
113.4455627766216
 31
0.0
 12
161.1184920810244
 22
113.7788961099549
 32
0.0
 13
161.1184920810244
 23
113.7788961099549
 33
0.0
  0
MTEXT
  5
5162
330
515A
100
AcDbEntity
  8
COTAS
 62
     7
100
AcDbMText
 10
173.6184920810246
 20
115.5551461099549
 30
0.0
 40
2.5
 41
0.0
 71
     5
 72
     1
  1
25
  0
POINT
  5
5163
330
515A
100
AcDbEntity
  8
DEFPOINTS
 62
     0
100
AcDbPoint
 10
186.1184920810244
 20
105.7788965271874
 30
0.0
  0
POINT
  5
5164
330
515A
100
AcDbEntity
  8
DEFPOINTS
 62
     0
100
AcDbPoint
 10
161.1184920810244
 20
105.7788965271874
 30
0.0
  0
POINT
  5
5165
330
515A
100
AcDbEntity
  8
DEFPOINTS
 62
     0
100
AcDbPoint
 10
161.1184920810244
 20
113.7788961099549
 30
0.0
  0
ENDBLK
  5
515C
330
515A
100
AcDbEntity
  8
0
100
AcDbBlockEnd
  0
BLOCK
  5
5167
330
5166
100
AcDbEntity
  8
0
100
AcDbBlockBegin
  2
*D16
 70
     1
 10
0.0
 20
0.0
 30
0.0
  3
*D16
  1

  0
LINE
  5
5169
330
5166
100
AcDbEntity
  8
COTAS
100
AcDbLine
 10
108.307012952809
 20
43.8009067176947
 30
0.0
 11
108.307012952809
 21
35.30090671769455
 31
0.0
  0
LINE
  5
516A
330
5166
100
AcDbEntity
  8
COTAS
100
AcDbLine
 10
136.807012952809
 20
43.8009067176947
 30
0.0
 11
136.807012952809
 21
35.30090671769455
 31
0.0
  0
LINE
  5
516B
330
5166
100
AcDbEntity
  8
COTAS
100
AcDbLine
 10
110.307012952809
 20
36.30090671769455
 30
0.0
 11
134.807012952809
 21
36.30090671769455
 31
0.0
  0
SOLID
  5
516C
330
5166
100
AcDbEntity
  8
COTAS
100
AcDbTrace
 10
110.307012952809
 20
36.63424005102789
 30
0.0
 11
110.307012952809
 21
35.96757338436122
 31
0.0
 12
108.307012952809
 22
36.30090671769455
 32
0.0
 13
108.307012952809
 23
36.30090671769455
 33
0.0
  0
SOLID
  5
516D
330
5166
100
AcDbEntity
  8
COTAS
100
AcDbTrace
 10
134.807012952809
 20
35.96757338436122
 30
0.0
 11
134.807012952809
 21
36.63424005102789
 31
0.0
 12
136.807012952809
 22
36.30090671769455
 32
0.0
 13
136.807012952809
 23
36.30090671769455
 33
0.0
  0
MTEXT
  5
516E
330
5166
100
AcDbEntity
  8
COTAS
 62
     7
100
AcDbMText
 10
122.557012952809
 20
38.07715671769455
 30
0.0
 40
2.5
 41
0.0
 71
     5
 72
     1
  1
28.5
  0
POINT
  5
516F
330
5166
100
AcDbEntity
  8
DEFPOINTS
 62
     0
100
AcDbPoint
 10
108.307012952809
 20
44.3009067176947
 30
0.0
  0
POINT
  5
5170
330
5166
100
AcDbEntity
  8
DEFPOINTS
 62
     0
100
AcDbPoint
 10
136.807012952809
 20
44.3009067176947
 30
0.0
  0
POINT
  5
5171
330
5166
100
AcDbEntity
  8
DEFPOINTS
 62
     0
100
AcDbPoint
 10
136.807012952809
 20
36.30090671769455
 30
0.0
  0
ENDBLK
  5
5168
330
5166
100
AcDbEntity
  8
0
100
AcDbBlockEnd
  0
BLOCK
  5
5173
330
5172
100
AcDbEntity
  8
0
100
AcDbBlockBegin
  2
*D17
 70
     1
 10
0.0
 20
0.0
 30
0.0
  3
*D17
  1

  0
LINE
  5
5175
330
5172
100
AcDbEntity
  8
COTAS
100
AcDbLine
 10
112.307012952809
 20
61.80090671769483
 30
0.0
 11
99.30701294535851
 21
61.80090671769477
 31
0.0
  0
LINE
  5
5176
330
5172
100
AcDbEntity
  8
COTAS
100
AcDbLine
 10
107.807012952809
 20
69.30090671769472
 30
0.0
 11
99.30701294535848
 21
69.30090671769469
 31
0.0
  0
LINE
  5
5177
330
5172
100
AcDbEntity
  8
COTAS
100
AcDbLine
 10
100.3070129453585
 20
63.80090671769478
 30
0.0
 11
100.3070129453585
 21
67.30090671769469
 31
0.0
  0
SOLID
  5
5178
330
5172
100
AcDbEntity
  8
COTAS
100
AcDbTrace
 10
99.97367961202517
 20
63.80090671769478
 30
0.0
 11
100.6403462786918
 21
63.80090671769478
 31
0.0
 12
100.3070129453585
 22
61.80090671769478
 32
0.0
 13
100.3070129453585
 23
61.80090671769478
 33
0.0
  0
SOLID
  5
5179
330
5172
100
AcDbEntity
  8
COTAS
100
AcDbTrace
 10
100.6403462786918
 20
67.30090671769469
 30
0.0
 11
99.97367961202517
 21
67.30090671769469
 31
0.0
 12
100.3070129453585
 22
69.30090671769469
 32
0.0
 13
100.3070129453585
 23
69.30090671769469
 33
0.0
  0
MTEXT
  5
517A
330
5172
100
AcDbEntity
  8
COTAS
 62
     7
100
AcDbMText
 10
98.5357629453585
 20
65.55090671769474
 30
0.0
 40
2.5
 41
0.0
 71
     5
 72
     1
  1
7.5
 11
-3.789561257387247E-15
 21
1.0
 31
0.0
  0
POINT
  5
517B
330
5172
100
AcDbEntity
  8
DEFPOINTS
 62
     0
100
AcDbPoint
 10
112.807012952809
 20
61.80090671769483
 30
0.0
  0
POINT
  5
517C
330
5172
100
AcDbEntity
  8
DEFPOINTS
 62
     0
100
AcDbPoint
 10
108.307012952809
 20
69.30090671769472
 30
0.0
  0
POINT
  5
517D
330
5172
100
AcDbEntity
  8
DEFPOINTS
 62
     0
100
AcDbPoint
 10
100.3070129453585
 20
69.30090671769469
 30
0.0
  0
ENDBLK
  5
5174
330
5172
100
AcDbEntity
  8
0
100
AcDbBlockEnd
  0
BLOCK
  5
517F
330
517E
100
AcDbEntity
  8
0
100
AcDbBlockBegin
  2
*D18
 70
     1
 10
0.0
 20
0.0
 30
0.0
  3
*D18
  1

  0
LINE
  5
5181
330
517E
100
AcDbEntity
  8
COTAS
100
AcDbLine
 10
116.807012952809
 20
66.30090671769469
 30
0.0
 11
116.807012952809
 21
78.30091267815902
 31
0.0
  0
LINE
  5
5182
330
517E
100
AcDbEntity
  8
COTAS
100
AcDbLine
 10
128.307012952809
 20
66.30090671769469
 30
0.0
 11
128.307012952809
 21
78.30091267815902
 31
0.0
  0
LINE
  5
5183
330
517E
100
AcDbEntity
  8
COTAS
100
AcDbLine
 10
118.807012952809
 20
77.30091267815902
 30
0.0
 11
126.307012952809
 21
77.30091267815902
 31
0.0
  0
SOLID
  5
5184
330
517E
100
AcDbEntity
  8
COTAS
100
AcDbTrace
 10
118.807012952809
 20
77.63424601149235
 30
0.0
 11
118.807012952809
 21
76.9675793448257
 31
0.0
 12
116.807012952809
 22
77.30091267815902
 32
0.0
 13
116.807012952809
 23
77.30091267815902
 33
0.0
  0
SOLID
  5
5185
330
517E
100
AcDbEntity
  8
COTAS
100
AcDbTrace
 10
126.307012952809
 20
76.9675793448257
 30
0.0
 11
126.307012952809
 21
77.63424601149235
 31
0.0
 12
128.307012952809
 22
77.30091267815902
 32
0.0
 13
128.307012952809
 23
77.30091267815902
 33
0.0
  0
MTEXT
  5
5186
330
517E
100
AcDbEntity
  8
COTAS
 62
     7
100
AcDbMText
 10
122.557012952809
 20
79.07716267815903
 30
0.0
 40
2.5
 41
0.0
 71
     5
 72
     1
  1
11.5
  0
POINT
  5
5187
330
517E
100
AcDbEntity
  8
DEFPOINTS
 62
     0
100
AcDbPoint
 10
116.807012952809
 20
65.80090671769469
 30
0.0
  0
POINT
  5
5188
330
517E
100
AcDbEntity
  8
DEFPOINTS
 62
     0
100
AcDbPoint
 10
128.307012952809
 20
65.80090671769469
 30
0.0
  0
POINT
  5
5189
330
517E
100
AcDbEntity
  8
DEFPOINTS
 62
     0
100
AcDbPoint
 10
128.307012952809
 20
77.30091267815902
 30
0.0
  0
ENDBLK
  5
5180
330
517E
100
AcDbEntity
  8
0
100
AcDbBlockEnd
  0
BLOCK
  5
518B
330
518A
100
AcDbEntity
  8
0
100
AcDbBlockBegin
  2
*D19
 70
     1
 10
0.0
 20
0.0
 30
0.0
  3
*D19
  1

  0
LINE
  5
518D
330
518A
100
AcDbEntity
  8
COTAS
100
AcDbLine
 10
131.4889934681485
 20
64.9828872330341
 30
0.0
 11
138.7895457996577
 21
72.28343956454313
 31
0.0
  0
LINE
  5
518E
330
518A
100
AcDbEntity
  8
COTAS
100
AcDbLine
 10
125.1250324374695
 20
58.61892620235524
 30
0.0
 11
123.7108188750964
 21
57.20471263998216
 31
0.0
  0
MTEXT
  5
518F
330
518A
100
AcDbEntity
  8
COTAS
 62
     7
100
AcDbMText
 10
135.5845843139297
 20
71.6877021013935
 30
0.0
 40
2.5
 41
0.0
 71
     5
 72
     1
  1
%%c5
 11
0.707106781186556
 21
0.707106781186539
 31
0.0
  0
LINE
  5
5190
330
518A
100
AcDbEntity
  8
COTAS
100
AcDbLine
 10
126.5392459998426
 20
60.03313976472832
 30
0.0
 11
130.0747799057754
 21
63.56867367066103
 31
0.0
  0
SOLID
  5
5191
330
518A
100
AcDbEntity
  8
COTAS
100
AcDbTrace
 10
125.360734697865
 20
58.38322394195972
 30
0.0
 11
124.889330177074
 21
58.85462846275076
 31
0.0
 12
126.5392459998426
 22
60.03313976472832
 32
0.0
 13
126.5392459998426
 23
60.03313976472832
 33
0.0
  0
SOLID
  5
5192
330
518A
100
AcDbEntity
  8
COTAS
100
AcDbTrace
 10
131.253291207753
 20
65.21858949342962
 30
0.0
 11
131.724695728544
 21
64.74718497263859
 31
0.0
 12
130.0747799057754
 22
63.56867367066103
 32
0.0
 13
130.0747799057754
 23
63.56867367066103
 33
0.0
  0
POINT
  5
5193
330
518A
100
AcDbEntity
  8
DEFPOINTS
 62
     0
100
AcDbPoint
 10
130.0747799057754
 20
63.56867367066103
 30
0.0
  0
POINT
  5
5194
330
518A
100
AcDbEntity
  8
DEFPOINTS
 62
     0
100
AcDbPoint
 10
126.5392459998426
 20
60.03313976472832
 30
0.0
  0
ENDBLK
  5
518C
330
518A
100
AcDbEntity
  8
0
100
AcDbBlockEnd
  0
ENDSEC
  0
SECTION
  2
ENTITIES
  0
VIEWPORT
  5
494F
330
1B
100
AcDbEntity
 67
     1
  8
0
100
AcDbViewport
 10
0.0
 20
0.0
 30
0.0
 40
620.9051742627316
 41
302.9399999999985
 68
     1
 69
     1
1001
ACAD
1000
MVIEW
1002
{
1070
    16
1010
0.0
1020
0.0
1030
0.0
1010
0.0
1020
0.0
1030
1.0
1040
0.0
1040
302.9399999999985
1040
105.0
1040
148.4999999999993
1040
50.0
1040
0.0
1040
0.0
1070
    16
1070
   100
1070
     0
1070
     3
1070
     0
1070
     0
1070
     0
1070
     0
1040
0.0
1040
0.0
1040
0.0
1040
0.5
1040
0.5
1040
0.0
1040
0.0
1070
     0
1002
{
1002
}
1002
}
  0
INSERT
  5
5196
330
1B
100
AcDbEntity
 67
     1
  8
LAYOUT
100
AcDbBlockReference
 66
     1
  2
CATÁLOGO
 10
0.0
 20
0.0
 30
0.0
  0
ATTRIB
  5
5197
330
5196
100
AcDbEntity
 67
     1
  8
TEXTO
100
AcDbText
 10
81.13123079339249
 20
276.4999999999986
 30
0.0
 40
4.0
  1
TRAVA DA FOLHA FIXA
 72
     1
 11
112.1592307933925
 21
278.4999999999986
 31
0.0
100
AcDbAttribute
  2
DESCRIÇÃO
 70
     0
 74
     2
  0
ATTRIB
  5
5198
330
5196
100
AcDbEntity
 67
     1
  8
TEXTO
100
AcDbText
 10
15.26125
 20
25.24999999999818
 30
0.0
 40
2.5
  1
PORTA E JANELA
 72
     1
 11
30.0
 21
26.49999999999818
 31
0.0
100
AcDbAttribute
  2
APLICAÇÃO1
 70
     0
 74
     2
  0
ATTRIB
  5
5199
330
5196
100
AcDbEntity
 67
     1
  8
TEXTO
100
AcDbText
 10
19.53
 20
19.24999999999818
 30
0.0
 40
2.5
  1
DE CORRER
 72
     1
 11
30.0
 21
20.49999999999818
 31
0.0
100
AcDbAttribute
  2
APLICAÇÃO2
 70
     0
 74
     2
  0
ATTRIB
  5
519A
330
5196
100
AcDbEntity
 67
     1
  8
TEXTO
100
AcDbText
 10
22.245
 20
13.24999999999818
 30
0.0
 40
2.5
  1
CHROMA
 72
     1
 11
30.0
 21
14.49999999999818
 31
0.0
100
AcDbAttribute
  2
LINHA
 70
     0
 74
     2
  0
ATTRIB
  5
519B
330
5196
100
AcDbEntity
 67
     1
  8
LAYOUT
100
AcDbText
 10
195.0
 20
4.999999999998179
 30
0.0
 40
2.5
  1
1/1
100
AcDbAttribute
  2
1/1
 70
     0
  0
SEQEND
  5
519C
330
5196
100
AcDbEntity
 67
     1
  8
TEXTO
  0
LINE
  5
519D
330
1B
100
AcDbEntity
 67
     1
  8
LAYOUT
100
AcDbLine
 10
62.5
 20
208.0037280044264
 30
0.0
 11
62.5
 21
183.0037280044264
 31
0.0
  0
LINE
  5
519E
330
1B
100
AcDbEntity
 67
     1
  8
LAYOUT
100
AcDbLine
 10
12.5
 20
208.0037280044264
 30
0.0
 11
72.5
 21
208.0037280044264
 31
0.0
  0
LINE
  5
519F
330
1B
100
AcDbEntity
 67
     1
  8
LAYOUT
100
AcDbLine
 10
12.5
 20
203.0037280044264
 30
0.0
 11
72.5
 21
203.0037280044264
 31
0.0
  0
LINE
  5
51A0
330
1B
100
AcDbEntity
 67
     1
  8
LAYOUT
100
AcDbLine
 10
12.5
 20
198.0037280044264
 30
0.0
 11
72.5
 21
198.0037280044264
 31
0.0
  0
MTEXT
  5
51A1
330
1B
100
AcDbEntity
 67
     1
  8
TEXTO
100
AcDbMText
 10
25.0
 20
205.5037280044264
 30
0.0
 40
1.5
 41
0.0
 71
     5
 72
     1
  1
{COMPONENTES}
1001
ACAD
1000
ACAD_MTEXT_DEFINED_HEIGHT_BEGIN
1070
    46
1040
1.5255
1000
ACAD_MTEXT_DEFINED_HEIGHT_END
  0
MTEXT
  5
51A2
330
1B
100
AcDbEntity
 67
     1
  8
TEXTO
100
AcDbMText
 10
66.77851863165711
 20
205.2969173027882
 30
0.0
 40
1.5
 41
0.0
 71
     5
 72
     1
  1
QTDE
  0
TEXT
  5
51A3
330
1B
100
AcDbEntity
 67
     1
  8
TEXTO
100
AcDbText
 10
33.657
 20
209.5037280044264
 30
0.0
 40
2.0
  1
EMBALAGEM
 72
     1
 11
42.5
 21
210.5037280044264
 31
0.0
100
AcDbText
 73
     2
  0
TEXT
  5
51A4
330
1B
100
AcDbEntity
 67
     1
  8
TEXTO
100
AcDbText
 10
44.9405
 20
199.7537280044264
 30
0.0
 40
1.5
  1
ALUMÍNIO
 72
     1
 11
50.0
 21
200.5037280044264
 31
0.0
100
AcDbText
 73
     2
  0
TEXT
  5
51A5
330
1B
100
AcDbEntity
 67
     1
  8
TEXTO
100
AcDbText
 10
44.9405
 20
194.7537280044264
 30
0.0
 40
1.5
  1
ALUMÍNIO
 72
     1
 11
50.0
 21
195.5037280044264
 31
0.0
100
AcDbText
 73
     2
  0
LINE
  5
51A6
330
1B
100
AcDbEntity
 67
     1
  8
LAYOUT
100
AcDbLine
 10
22.5
 20
175.5037280044264
 30
0.0
 11
22.5
 21
165.5037280044264
 31
0.0
  0
LINE
  5
51A7
330
1B
100
AcDbEntity
 67
     1
  8
LAYOUT
100
AcDbLine
 10
32.5
 20
175.5037280044264
 30
0.0
 11
32.5
 21
165.5037280044264
 31
0.0
  0
LINE
  5
51A8
330
1B
100
AcDbEntity
 67
     1
  8
LAYOUT
100
AcDbLine
 10
12.5
 20
175.5037280044264
 30
0.0
 11
72.5
 21
175.5037280044264
 31
0.0
  0
LINE
  5
51A9
330
1B
100
AcDbEntity
 67
     1
  8
LAYOUT
100
AcDbLine
 10
12.5
 20
170.5037280044264
 30
0.0
 11
72.5
 21
170.5037280044264
 31
0.0
  0
MTEXT
  5
51AA
330
1B
100
AcDbEntity
 67
     1
  8
TEXTO
100
AcDbMText
 10
42.5
 20
178.0037280044264
 30
0.0
 40
2.0
 41
0.0
 71
     5
 72
     1
  1
CODIFICAÇÃO
  0
MTEXT
  5
51AB
330
1B
100
AcDbEntity
 67
     1
  8
TEXTO
100
AcDbMText
 10
17.5
 20
173.0037280044264
 30
0.0
 40
1.5
 41
0.0
 71
     5
 72
     1
  1
COR
  0
MTEXT
  5
51AC
330
1B
100
AcDbEntity
 67
     1
  8
TEXTO
100
AcDbMText
 10
27.5
 20
173.0037280044264
 30
0.0
 40
1.5
 41
0.0
 71
     5
 72
     1
  1
{CÓDIGO}
1001
ACAD
1000
ACAD_MTEXT_DEFINED_HEIGHT_BEGIN
1070
    46
1040
1.6144875
1000
ACAD_MTEXT_DEFINED_HEIGHT_END
  0
MTEXT
  5
51AD
330
1B
100
AcDbEntity
 67
     1
  8
TEXTO
100
AcDbMText
 10
45.0
 20
173.0037280044264
 30
0.0
 40
1.5
 41
0.0
 71
     5
 72
     1
  1
CATÁLOGO
  0
TEXT
  5
51AE
330
1B
100
AcDbEntity
 67
     1
  8
TEXTO
100
AcDbText
 10
66.918
 20
199.7537280044264
 30
0.0
 40
1.5
  1
2
 72
     1
 11
67.5
 21
200.5037280044264
 31
0.0
100
AcDbText
 73
     2
  0
TEXT
  5
51AF
330
1B
100
AcDbEntity
 67
     1
  8
TEXTO
100
AcDbText
 10
66.918
 20
194.7537280044264
 30
0.0
 40
1.5
  1
2
 72
     1
 11
67.5
 21
195.5037280044264
 31
0.0
100
AcDbText
 73
     2
  0
LINE
  5
51B0
330
1B
100
AcDbEntity
 67
     1
  8
LAYOUT
100
AcDbLine
 10
57.5
 20
165.5037280044264
 30
0.0
 11
57.5
 21
175.5037280044264
 31
0.0
  0
MTEXT
  5
51B1
330
1B
100
AcDbEntity
 67
     1
  8
TEXTO
100
AcDbMText
 10
65.0
 20
173.0037280044264
 30
0.0
 40
1.5
 41
0.0
 71
     5
 72
     1
  1
{SISTEMISTA}
1001
ACAD
1000
ACAD_MTEXT_DEFINED_HEIGHT_BEGIN
1070
    46
1040
1.6144875
1000
ACAD_MTEXT_DEFINED_HEIGHT_END
  0
LINE
  5
51B2
330
1B
100
AcDbEntity
 67
     1
  8
LAYOUT
100
AcDbLine
 10
12.5
 20
165.5037280044264
 30
0.0
 11
57.5
 21
165.5037280044264
 31
0.0
  0
LWPOLYLINE
  5
51B3
330
1B
100
AcDbEntity
 67
     1
  8
LAYOUT
100
AcDbPolyline
 90
        2
 70
     0
 43
0.0
 10
37.5
 20
208.0037280044264
 10
37.5
 20
183.0037280044264
  0
LWPOLYLINE
  5
51B4
330
1B
100
AcDbEntity
 67
     1
  8
LAYOUT
100
AcDbPolyline
 90
        4
 70
     1
 43
0.0
 10
12.5
 20
165.5037280044264
 10
72.5
 20
165.5037280044264
 10
72.5
 20
180.5037280044264
 10
12.5
 20
180.5037280044264
  0
LWPOLYLINE
  5
51B5
330
1B
100
AcDbEntity
 67
     1
  8
LAYOUT
100
AcDbPolyline
 90
        4
 70
     1
 43
0.0
 10
72.5
 20
213.0037280044264
 10
72.5
 20
183.0037280044264
 10
12.5
 20
183.0037280044264
 10
12.5
 20
213.0037280044264
  0
TEXT
  5
51B6
330
1B
100
AcDbEntity
 67
     1
  8
TEXTO
100
AcDbText
 10
15.8125
 20
167.2537280044264
 30
0.0
 40
1.5
  1
S/A
 72
     1
 11
17.5
 21
168.0037280044264
 31
0.0
100
AcDbText
 73
     2
  0
TEXT
  5
51B7
330
1B
100
AcDbEntity
 67
     1
  8
TEXTO
100
AcDbText
 10
23.426
 20
167.2537280044264
 30
0.0
 40
1.5
  1
9302363
 72
     1
 11
27.5
 21
168.0037280044264
 31
0.0
100
AcDbText
 73
     2
  0
TEXT
  5
51B8
330
1B
100
AcDbEntity
 67
     1
  8
TEXTO
100
AcDbText
 10
33.65625
 20
167.2537280044264
 30
0.0
 40
1.5
  1
TRAFIXCHROMAS/AE2
 72
     1
 11
45.0
 21
168.0037280044264
 31
0.0
100
AcDbText
 73
     2
  0
TEXT
  5
51B9
330
1B
100
AcDbEntity
 67
     1
  8
TEXTO
100
AcDbText
 10
59.88125
 20
167.2537280044264
 30
0.0
 40
1.5
  1
CHCR-004
 72
     1
 11
65.0
 21
168.0037280044264
 31
0.0
100
AcDbText
 73
     2
  0
TEXT
  5
51BA
330
1B
100
AcDbEntity
 67
     1
  8
TEXTO
100
AcDbText
 10
16.915
 20
199.7537280044264
 30
0.0
 40
1.5
  1
CONTRAFECHO
 72
     1
 11
25.0
 21
200.5037280044264
 31
0.0
100
AcDbText
 73
     2
  0
TEXT
  5
51BB
330
1B
100
AcDbEntity
 67
     1
  8
TEXTO
100
AcDbText
 10
15.10975
 20
194.7537280044264
 30
0.0
 40
1.5
  1
TRAVA FOLHA FIXA
 72
     1
 11
25.0
 21
195.5037280044264
 31
0.0
100
AcDbText
 73
     2
  0
MTEXT
  5
51BC
330
1B
100
AcDbEntity
 67
     1
  8
TEXTO
100
AcDbMText
 10
50.0
 20
205.5037280044264
 30
0.0
 40
1.5
 41
0.0
 71
     5
 72
     1
  1
{M. PRIMA}
1001
ACAD
1000
ACAD_MTEXT_DEFINED_HEIGHT_BEGIN
1070
    46
1040
2.0
1000
ACAD_MTEXT_DEFINED_HEIGHT_END
  0
LINE
  5
51BD
330
1B
100
AcDbEntity
 67
     1
  8
PRODUTO
100
AcDbLine
 10
40.08790214464466
 20
103.7788957821294
 30
0.0
 11
30.2879020284156
 21
103.7788957821294
 31
0.0
  0
ARC
  5
51BE
330
1B
100
AcDbEntity
 67
     1
  8
PRODUTO
100
AcDbCircle
 10
30.28790208653004
 20
103.4788958476945
 30
0.0
 40
0.2999999999999972
100
AcDbArc
 50
90.0
 51
180.0000000000108
  0
LINE
  5
51BF
330
1B
100
AcDbEntity
 67
     1
  8
PRODUTO
100
AcDbLine
 10
29.98790207237403
 20
103.4788962917491
 30
0.0
 11
29.98790207237403
 21
96.1615018079146
 31
0.0
  0
ARC
  5
51C0
330
1B
100
AcDbEntity
 67
     1
  8
PRODUTO
100
AcDbCircle
 10
30.28790208653004
 20
96.1615020052099
 30
0.0
 40
0.3000000000000376
100
AcDbArc
 50
180.0000000000054
 51
240.0000000000097
  0
LINE
  5
51C1
330
1B
100
AcDbEntity
 67
     1
  8
PRODUTO
100
AcDbLine
 10
30.13790228322546
 20
95.9016944745644
 30
0.0
 11
30.80059557140271
 21
95.5190883016302
 31
0.0
  0
ARC
  5
51C2
330
1B
100
AcDbEntity
 67
     1
  8
PRODUTO
100
AcDbCircle
 10
30.95059539063539
 20
95.7788958476945
 30
0.0
 40
0.300000000000006
100
AcDbArc
 50
240.0000000000056
 51
270.0
  0
LINE
  5
51C3
330
1B
100
AcDbEntity
 67
     1
  8
PRODUTO
100
AcDbLine
 10
30.95059531659285
 20
95.4788959117695
 30
0.0
 11
39.42520885646741
 21
95.4788959117695
 31
0.0
  0
ARC
  5
51C4
330
1B
100
AcDbEntity
 67
     1
  8
PRODUTO
100
AcDbCircle
 10
39.42520878242476
 20
95.7788958476945
 30
0.0
 40
0.3000000000000007
100
AcDbArc
 50
270.0
 51
299.9999999999957
  0
LINE
  5
51C5
330
1B
100
AcDbEntity
 67
     1
  8
PRODUTO
100
AcDbLine
 10
39.57520860165755
 20
95.5190883016302
 30
0.0
 11
40.2379018898348
 21
95.9016944745644
 31
0.0
  0
ARC
  5
51C6
330
1B
100
AcDbEntity
 67
     1
  8
PRODUTO
100
AcDbCircle
 10
40.08790208653011
 20
96.1615020052098
 30
0.0
 40
0.3000000000000043
100
AcDbArc
 50
299.9999999999969
 51
0.0000000000108563
  0
LINE
  5
51C7
330
1B
100
AcDbEntity
 67
     1
  8
PRODUTO
100
AcDbLine
 10
40.38790210068623
 20
96.1615018079146
 30
0.0
 11
40.38790210068623
 21
103.4788962917491
 31
0.0
  0
ARC
  5
51C8
330
1B
100
AcDbEntity
 67
     1
  8
PRODUTO
100
AcDbCircle
 10
40.08790208653011
 20
103.4788958476944
 30
0.0
 40
0.3000000000000114
100
AcDbArc
 50
0.0000000000054281
 51
90.0
  0
LINE
  5
51C9
330
1B
100
AcDbEntity
 67
     1
  8
PRODUTO
100
AcDbLine
 10
28.58790212229292
 20
104.6546314375563
 30
0.0
 11
28.58790212229292
 21
95.3532116020187
 31
0.0
  0
ARC
  5
51CA
330
1B
100
AcDbEntity
 67
     1
  8
PRODUTO
100
AcDbCircle
 10
28.88790208653006
 20
104.6546317789825
 30
0.0
 40
0.3000000000000007
100
AcDbArc
 50
134.9999999999943
 51
180.0
  0
LINE
  5
51CB
330
1B
100
AcDbEntity
 67
     1
  8
PRODUTO
100
AcDbLine
 10
29.50003432959716
 20
105.6910276876851
 30
0.0
 11
28.67577007890145
 21
104.8667634369894
 31
0.0
  0
ARC
  5
51CC
330
1B
100
AcDbEntity
 67
     1
  8
PRODUTO
100
AcDbCircle
 10
29.71216615524202
 20
105.4788958476944
 30
0.0
 40
0.2999999999999994
100
AcDbArc
 50
90.0
 51
134.9999999999933
  0
LINE
  5
51CD
330
1B
100
AcDbEntity
 67
     1
  8
PRODUTO
100
AcDbLine
 10
40.66363784403006
 20
105.7788961099549
 30
0.0
 11
29.7121663290302
 21
105.7788961099549
 31
0.0
  0
ARC
  5
51CE
330
1B
100
AcDbEntity
 67
     1
  8
PRODUTO
100
AcDbCircle
 10
40.66363801781813
 20
105.4788958476944
 30
0.0
 40
0.3000000000000044
100
AcDbArc
 50
45.00000000001345
 51
90.0
  0
LINE
  5
51CF
330
1B
100
AcDbEntity
 67
     1
  8
PRODUTO
100
AcDbLine
 10
41.70003409415881
 20
104.8667634369894
 30
0.0
 11
40.8757698434631
 21
105.6910276876851
 31
0.0
  0
ARC
  5
51D0
330
1B
100
AcDbEntity
 67
     1
  8
PRODUTO
100
AcDbCircle
 10
41.48790208653008
 20
104.6546317789825
 30
0.0
 40
0.3000000000000043
100
AcDbArc
 50
0.0
 51
45.00000000000576
  0
LINE
  5
51D1
330
1B
100
AcDbEntity
 67
     1
  8
PRODUTO
100
AcDbLine
 10
41.78790205076734
 20
95.3532116020187
 30
0.0
 11
41.78790205076734
 21
104.6546314375563
 31
0.0
  0
ARC
  5
51D2
330
1B
100
AcDbEntity
 67
     1
  8
PRODUTO
100
AcDbCircle
 10
41.48790208653008
 20
95.3532116283444
 30
0.0
 40
0.3000000000000043
100
AcDbArc
 50
299.9999999999969
 51
0.0
  0
LINE
  5
51D3
330
1B
100
AcDbEntity
 67
     1
  8
PRODUTO
100
AcDbLine
 10
40.08790214464466
 20
94.198511075051
 30
0.0
 11
41.6379023055772
 21
95.0934040358378
 31
0.0
  0
ARC
  5
51D4
330
1B
100
AcDbEntity
 67
     1
  8
PRODUTO
100
AcDbCircle
 10
40.38790208653006
 20
93.6788958476945
 30
0.0
 40
0.6000000000000085
100
AcDbArc
 50
119.9999999999943
 51
270.0
  0
LINE
  5
51D5
330
1B
100
AcDbEntity
 67
     1
  8
PRODUTO
100
AcDbLine
 10
41.48790209472577
 20
93.0788957977756
 30
0.0
 11
40.38790210068623
 21
93.0788957977756
 31
0.0
  0
ARC
  5
51D6
330
1B
100
AcDbEntity
 67
     1
  8
PRODUTO
100
AcDbCircle
 10
41.48790208653008
 20
92.7788958476945
 30
0.0
 40
0.3000000000000043
100
AcDbArc
 50
0.0
 51
90.0
  0
LINE
  5
51D7
330
1B
100
AcDbEntity
 67
     1
  8
PRODUTO
100
AcDbLine
 10
41.78790205076734
 20
91.9788958619437
 30
0.0
 11
41.78790205076734
 21
92.778895841734
 31
0.0
  0
ARC
  5
51D8
330
1B
100
AcDbEntity
 67
     1
  8
PRODUTO
100
AcDbCircle
 10
41.48790208653008
 20
91.9788958476944
 30
0.0
 40
0.3000000000000043
100
AcDbArc
 50
270.0
 51
0.0
  0
LINE
  5
51D9
330
1B
100
AcDbEntity
 67
     1
  8
PRODUTO
100
AcDbLine
 10
28.88790207833449
 20
91.6788958476945
 30
0.0
 11
41.48790209472577
 21
91.6788958476945
 31
0.0
  0
ARC
  5
51DA
330
1B
100
AcDbEntity
 67
     1
  8
PRODUTO
100
AcDbCircle
 10
28.88790208653006
 20
91.9788958476945
 30
0.0
 40
0.3000000000000007
100
AcDbArc
 50
180.0
 51
270.0
  0
LINE
  5
51DB
330
1B
100
AcDbEntity
 67
     1
  8
PRODUTO
100
AcDbLine
 10
28.58790212229292
 20
92.778895841734
 30
0.0
 11
28.58790212229292
 21
91.9788958619437
 31
0.0
  0
ARC
  5
51DC
330
1B
100
AcDbEntity
 67
     1
  8
PRODUTO
100
AcDbCircle
 10
28.88790208653006
 20
92.7788958476945
 30
0.0
 40
0.3000000000000007
100
AcDbArc
 50
90.0
 51
180.0
  0
LINE
  5
51DD
330
1B
100
AcDbEntity
 67
     1
  8
PRODUTO
100
AcDbLine
 10
29.98790207237403
 20
93.0788957977756
 30
0.0
 11
28.88790207833449
 21
93.0788957977756
 31
0.0
  0
ARC
  5
51DE
330
1B
100
AcDbEntity
 67
     1
  8
PRODUTO
100
AcDbCircle
 10
29.98790208653008
 20
93.6788958476945
 30
0.0
 40
0.6000000000000085
100
AcDbArc
 50
270.0
 51
60.00000000000567
  0
LINE
  5
51DF
330
1B
100
AcDbEntity
 67
     1
  8
PRODUTO
100
AcDbLine
 10
28.73790186748306
 20
95.0934040358378
 30
0.0
 11
30.2879020284156
 21
94.198511075051
 31
0.0
  0
ARC
  5
51E0
330
1B
100
AcDbEntity
 67
     1
  8
PRODUTO
100
AcDbCircle
 10
28.88790208653006
 20
95.3532116283444
 30
0.0
 40
0.2999999999999972
100
AcDbArc
 50
180.0
 51
240.0000000000043
  0
DIMENSION
  5
51E1
330
1B
100
AcDbEntity
 67
     1
  8
COTAS
100
AcDbDimension
  2
*D7
 10
20.25640334064443
 20
91.67889584769446
 30
0.0
 11
20.2564033406444
 21
98.7288958476944
 31
0.0
 70
   128
  1
<>
 52
-270.0
  3
1-1
100
AcDbAlignedDimension
 13
29.71216615524202
 23
105.7788958476945
 33
0.0
 14
28.88790208653006
 24
91.6788958476945
 34
0.0
 50
90.0000000000002
100
AcDbRotatedDimension
  0
DIMENSION
  5
51E2
330
1B
100
AcDbEntity
 67
     1
  8
COTAS
100
AcDbDimension
  2
*D8
 10
48.28175315174574
 20
91.67889584769452
 30
0.0
 11
48.2817531517457
 21
102.2538958476945
 31
0.0
 70
   128
  1
<>
 52
-270.0
  3
1-1
100
AcDbAlignedDimension
 13
39.42520878242476
 23
95.4788958476944
 33
0.0
 14
41.48790208653008
 24
91.6788958476945
 34
0.0
 50
90.0000000000002
100
AcDbRotatedDimension
  0
LINE
  5
51E3
330
1B
100
AcDbEntity
 67
     1
  8
0
100
AcDbLine
 10
66.51014174508092
 20
105.7788961099549
 30
0.0
 11
66.51014174508092
 21
103.7788957821294
 31
0.0
  0
LINE
  5
51E4
330
1B
100
AcDbEntity
 67
     1
  8
0
100
AcDbLine
 10
59.66014197269615
 20
103.7788957821294
 30
0.0
 11
66.51014174508092
 21
103.7788957821294
 31
0.0
  0
LINE
  5
51E5
330
1B
100
AcDbEntity
 67
     1
  8
0
100
AcDbLine
 10
59.66014197269615
 20
105.7788961099549
 30
0.0
 11
59.66014197269615
 21
103.7788957821294
 31
0.0
  0
LINE
  5
51E6
330
1B
100
AcDbEntity
 67
     1
  8
0
100
AcDbLine
 10
67.16014180505809
 20
95.4788959117695
 30
0.0
 11
67.16014180505809
 21
91.6788958476945
 31
0.0
  0
LINE
  5
51E7
330
1B
100
AcDbEntity
 67
     1
  8
0
100
AcDbLine
 10
67.16014180505809
 20
95.4788959117695
 30
0.0
 11
59.66014197269615
 21
95.4788959117695
 31
0.0
  0
LINE
  5
51E8
330
1B
100
AcDbEntity
 67
     1
  8
0
100
AcDbLine
 10
59.66014197269615
 20
95.4788959117695
 30
0.0
 11
59.66014197269615
 21
91.6788958476945
 31
0.0
  0
LINE
  5
51E9
330
1B
100
AcDbEntity
 67
     1
  8
0
100
AcDbLine
 10
72.81014175327655
 20
103.7788957821294
 30
0.0
 11
72.81014175327655
 21
105.7788961099549
 31
0.0
  0
LINE
  5
51EA
330
1B
100
AcDbEntity
 67
     1
  8
0
100
AcDbLine
 10
72.81014175327655
 20
103.7788957821294
 30
0.0
 11
66.51014174508092
 21
103.7788957821294
 31
0.0
  0
LINE
  5
51EB
330
1B
100
AcDbEntity
 67
     1
  8
0
100
AcDbLine
 10
79.66014152566132
 20
105.7788961099549
 30
0.0
 11
59.66014197269615
 21
105.7788961099549
 31
0.0
  0
LINE
  5
51EC
330
1B
100
AcDbEntity
 67
     1
  8
0
100
AcDbLine
 10
72.16014169329938
 20
91.6788958476945
 30
0.0
 11
72.16014169329938
 21
95.4788959117695
 31
0.0
  0
LINE
  5
51ED
330
1B
100
AcDbEntity
 67
     1
  8
0
100
AcDbLine
 10
72.16014169329938
 20
95.4788959117695
 30
0.0
 11
67.16014180505809
 21
95.4788959117695
 31
0.0
  0
LINE
  5
51EE
330
1B
100
AcDbEntity
 67
     1
  8
0
100
AcDbLine
 10
79.66014152566132
 20
95.4788959117695
 30
0.0
 11
79.66014152566132
 21
91.6788958476945
 31
0.0
  0
LINE
  5
51EF
330
1B
100
AcDbEntity
 67
     1
  8
0
100
AcDbLine
 10
79.66014152566132
 20
95.4788959117695
 30
0.0
 11
72.16014169329938
 21
95.4788959117695
 31
0.0
  0
LINE
  5
51F0
330
1B
100
AcDbEntity
 67
     1
  8
0
100
AcDbLine
 10
79.66014152566132
 20
91.6788958476945
 30
0.0
 11
59.66014197269615
 21
91.6788958476945
 31
0.0
  0
LINE
  5
51F1
330
1B
100
AcDbEntity
 67
     1
  8
0
100
AcDbLine
 10
79.66014152566132
 20
105.7788961099549
 30
0.0
 11
79.66014152566132
 21
103.7788957821294
 31
0.0
  0
LINE
  5
51F2
330
1B
100
AcDbEntity
 67
     1
  8
0
100
AcDbLine
 10
72.81014175327655
 20
103.7788957821294
 30
0.0
 11
79.66014152566132
 21
103.7788957821294
 31
0.0
  0
LINE
  5
51F3
330
1B
100
AcDbEntity
 67
     1
  8
0
100
AcDbLine
 10
79.66014152566132
 20
95.4788959117695
 30
0.0
 11
79.66014152566132
 21
95.5190883016302
 31
0.0
  0
LINE
  5
51F4
330
1B
100
AcDbEntity
 67
     1
  8
0
100
AcDbLine
 10
59.66014197269615
 20
95.4788959117695
 30
0.0
 11
59.66014197269615
 21
95.5190883016302
 31
0.0
  0
LINE
  5
51F5
330
1B
100
AcDbEntity
 67
     1
  8
0
100
AcDbLine
 10
79.66014152566132
 20
95.5190883016302
 30
0.0
 11
79.66014152566132
 21
95.9016944745644
 31
0.0
  0
LINE
  5
51F6
330
1B
100
AcDbEntity
 67
     1
  8
0
100
AcDbLine
 10
59.66014197269615
 20
95.5190883016302
 30
0.0
 11
59.66014197269615
 21
95.9016944745644
 31
0.0
  0
LINE
  5
51F7
330
1B
100
AcDbEntity
 67
     1
  8
0
100
AcDbLine
 10
79.66014152566132
 20
103.4788962917491
 30
0.0
 11
79.66014152566132
 21
103.7788957821294
 31
0.0
  0
LINE
  5
51F8
330
1B
100
AcDbEntity
 67
     1
  8
0
100
AcDbLine
 10
59.66014197269615
 20
103.4788962917491
 30
0.0
 11
59.66014197269615
 21
103.7788957821294
 31
0.0
  0
LINE
  5
51F9
330
1B
100
AcDbEntity
 67
     1
  8
0
100
AcDbLine
 10
79.66014152566132
 20
95.9016944745644
 30
0.0
 11
79.66014152566132
 21
96.1615018079146
 31
0.0
  0
LINE
  5
51FA
330
1B
100
AcDbEntity
 67
     1
  8
0
100
AcDbLine
 10
59.66014197269615
 20
95.9016944745644
 30
0.0
 11
59.66014197269615
 21
96.1615018079146
 31
0.0
  0
LINE
  5
51FB
330
1B
100
AcDbEntity
 67
     1
  8
0
100
AcDbLine
 10
79.66014152566132
 20
96.1615018079146
 30
0.0
 11
79.66014152566132
 21
103.4788962917491
 31
0.0
  0
LINE
  5
51FC
330
1B
100
AcDbEntity
 67
     1
  8
0
100
AcDbLine
 10
59.66014197269615
 20
96.1615018079146
 30
0.0
 11
59.66014197269615
 21
103.4788962917491
 31
0.0
  0
LINE
  5
51FD
330
1B
100
AcDbEntity
 67
     1
  8
FINA
100
AcDbLine
 10
79.66014152566132
 20
95.5190883016302
 30
0.0
 11
59.66014197269615
 21
95.5190883016302
 31
0.0
  0
LINE
  5
51FE
330
1B
100
AcDbEntity
 67
     1
  8
FINA
100
AcDbLine
 10
79.66014152566132
 20
95.9016944745644
 30
0.0
 11
59.66014197269615
 21
95.9016944745644
 31
0.0
  0
LINE
  5
51FF
330
1B
100
AcDbEntity
 67
     1
  8
FINA
100
AcDbLine
 10
79.66014152566132
 20
103.4788962917491
 30
0.0
 11
59.66014197269615
 21
103.4788962917491
 31
0.0
  0
LINE
  5
5200
330
1B
100
AcDbEntity
 67
     1
  8
FINA
100
AcDbLine
 10
79.66014152566132
 20
96.1615018079146
 30
0.0
 11
59.66014197269615
 21
96.1615018079146
 31
0.0
  0
HATCH
  5
5201
330
1B
100
AcDbEntity
 67
     1
  8
FINA
100
AcDbHatch
 10
0.0
 20
0.0
 30
0.0
210
0.0
220
0.0
230
1.0
  2
ANSI38
 70
     0
 71
     0
 91
        1
 92
        0
 93
        4
 72
     1
 10
79.66014174917919
 20
103.7788958476945
 11
79.66014174917873
 21
105.7788958476945
 72
     1
 10
79.66014174917873
 20
105.7788958476945
 11
72.81014174917871
 21
105.7788958476945
 72
     1
 10
72.81014174917883
 20
105.7788958476945
 11
72.81014174917883
 21
103.7788958476945
 72
     1
 10
72.81014174917883
 20
103.7788958476945
 11
79.66014174917919
 21
103.7788958476944
 97
        0
 75
     0
 76
     1
 52
0.0
 41
1.0
 77
     0
 78
     2
 53
45.0
 43
-6.652036496806858
 44
-8.998593895925513
 45
-2.245064030267288
 46
2.245064030267288
 79
     0
 53
135.0
 43
-6.652036496806858
 44
-8.998593895925513
 45
-6.735192090801864
 46
2.245064030267289
 79
     2
 49
7.9375
 49
-4.7625
 98
        1
 10
-6.652036496806858
 20
-8.998593895925513
  0
HATCH
  5
5202
330
1B
100
AcDbEntity
 67
     1
  8
FINA
100
AcDbHatch
 10
0.0
 20
0.0
 30
0.0
210
0.0
220
0.0
230
1.0
  2
ANSI38
 70
     0
 71
     0
 91
        1
 92
        0
 93
        4
 72
     1
 10
66.51014174917876
 20
105.7788958476945
 11
59.66014174917873
 21
105.7788958476944
 72
     1
 10
59.66014174917873
 20
105.7788958476945
 11
59.66014174917909
 21
103.7788958476945
 72
     1
 10
59.66014174917919
 20
103.7788958476945
 11
66.51014174917921
 21
103.7788958476945
 72
     1
 10
66.5101417491791
 20
103.7788958476945
 11
66.51014174917876
 21
105.7788958476945
 97
        0
 75
     0
 76
     1
 52
0.0
 41
1.0
 77
     0
 78
     2
 53
45.0
 43
-6.652036496806858
 44
-8.998593895925513
 45
-2.245064030267288
 46
2.245064030267288
 79
     0
 53
135.0
 43
-6.652036496806858
 44
-8.998593895925513
 45
-6.735192090801864
 46
2.245064030267289
 79
     2
 49
7.9375
 49
-4.7625
 98
        1
 10
-6.652036496806858
 20
-8.998593895925513
  0
HATCH
  5
5203
330
1B
100
AcDbEntity
 67
     1
  8
FINA
100
AcDbHatch
 10
0.0
 20
0.0
 30
0.0
210
0.0
220
0.0
230
1.0
  2
ANSI38
 70
     0
 71
     0
 91
        1
 92
        0
 93
        4
 72
     1
 10
79.66014174917873
 20
91.6788958476945
 11
79.66014174917873
 21
95.4788958476945
 72
     1
 10
79.66014174917873
 20
95.4788958476944
 11
72.16014174917873
 21
95.4788958476944
 72
     1
 10
72.16014174917873
 20
95.4788958476944
 11
72.16014174917873
 21
91.6788958476944
 72
     1
 10
72.16014174917873
 20
91.6788958476945
 11
79.66014174917873
 21
91.6788958476945
 97
        0
 75
     0
 76
     1
 52
0.0
 41
1.0
 77
     0
 78
     2
 53
45.0
 43
-6.652036496806858
 44
-8.998593895925513
 45
-2.245064030267288
 46
2.245064030267288
 79
     0
 53
135.0
 43
-6.652036496806858
 44
-8.998593895925513
 45
-6.735192090801864
 46
2.245064030267289
 79
     2
 49
7.9375
 49
-4.7625
 98
        1
 10
-6.652036496806858
 20
-8.998593895925513
  0
HATCH
  5
5204
330
1B
100
AcDbEntity
 67
     1
  8
FINA
100
AcDbHatch
 10
0.0
 20
0.0
 30
0.0
210
0.0
220
0.0
230
1.0
  2
ANSI38
 70
     0
 71
     0
 91
        1
 92
        0
 93
        4
 72
     1
 10
67.16014174917873
 20
95.4788958476944
 11
59.66014174917873
 21
95.4788958476944
 72
     1
 10
59.66014174917873
 20
95.4788958476944
 11
59.66014174917873
 21
91.6788958476944
 72
     1
 10
59.66014174917873
 20
91.6788958476945
 11
67.16014174917873
 21
91.6788958476945
 72
     1
 10
67.16014174917873
 20
91.6788958476945
 11
67.16014174917873
 21
95.4788958476945
 97
        0
 75
     0
 76
     1
 52
0.0
 41
1.0
 77
     0
 78
     2
 53
45.0
 43
-6.652036496806858
 44
-8.998593895925513
 45
-2.245064030267288
 46
2.245064030267288
 79
     0
 53
135.0
 43
-6.652036496806858
 44
-8.998593895925513
 45
-6.735192090801864
 46
2.245064030267289
 79
     2
 49
7.9375
 49
-4.7625
 98
        1
 10
-6.652036496806858
 20
-8.998593895925513
  0
DIMENSION
  5
5205
330
1B
100
AcDbEntity
 67
     1
  8
COTAS
100
AcDbDimension
  2
*D9
 10
79.66014174917873
 20
81.67889584769448
 30
0.0
 11
69.66014174917873
 21
81.67889584769448
 31
0.0
 70
   128
  1
<>
  3
1-1
100
AcDbAlignedDimension
 13
59.66014174917873
 23
91.6788958476945
 33
0.0
 14
79.66014174917873
 24
91.6788958476945
 34
0.0
100
AcDbRotatedDimension
  0
DIMENSION
  5
5206
330
1B
100
AcDbEntity
 67
     1
  8
COTAS
100
AcDbDimension
  2
*D10
 10
72.81014174917883
 20
113.7788961099549
 30
0.0
 11
57.96556152402596
 21
113.7788961099549
 31
0.0
 70
   128
  1
%%c<>
  3
1-1
100
AcDbAlignedDimension
 13
66.51014174917876
 23
105.7788958476945
 33
0.0
 14
72.81014174917883
 24
105.7788958476945
 34
0.0
100
AcDbRotatedDimension
  0
LINE
  5
5207
330
1B
100
AcDbEntity
 67
     1
  8
0
100
AcDbLine
 10
72.66014174917873
 20
95.4788958476944
 30
0.0
 11
72.66014174917873
 21
91.6788958476945
 31
0.0
  0
LINE
  5
5208
330
1B
100
AcDbEntity
 67
     1
  8
0
100
AcDbLine
 10
66.66014174917873
 20
95.4788958476944
 30
0.0
 11
66.66014174917873
 21
91.6788958476945
 31
0.0
  0
LINE
  5
5209
330
1B
100
AcDbEntity
 67
     1
  8
CENTRO
 48
2.0
100
AcDbLine
 10
69.66014174917873
 20
91.1788958476945
 30
0.0
 11
69.66014174917873
 21
106.2788961099549
 31
0.0
  0
LINE
  5
520A
330
1B
100
AcDbEntity
 67
     1
  8
PRODUTO
100
AcDbLine
 10
40.8757698434631
 20
60.6361350228124
 30
0.0
 11
40.66363784403006
 21
60.6361350228124
 31
0.0
  0
LINE
  5
520B
330
1B
100
AcDbEntity
 67
     1
  8
PRODUTO
100
AcDbLine
 10
40.8757698434631
 20
80.63613457577756
 30
0.0
 11
40.66363784403006
 21
80.63613457577756
 31
0.0
  0
LINE
  5
520C
330
1B
100
AcDbEntity
 67
     1
  8
PRODUTO
100
AcDbLine
 10
29.7121663290302
 20
60.6361350228124
 30
0.0
 11
29.50003432959716
 21
60.6361350228124
 31
0.0
  0
LINE
  5
520D
330
1B
100
AcDbEntity
 67
     1
  8
PRODUTO
100
AcDbLine
 10
29.7121663290302
 20
80.63613457577756
 30
0.0
 11
29.50003432959716
 21
80.63613457577756
 31
0.0
  0
LINE
  5
520E
330
1B
100
AcDbEntity
 67
     1
  8
PRODUTO
100
AcDbLine
 10
40.66363784403006
 20
60.6361350228124
 30
0.0
 11
29.7121663290302
 21
60.6361350228124
 31
0.0
  0
CIRCLE
  5
520F
330
1B
100
AcDbEntity
 67
     1
  8
PRODUTO
100
AcDbCircle
 10
35.18790208653013
 20
70.63613479929498
 30
0.0
 40
3.150000000000006
  0
LINE
  5
5210
330
1B
100
AcDbEntity
 67
     1
  8
PRODUTO
100
AcDbLine
 10
40.66363784403006
 20
80.63613457577756
 30
0.0
 11
29.7121663290302
 21
80.63613457577756
 31
0.0
  0
LINE
  5
5211
330
1B
100
AcDbEntity
 67
     1
  8
PRODUTO
100
AcDbLine
 10
41.70003409415881
 20
60.6361350228124
 30
0.0
 11
40.8757698434631
 21
60.6361350228124
 31
0.0
  0
LINE
  5
5212
330
1B
100
AcDbEntity
 67
     1
  8
PRODUTO
100
AcDbLine
 10
41.70003409415881
 20
80.63613457577756
 30
0.0
 11
40.8757698434631
 21
80.63613457577756
 31
0.0
  0
LINE
  5
5213
330
1B
100
AcDbEntity
 67
     1
  8
PRODUTO
100
AcDbLine
 10
29.50003432959716
 20
60.6361350228124
 30
0.0
 11
28.67577007890145
 21
60.6361350228124
 31
0.0
  0
LINE
  5
5214
330
1B
100
AcDbEntity
 67
     1
  8
PRODUTO
100
AcDbLine
 10
29.50003432959716
 20
80.63613457577756
 30
0.0
 11
28.67577007890145
 21
80.63613457577756
 31
0.0
  0
LINE
  5
5215
330
1B
100
AcDbEntity
 67
     1
  8
PRODUTO
100
AcDbLine
 10
28.58790212229292
 20
60.6361350228124
 30
0.0
 11
28.58790212229292
 21
80.63613457577756
 31
0.0
  0
LINE
  5
5216
330
1B
100
AcDbEntity
 67
     1
  8
PRODUTO
100
AcDbLine
 10
28.67577007890145
 20
60.6361350228124
 30
0.0
 11
28.58790212229292
 21
60.6361350228124
 31
0.0
  0
LINE
  5
5217
330
1B
100
AcDbEntity
 67
     1
  8
PRODUTO
100
AcDbLine
 10
28.67577007890145
 20
80.63613457577756
 30
0.0
 11
28.58790212229292
 21
80.63613457577756
 31
0.0
  0
LINE
  5
5218
330
1B
100
AcDbEntity
 67
     1
  8
PRODUTO
100
AcDbLine
 10
41.78790205076734
 20
60.6361350228124
 30
0.0
 11
41.78790205076734
 21
80.63613457577756
 31
0.0
  0
LINE
  5
5219
330
1B
100
AcDbEntity
 67
     1
  8
PRODUTO
100
AcDbLine
 10
41.78790205076734
 20
60.6361350228124
 30
0.0
 11
41.70003409415881
 21
60.6361350228124
 31
0.0
  0
LINE
  5
521A
330
1B
100
AcDbEntity
 67
     1
  8
PRODUTO
100
AcDbLine
 10
41.78790205076734
 20
80.63613457577756
 30
0.0
 11
41.70003409415881
 21
80.63613457577756
 31
0.0
  0
CIRCLE
  5
521B
330
1B
100
AcDbEntity
 67
     1
  8
PRODUTO
100
AcDbCircle
 10
35.18790208653013
 20
70.63613479929498
 30
0.0
 40
2.499999999999986
  0
LINE
  5
521C
330
1B
100
AcDbEntity
 67
     1
  8
FINA
100
AcDbLine
 10
40.8757698434631
 20
60.6361350228124
 30
0.0
 11
40.8757698434631
 21
80.63613457577756
 31
0.0
  0
LINE
  5
521D
330
1B
100
AcDbEntity
 67
     1
  8
FINA
100
AcDbLine
 10
40.66363784403006
 20
60.6361350228124
 30
0.0
 11
40.66363784403006
 21
80.63613457577756
 31
0.0
  0
LINE
  5
521E
330
1B
100
AcDbEntity
 67
     1
  8
FINA
100
AcDbLine
 10
29.7121663290302
 20
60.6361350228124
 30
0.0
 11
29.7121663290302
 21
80.63613457577756
 31
0.0
  0
LINE
  5
521F
330
1B
100
AcDbEntity
 67
     1
  8
FINA
100
AcDbLine
 10
29.50003432959716
 20
60.6361350228124
 30
0.0
 11
29.50003432959716
 21
80.63613457577756
 31
0.0
  0
LINE
  5
5220
330
1B
100
AcDbEntity
 67
     1
  8
FINA
100
AcDbLine
 10
41.70003409415881
 20
60.6361350228124
 30
0.0
 11
41.70003409415881
 21
80.63613457577756
 31
0.0
  0
LINE
  5
5221
330
1B
100
AcDbEntity
 67
     1
  8
FINA
100
AcDbLine
 10
28.67577007890145
 20
60.6361350228124
 30
0.0
 11
28.67577007890145
 21
80.63613457577756
 31
0.0
  0
ARC
  5
5222
330
1B
100
AcDbEntity
 67
     1
  8
FINA
100
AcDbCircle
 10
35.18790208653013
 20
70.63613479929496
 30
0.0
 40
2.999999999999994
100
AcDbArc
 50
254.9999999999987
 51
195.0000000000004
  0
LINE
  5
5223
330
1B
100
AcDbEntity
 67
     1
  8
CENTRO
100
AcDbLine
 10
35.18790208653013
 20
75.28613479929498
 30
0.0
 11
35.18790208653013
 21
65.98613479929497
 31
0.0
  0
LINE
  5
5224
330
1B
100
AcDbEntity
 67
     1
  8
CENTRO
100
AcDbLine
 10
30.53790208653015
 20
70.63613479929496
 30
0.0
 11
39.83790208653011
 21
70.63613479929496
 31
0.0
  0
DIMENSION
  5
5225
330
1B
100
AcDbEntity
 67
     1
  8
COTAS
100
AcDbDimension
  2
*D11
 10
37.30922243008979
 20
72.75745514285464
 30
0.0
 11
24.34467568265007
 21
59.79290839541491
 31
0.0
 70
   131
  1
{M6}
  3
1-1
100
AcDbDiametricDimension
 15
33.06658174297047
 25
68.51481445573532
 35
0.0
 40
0.0
1001
ACAD_DSTYLE_DIMRADIAL_EXTE
1070
   387
1070
     1
1070
   388
1040
4.450589592585518
1070
   390
1040
3.403392041388952
1001
ACAD
1000
DSTYLE
1002
{
1070
   170
1070
     0
1070
   283
1070
     0
1002
}
  0
MTEXT
  5
5226
330
1B
100
AcDbEntity
 67
     1
  8
TEXTO
100
AcDbMText
 10
57.5
 20
50.39049901529424
 30
0.0
 40
3.174999999999999
 41
26.02229999999999
 71
     5
 72
     1
  1
{\fArial|b0|i0|c0|p39;ESCALA 1:1}
1001
ACAD
1000
ACAD_MTEXT_DEFINED_HEIGHT_BEGIN
1070
    46
1040
3.228974999999999
1000
ACAD_MTEXT_DEFINED_HEIGHT_END
  0
LINE
  5
5227
330
1B
100
AcDbEntity
 67
     1
  8
PRODUTO
100
AcDbLine
 10
121.3070129807487
 20
100.2526170106693
 30
0.0
 11
121.3070129807487
 21
105.7788961099549
 31
0.0
  0
LINE
  5
5228
330
1B
100
AcDbEntity
 67
     1
  8
PRODUTO
100
AcDbLine
 10
121.3070129807487
 20
105.7788961099549
 30
0.0
 11
123.8070129248694
 21
105.7788961099549
 31
0.0
  0
LINE
  5
5229
330
1B
100
AcDbEntity
 67
     1
  8
PRODUTO
100
AcDbLine
 10
123.8070129248694
 20
100.2526170106693
 30
0.0
 11
123.8070129248694
 21
105.7788961099549
 31
0.0
  0
LINE
  5
522A
330
1B
100
AcDbEntity
 67
     1
  8
PRODUTO
100
AcDbLine
 10
123.8070129248694
 20
100.2526170106693
 30
0.0
 11
121.3070129807487
 21
100.2526170106693
 31
0.0
  0
LINE
  5
522B
330
1B
100
AcDbEntity
 67
     1
  8
PRODUTO
100
AcDbLine
 10
112.7070129215166
 20
93.7788964713081
 30
0.0
 11
132.4070129841015
 21
93.7788964713081
 31
0.0
  0
LINE
  5
522C
330
1B
100
AcDbEntity
 67
     1
  8
PRODUTO
100
AcDbLine
 10
133.3070133178875
 20
92.878896486768
 30
0.0
 11
132.4070129841015
 21
93.7788964713081
 31
0.0
  0
LINE
  5
522D
330
1B
100
AcDbEntity
 67
     1
  8
PRODUTO
100
AcDbLine
 10
136.8070129602596
 20
92.878896486768
 30
0.0
 11
133.3070133178875
 21
92.878896486768
 31
0.0
  0
LINE
  5
522E
330
1B
100
AcDbEntity
 67
     1
  8
PRODUTO
100
AcDbLine
 10
136.8070129602596
 20
90.7788965034387
 30
0.0
 11
136.8070129602596
 21
92.878896486768
 31
0.0
  0
LINE
  5
522F
330
1B
100
AcDbEntity
 67
     1
  8
PRODUTO
100
AcDbLine
 10
132.8070132359311
 20
90.7788965034387
 30
0.0
 11
136.8070129602596
 21
90.7788965034387
 31
0.0
  0
LINE
  5
5230
330
1B
100
AcDbEntity
 67
     1
  8
PRODUTO
100
AcDbLine
 10
132.3070131539747
 20
91.2788965271874
 30
0.0
 11
132.8070132359311
 21
90.7788965034387
 31
0.0
  0
LINE
  5
5231
330
1B
100
AcDbEntity
 67
     1
  8
PRODUTO
100
AcDbLine
 10
132.3070131539747
 20
91.2788965271874
 30
0.0
 11
112.8070127516434
 21
91.2788965271874
 31
0.0
  0
LINE
  5
5232
330
1B
100
AcDbEntity
 67
     1
  8
PRODUTO
100
AcDbLine
 10
112.8070127516434
 20
91.2788965271874
 30
0.0
 11
112.307012669687
 21
90.7788965034387
 31
0.0
  0
LINE
  5
5233
330
1B
100
AcDbEntity
 67
     1
  8
PRODUTO
100
AcDbLine
 10
112.307012669687
 20
90.7788965034387
 30
0.0
 11
108.3070129453585
 21
90.7788965034387
 31
0.0
  0
LINE
  5
5234
330
1B
100
AcDbEntity
 67
     1
  8
PRODUTO
100
AcDbLine
 10
108.3070129453585
 20
90.7788965034387
 30
0.0
 11
108.3070129453585
 21
92.878896486768
 31
0.0
  0
LINE
  5
5235
330
1B
100
AcDbEntity
 67
     1
  8
PRODUTO
100
AcDbLine
 10
108.3070129453585
 20
92.878896486768
 30
0.0
 11
111.8070125877306
 21
92.878896486768
 31
0.0
  0
LINE
  5
5236
330
1B
100
AcDbEntity
 67
     1
  8
PRODUTO
100
AcDbLine
 10
111.8070125877306
 20
92.878896486768
 30
0.0
 11
112.7070129215166
 21
93.7788964713081
 31
0.0
  0
LINE
  5
5237
330
1B
100
AcDbEntity
 67
     1
  8
PRODUTO
100
AcDbLine
 10
123.8070129248694
 20
98.7788963595493
 30
0.0
 11
121.3070129807487
 21
98.7788963595493
 31
0.0
  0
LINE
  5
5238
330
1B
100
AcDbEntity
 67
     1
  8
PRODUTO
100
AcDbLine
 10
123.8070129248694
 20
100.2526170106693
 30
0.0
 11
123.8070129248694
 21
98.7788963595493
 31
0.0
  0
LINE
  5
5239
330
1B
100
AcDbEntity
 67
     1
  8
PRODUTO
100
AcDbLine
 10
121.3070129807487
 20
100.2526170106693
 30
0.0
 11
121.3070129807487
 21
98.7788963595493
 31
0.0
  0
LINE
  5
523A
330
1B
100
AcDbEntity
 67
     1
  8
PRODUTO
100
AcDbLine
 10
123.8070129248694
 20
98.7788963595493
 30
0.0
 11
123.8070129248694
 21
93.7788964713081
 31
0.0
  0
LINE
  5
523B
330
1B
100
AcDbEntity
 67
     1
  8
PRODUTO
100
AcDbLine
 10
121.3070129807487
 20
98.7788963595493
 30
0.0
 11
121.3070129807487
 21
93.7788964713081
 31
0.0
  0
DIMENSION
  5
523C
330
1B
100
AcDbEntity
 67
     1
  8
COTAS
100
AcDbDimension
  2
*D12
 10
123.807012952809
 20
113.7788961099549
 30
0.0
 11
113.1347910314247
 21
113.7788961099549
 31
0.0
 70
   128
  1
<>
  3
1-1
100
AcDbAlignedDimension
 13
121.307012952809
 23
105.7788965271874
 33
0.0
 14
123.807012952809
 24
105.7788965271874
 34
0.0
100
AcDbRotatedDimension
  0
LINE
  5
523D
330
1B
100
AcDbEntity
 67
     1
  8
0
100
AcDbLine
 10
186.1184920810246
 20
92.878896486768
 30
0.0
 11
161.1184861205601
 21
92.878896486768
 31
0.0
  0
LINE
  5
523E
330
1B
100
AcDbEntity
 67
     1
  8
0
100
AcDbLine
 10
186.1184920810246
 20
90.7788965034387
 30
0.0
 11
161.1184861205601
 21
90.7788965034387
 31
0.0
  0
LINE
  5
523F
330
1B
100
AcDbEntity
 67
     1
  8
0
100
AcDbLine
 10
186.1184920810246
 20
93.7788964713081
 30
0.0
 11
161.1184861205601
 21
93.7788964713081
 31
0.0
  0
LINE
  5
5240
330
1B
100
AcDbEntity
 67
     1
  8
0
100
AcDbLine
 10
186.1184920810246
 20
90.7788965034387
 30
0.0
 11
186.1184920810246
 21
93.7788964713081
 31
0.0
  0
LINE
  5
5241
330
1B
100
AcDbEntity
 67
     1
  8
0
100
AcDbLine
 10
180.6185032866978
 20
98.7788963595493
 30
0.0
 11
175.1184846900486
 21
98.7788963595493
 31
0.0
  0
LINE
  5
5242
330
1B
100
AcDbEntity
 67
     1
  8
0
100
AcDbLine
 10
175.1184846900486
 20
98.7788963595493
 30
0.0
 11
175.1184846900486
 21
93.7788964713081
 31
0.0
  0
LINE
  5
5243
330
1B
100
AcDbEntity
 67
     1
  8
0
100
AcDbLine
 10
186.1184920810246
 20
105.7788961099549
 30
0.0
 11
161.1184861205601
 21
105.7788961099549
 31
0.0
  0
LINE
  5
5244
330
1B
100
AcDbEntity
 67
     1
  8
0
100
AcDbLine
 10
186.1184920810246
 20
100.2526170106693
 30
0.0
 11
186.1184920810246
 21
105.7788961099549
 31
0.0
  0
LINE
  5
5245
330
1B
100
AcDbEntity
 67
     1
  8
0
100
AcDbLine
 10
186.1184920810246
 20
100.2526170106693
 30
0.0
 11
180.6185032866978
 21
98.7788963595493
 31
0.0
  0
LINE
  5
5246
330
1B
100
AcDbEntity
 67
     1
  8
0
100
AcDbLine
 10
161.1184861205601
 20
105.7788961099549
 30
0.0
 11
161.1184861205601
 21
90.7788965034387
 31
0.0
  0
DIMENSION
  5
5247
330
1B
100
AcDbEntity
 67
     1
  8
COTAS
100
AcDbDimension
  2
*D13
 10
153.1184861205601
 20
90.77889652718737
 30
0.0
 11
153.1184861205601
 21
98.2788965271874
 31
0.0
 70
   128
  1
<>
 52
-270.0
  3
1-1
100
AcDbAlignedDimension
 13
161.1184920810244
 23
105.7788965271874
 33
0.0
 14
161.1184920810244
 24
90.7788965271874
 34
0.0
 50
90.0000000000002
100
AcDbRotatedDimension
  0
DIMENSION
  5
5248
330
1B
100
AcDbEntity
 67
     1
  8
COTAS
100
AcDbDimension
  2
*D14
 10
194.1184920810246
 20
90.77889652718743
 30
0.0
 11
194.1184920810246
 21
94.7788965034387
 31
0.0
 70
   128
  1
<>
 52
-270.0
  3
1-1
100
AcDbAlignedDimension
 13
180.6185032866978
 23
98.7788963595493
 33
0.0
 14
186.1184920810242
 24
90.7788965271874
 34
0.0
 50
90.0000000000002
100
AcDbRotatedDimension
  0
DIMENSION
  5
5249
330
1B
100
AcDbEntity
 67
     1
  8
COTAS
100
AcDbDimension
  2
*D15
 10
161.1184920810244
 20
113.7788961099549
 30
0.0
 11
173.6184920810246
 21
113.7788961099549
 31
0.0
 70
   128
  1
<>
  3
1-1
100
AcDbAlignedDimension
 13
186.1184920810244
 23
105.7788965271874
 33
0.0
 14
161.1184920810244
 24
105.7788965271874
 34
0.0
100
AcDbRotatedDimension
  0
LINE
  5
524A
330
1B
100
AcDbEntity
 67
     1
  8
0
100
AcDbLine
 10
123.8070129248694
 20
44.30090671769455
 30
0.0
 11
123.8070129248694
 21
69.30091267815902
 31
0.0
  0
LINE
  5
524B
330
1B
100
AcDbEntity
 67
     1
  8
0
100
AcDbLine
 10
121.3070129807487
 20
44.30090671769455
 30
0.0
 11
121.3070129807487
 21
69.30091267815902
 31
0.0
  0
LINE
  5
524C
330
1B
100
AcDbEntity
 67
     1
  8
0
100
AcDbLine
 10
112.7070129215166
 20
44.30090671769455
 30
0.0
 11
112.7070129215166
 21
69.30091267815902
 31
0.0
  0
LINE
  5
524D
330
1B
100
AcDbEntity
 67
     1
  8
0
100
AcDbLine
 10
111.8070125877306
 20
44.30090671769455
 30
0.0
 11
111.8070125877306
 21
69.30091267815902
 31
0.0
  0
LINE
  5
524E
330
1B
100
AcDbEntity
 67
     1
  8
0
100
AcDbLine
 10
132.4070129841015
 20
44.30090671769455
 30
0.0
 11
132.4070129841015
 21
69.30091267815902
 31
0.0
  0
LINE
  5
524F
330
1B
100
AcDbEntity
 67
     1
  8
0
100
AcDbLine
 10
133.3070133178875
 20
44.30090671769455
 30
0.0
 11
133.3070133178875
 21
69.30091267815902
 31
0.0
  0
CIRCLE
  5
5250
330
1B
100
AcDbEntity
 67
     1
  8
0
100
AcDbCircle
 10
128.307012952809
 20
61.80090671769467
 30
0.0
 40
2.500000000000014
  0
CIRCLE
  5
5251
330
1B
100
AcDbEntity
 67
     1
  8
0
100
AcDbCircle
 10
116.807012952809
 20
61.80090671769467
 30
0.0
 40
2.500000000000014
  0
LINE
  5
5252
330
1B
100
AcDbEntity
 67
     1
  8
0
100
AcDbLine
 10
136.8070129602596
 20
69.30091267815902
 30
0.0
 11
108.3070129453585
 21
69.30091267815902
 31
0.0
  0
LINE
  5
5253
330
1B
100
AcDbEntity
 67
     1
  8
0
100
AcDbLine
 10
136.8070129602596
 20
44.30090671769455
 30
0.0
 11
136.8070129602596
 21
69.30091267815902
 31
0.0
  0
LINE
  5
5254
330
1B
100
AcDbEntity
 67
     1
  8
0
100
AcDbLine
 10
136.8070129602596
 20
44.30090671769455
 30
0.0
 11
108.3070129453585
 21
44.30090671769455
 31
0.0
  0
LINE
  5
5255
330
1B
100
AcDbEntity
 67
     1
  8
0
100
AcDbLine
 10
108.3070129453585
 20
44.30090671769455
 30
0.0
 11
108.3070129453585
 21
69.30091267815902
 31
0.0
  0
DIMENSION
  5
5256
330
1B
100
AcDbEntity
 67
     1
  8
COTAS
100
AcDbDimension
  2
*D16
 10
136.807012952809
 20
36.30090671769455
 30
0.0
 11
122.557012952809
 21
36.30090671769455
 31
0.0
 70
   128
  1
<>
  3
1-1
100
AcDbAlignedDimension
 13
108.307012952809
 23
44.3009067176947
 33
0.0
 14
136.807012952809
 24
44.3009067176947
 34
0.0
100
AcDbRotatedDimension
  0
DIMENSION
  5
5257
330
1B
100
AcDbEntity
 67
     1
  8
COTAS
100
AcDbDimension
  2
*D17
 10
100.3070129453585
 20
69.30090671769469
 30
0.0
 11
100.3070129453585
 21
65.55090671769474
 31
0.0
 70
   128
  1
<>
 52
-270.0
  3
1-1
100
AcDbAlignedDimension
 13
112.807012952809
 23
61.80090671769483
 33
0.0
 14
108.307012952809
 24
69.30090671769472
 34
0.0
 50
90.0000000000002
100
AcDbRotatedDimension
  0
DIMENSION
  5
5258
330
1B
100
AcDbEntity
 67
     1
  8
COTAS
100
AcDbDimension
  2
*D18
 10
128.307012952809
 20
77.30091267815902
 30
0.0
 11
122.557012952809
 21
77.30091267815902
 31
0.0
 70
   128
  1
<>
  3
1-1
100
AcDbAlignedDimension
 13
116.807012952809
 23
65.80090671769469
 33
0.0
 14
128.307012952809
 24
65.80090671769469
 34
0.0
100
AcDbRotatedDimension
  0
LINE
  5
5259
330
1B
100
AcDbEntity
 67
     1
  8
CENTRO
100
AcDbLine
 10
112.807012952809
 20
61.80090671769483
 30
0.0
 11
132.307012952809
 21
61.80090671769483
 31
0.0
  0
LINE
  5
525A
330
1B
100
AcDbEntity
 67
     1
  8
CENTRO
100
AcDbLine
 10
116.807012952809
 20
57.80090671769466
 30
0.0
 11
116.807012952809
 21
65.80090671769469
 31
0.0
  0
LINE
  5
525B
330
1B
100
AcDbEntity
 67
     1
  8
CENTRO
100
AcDbLine
 10
128.307012952809
 20
65.80090671769469
 30
0.0
 11
128.307012952809
 21
57.80090671769466
 31
0.0
  0
DIMENSION
  5
525C
330
1B
100
AcDbEntity
 67
     1
  8
COTAS
100
AcDbDimension
  2
*D19
 10
126.5392459998426
 20
60.03313976472832
 30
0.0
 11
136.8891963252188
 21
70.3830900901043
 31
0.0
 70
   131
  3
1-1
100
AcDbDiametricDimension
 15
130.0747799057754
 25
63.56867367066103
 35
0.0
 40
0.0
1001
ACAD_DSTYLE_DIMRADIAL_EXTE
1070
   387
1070
     1
1070
   388
1040
0.0
1070
   390
1040
6.283185307179586
  0
MTEXT
  5
525D
330
1B
100
AcDbEntity
 67
     1
  8
TEXTO
100
AcDbMText
 10
147.2127525131915
 20
129.039901538622
 30
0.0
 40
3.0
 41
62.68300122230232
 71
     5
 72
     1
  1
{\fArial|b0|i0|c0|p39;TRAVA FOLHA}
1001
ACAD
1000
ACAD_MTEXT_DEFINED_HEIGHT_BEGIN
1070
    46
1040
3.051
1000
ACAD_MTEXT_DEFINED_HEIGHT_END
  0
MTEXT
  5
525E
330
1B
100
AcDbEntity
 67
     1
  8
TEXTO
100
AcDbMText
 10
57.5
 20
129.039901538622
 30
0.0
 40
3.0
 41
62.68300122230232
 71
     5
 72
     1
  1
{\fArial|b0|i0|c0|p39;CONTRAFECHO}
1001
ACAD
1000
ACAD_MTEXT_DEFINED_HEIGHT_BEGIN
1070
    46
1040
3.051
1000
ACAD_MTEXT_DEFINED_HEIGHT_END
  0
MTEXT
  5
525F
330
1B
100
AcDbEntity
 67
     1
  8
TEXTO
100
AcDbMText
 10
152.5
 20
28.52066147094641
 30
0.0
 40
3.174999999999999
 41
26.02229999999999
 71
     5
 72
     1
  1
{\fArial|b0|i0|c0|p39;ESCALA 1:1}
1001
ACAD
1000
ACAD_MTEXT_DEFINED_HEIGHT_BEGIN
1070
    46
1040
3.228974999999999
1000
ACAD_MTEXT_DEFINED_HEIGHT_END
  0
INSERT
  5
5260
330
1B
100
AcDbEntity
 67
     1
  8
PERFIS
100
AcDbBlockReference
  2
CHR-028
 10
185.2681065464201
 20
170.7169988466377
 30
0.0
 41
-1.0
  0
MTEXT
  5
5261
330
1B
100
AcDbEntity
 67
     1
  8
TEXTO
100
AcDbMText
 10
137.5
 20
150.6571149119634
 30
0.0
 40
3.0
 41
47.8219887570885
 71
     5
 72
     1
  1
{\fArial|b0|i0|c0|p39;ESCALA 1 : 1}
1001
ACAD
1000
ACAD_MTEXT_DEFINED_HEIGHT_BEGIN
1070
    46
1040
3.051
1000
ACAD_MTEXT_DEFINED_HEIGHT_END
  0
INSERT
  5
5262
330
1B
100
AcDbEntity
 67
     1
  8
PERFIS
100
AcDbBlockReference
  2
CHR-010
 10
90.6680886302187
 20
156.4669390867043
 30
0.0
  0
INSERT
  5
5263
330
1B
100
AcDbEntity
 67
     1
  8
PERFIS
100
AcDbBlockReference
  2
CHR-005
 10
10170.31031319684
 20
8104.490291261473
 30
0.0
 41
-2.0
 42
2.0
 43
2.0
  0
INSERT
  5
5264
330
1B
100
AcDbEntity
 67
     1
  8
PRODUTO
100
AcDbBlockReference
  2
CTFASI-389
 10
107.7681312031156
 20
186.9669984656667
 30
0.0
 50
270.0
  0
INSERT
  5
5265
330
1B
100
AcDbEntity
 67
     1
  8
PRODUTO
100
AcDbBlockReference
  2
TRAVA_DA_FOLHA_FIXA
 10
127.168106546407
 20
172.7169984657667
 30
0.0
  0
INSERT
  5
5266
330
1B
100
AcDbEntity
 67
     1
  8
OUTROS_COMPONENTES
100
AcDbBlockReference
  2
FIT-206
 10
119.0718001773866
 20
176.3568060565672
 30
0.0
 41
-2.0
 42
2.0
 43
2.0
  0
INSERT
  5
5267
330
1B
100
AcDbEntity
 67
     1
  8
OUTROS_COMPONENTES
100
AcDbBlockReference
  2
FIT-206
 10
119.0718002240986
 20
197.5771908949733
 30
0.0
 41
2.0
 42
2.0
 43
2.0
 50
180.0
  0
MTEXT
  5
5268
330
1B
100
AcDbEntity
 67
     1
  8
TEXTO
100
AcDbMText
 10
105.0
 20
139.9999999999982
 30
0.0
 40
3.0
 41
26.02229999999999
 71
     5
 72
     1
  1
{\fArial|b0|i0|c0|p39;DIMENSÕES}
1001
ACAD
1000
ACAD_MTEXT_DEFINED_HEIGHT_BEGIN
1070
    46
1040
3.051
1000
ACAD_MTEXT_DEFINED_HEIGHT_END
  0
LINE
  5
5269
330
1B
100
AcDbEntity
 67
     1
  8
LAYOUT
100
AcDbLine
 10
12.5
 20
193.0037280044264
 30
0.0
 11
72.5
 21
193.0037280044264
 31
0.0
  0
TEXT
  5
526A
330
1B
100
AcDbEntity
 67
     1
  8
TEXTO
100
AcDbText
 10
47.44025
 20
189.7537280044264
 30
0.0
 40
1.5
  1
INOX
 72
     1
 11
50.0
 21
190.5037280044264
 31
0.0
100
AcDbText
 73
     2
  0
TEXT
  5
526B
330
1B
100
AcDbEntity
 67
     1
  8
TEXTO
100
AcDbText
 10
66.918
 20
189.7537280044264
 30
0.0
 40
1.5
  1
2
 72
     1
 11
67.5
 21
190.5037280044264
 31
0.0
100
AcDbText
 73
     2
  0
LINE
  5
526C
330
1B
100
AcDbEntity
 67
     1
  8
LAYOUT
100
AcDbLine
 10
12.5
 20
188.0037280044264
 30
0.0
 11
72.5
 21
188.0037280044264
 31
0.0
  0
TEXT
  5
526D
330
1B
100
AcDbEntity
 67
     1
  8
TEXTO
100
AcDbText
 10
47.44025
 20
184.7537280044264
 30
0.0
 40
1.5
  1
INOX
 72
     1
 11
50.0
 21
185.5037280044264
 31
0.0
100
AcDbText
 73
     2
  0
TEXT
  5
526E
330
1B
100
AcDbEntity
 67
     1
  8
TEXTO
100
AcDbText
 10
66.918
 20
184.7537280044264
 30
0.0
 40
1.5
  1
4
 72
     1
 11
67.5
 21
185.5037280044264
 31
0.0
100
AcDbText
 73
     2
  0
TEXT
  5
526F
330
1B
100
AcDbEntity
 67
     1
  8
TEXTO
100
AcDbText
 10
15.75025
 20
186.0037280044264
 30
0.0
 40
1.5
  1
PARFUSO PAN/PH
 72
     1
 11
25.0
 21
186.7537280044264
 31
0.0
100
AcDbText
 73
     2
  0
TEXT
  5
5270
330
1B
100
AcDbEntity
 67
     1
  8
TEXTO
100
AcDbText
 10
21.2755
 20
183.5037280044264
 30
0.0
 40
1.5
  1
4,2 x 13
 72
     1
 11
25.0
 21
184.2537280044264
 31
0.0
100
AcDbText
 73
     2
  0
TEXT
  5
5271
330
1B
100
AcDbEntity
 67
     1
  8
TEXTO
100
AcDbText
 10
15.63325
 20
191.0037280044264
 30
0.0
 40
1.5
  1
PARAFUSO ALLEN
 72
     1
 11
25.0
 21
191.7537280044264
 31
0.0
100
AcDbText
 73
     2
  0
TEXT
  5
5272
330
1B
100
AcDbEntity
 67
     1
  8
TEXTO
100
AcDbText
 10
20.404
 20
188.5037280044264
 30
0.0
 40
1.5
  1
S.C M6x7
 72
     1
 11
25.0
 21
189.2537280044264
 31
0.0
100
AcDbText
 73
     2
  0
ENDSEC
  0
SECTION
  2
OBJECTS
  0
DICTIONARY
  5
C
330
0
100
AcDbDictionary
  3
ACAD_DETAILVIEWSTYLE
350
B5
  3
ACAD_GROUP
350
D
  3
ACAD_IMAGE_VARS
350
6A
  3
ACAD_MLINESTYLE
350
17
  3
ACAD_SCALELIST
350
5278
  3
ACAD_SECTIONVIEWSTYLE
350
B6
  3
ACDBVARIABLEDICTIONARY
350
3D
  3
APPDATA
350
71
  3
CENTERLINE
350
534
  3
DIMOFFSETDICTIONARY
350
52A
  3
DWGPROPS
350
52BE
  0
DICTIONARY
  5
12A
330
2
100
AcDbDictionary
280
     1
  3
ACAD_LAYERSTATES
360
12B
  3
ACLYDICTIONARY
360
AAF
  0
DICTIONARY
  5
17D6
330
17D5
100
AcDbDictionary
280
     1
  3
ACAD_SORTENTS
360
17D7
  0
DICTIONARY
  5
B5
102
{ACAD_REACTORS
330
C
102
}
330
C
100
AcDbDictionary
  0
DICTIONARY
  5
D
102
{ACAD_REACTORS
330
C
102
}
330
C
100
AcDbDictionary
  0
RASTERVARIABLES
  5
6A
102
{ACAD_REACTORS
330
C
102
}
330
C
100
AcDbRasterVariables
 90
        0
 70
     1
 71
     1
 72
     1
  0
DICTIONARY
  5
17
102
{ACAD_REACTORS
330
C
102
}
330
C
100
AcDbDictionary
  3
STANDARD
350
18
  0
DICTIONARY
  5
5278
102
{ACAD_REACTORS
330
C
102
}
330
C
100
AcDbDictionary
  0
DICTIONARY
  5
B6
102
{ACAD_REACTORS
330
C
102
}
330
C
100
AcDbDictionary
  0
DICTIONARY
  5
3D
102
{ACAD_REACTORS
330
C
102
}
330
C
100
AcDbDictionary
  0
DICTIONARY
  5
71
102
{ACAD_REACTORS
330
C
102
}
330
C
100
AcDbDictionary
  0
DICTIONARY
  5
534
102
{ACAD_REACTORS
330
C
102
}
330
C
100
AcDbDictionary
  3
CLEXTENSION
350
5E7
  0
DICTIONARY
  5
52A
102
{ACAD_REACTORS
330
C
102
}
330
C
100
AcDbDictionary
  3
DIMRAILANGLE
350
5E5
  3
DIMRAILFIRSTOFFSET
350
5E3
  3
DIMRAILOFFSET
350
5E4
  3
DIMRAILSENABLED
350
9A2
  0
XRECORD
  5
52BE
102
{ACAD_REACTORS
330
C
102
}
330
C
100
AcDbXrecord
  1
DWGPROPS COOKIE
  2

  3

  4

  6

  7

  8
andbr2
  9

300
=
301
=
302
=
303
=
304
=
305
=
306
=
307
=
308
=
309
=
 40
0.0
 41
2455022.679026158
 42
2458751.685312685
  1

 90
        0
  0
DICTIONARY
  5
12B
102
{ACAD_REACTORS
330
12A
102
}
330
12A
100
AcDbDictionary
  0
DICTIONARY
  5
AAF
102
{ACAD_REACTORS
330
12A
102
}
330
12A
100
AcDbDictionary
1001
ACAD
1000
<All
  0
SORTENTSTABLE
  5
17D7
102
{ACAD_REACTORS
330
17D6
102
}
330
17D6
100
AcDbSortentsTable
330
17D5
  0
MLINESTYLE
  5
18
102
{ACAD_REACTORS
330
17
102
}
330
17
100
AcDbMlineStyle
  2
Standard
 70
     0
  3

 62
   256
 51
90.0
 52
90.0
 71
     2
 49
0.5
 62
   256
  6
BYLAYER
 49
-0.5
 62
   256
  6
BYLAYER
  0
DICTIONARYVAR
  5
5E7
102
{ACAD_REACTORS
330
534
102
}
330
534
100
DictionaryVariables
280
     0
  1
2.500000
  0
DICTIONARYVAR
  5
5E5
102
{ACAD_REACTORS
330
52A
102
}
330
52A
100
DictionaryVariables
280
     0
  1
0.261799
  0
DICTIONARYVAR
  5
5E3
102
{ACAD_REACTORS
330
52A
102
}
330
52A
100
DictionaryVariables
280
     0
  1
10.000000
  0
DICTIONARYVAR
  5
5E4
102
{ACAD_REACTORS
330
52A
102
}
330
52A
100
DictionaryVariables
280
     0
  1
6.000000
  0
DICTIONARYVAR
  5
9A2
102
{ACAD_REACTORS
330
52A
102
}
330
52A
100
DictionaryVariables
280
     0
  1
1
  0
ENDSEC
  0
EOF
